<?xml version="1.0" standalone="no"?>
<!DOCTYPE svg PUBLIC "-//W3C//DTD SVG 1.1//EN" "http://www.w3.org/Graphics/SVG/1.1/DTD/svg11.dtd" >
<svg xmlns="http://www.w3.org/2000/svg" xmlns:xlink="http://www.w3.org/1999/xlink" version="1.1">
<metadata>
Created by FontForge 20170731 at Thu Apr 11 17:36:37 2013
 By Aleksey,,,
Generated in 2013 by FontLab Studio. Copyright info pending.
</metadata>
<defs>
<font id="CircularStd-BlackItalic" horiz-adv-x="587" >
  <font-face 
    font-family="Circular Std Black Italic"
    font-weight="900"
    font-style="italic"
    font-stretch="normal"
    units-per-em="1000"
    panose-1="2 11 10 4 2 1 1 1 1 2"
    ascent="809"
    descent="-191"
    x-height="497"
    cap-height="709"
    bbox="-139 -268 1633 1016"
    underline-thickness="80"
    underline-position="-355"
    slope="-12"
    unicode-range="U+000D-FEFF"
  />
<missing-glyph horiz-adv-x="593" 
d="M-4 0v709h601v-709h-601zM120 124h353v461h-353v-461z" />
    <glyph glyph-name="f_f" unicode="ff" horiz-adv-x="711" 
d="M175 0h-153l79 369h-84l27 128h84l13 62q38 174 206 174q54 0 89 -19l-26 -124l-4 2q-4 2 -15.5 4.5t-25.5 2.5q-27 0 -48.5 -13.5t-27.5 -41.5l-10 -47h182l13 62q38 174 205 174q55 0 90 -19l-26 -124l-4 2q-4 2 -15.5 4.5t-25.5 2.5q-64 0 -76 -55l-10 -47h103
l-28 -128h-102l-77 -369h-153l78 369h-181z" />
    <glyph glyph-name="f_f_i" unicode="ffi" horiz-adv-x="976" 
d="M805 642q0 41 28 68.5t69 27.5q36 0 58 -22t22 -55q0 -42 -29 -69t-69 -27q-34 0 -56.5 22t-22.5 55zM175 0h-153l79 369h-84l27 128h84l13 62q38 174 206 174q54 0 89 -19l-26 -124l-4 2q-4 2 -15.5 4.5t-25.5 2.5q-27 0 -48.5 -13.5t-27.5 -41.5l-10 -47h182l13 62
q38 174 205 174q55 0 90 -19l-26 -124l-4 2q-4 2 -15.5 4.5t-25.5 2.5q-64 0 -76 -55l-10 -47h326l-105 -497h-152l79 369h-175l-77 -369h-153l78 369h-181z" />
    <glyph glyph-name="f_f_l" unicode="ffl" horiz-adv-x="983" 
d="M175 0h-153l79 369h-84l27 128h84l13 62q38 174 206 174q54 0 89 -19l-26 -124l-4 2q-4 2 -15.5 4.5t-25.5 2.5q-27 0 -48.5 -13.5t-27.5 -41.5l-10 -47h182l13 62q38 174 205 174q55 0 90 -19l-26 -124l-4 2q-4 2 -15.5 4.5t-25.5 2.5q-64 0 -76 -55l-10 -47h182l47 227
h153l-154 -724h-152l78 369h-181l-77 -369h-153l78 369h-181z" />
    <glyph glyph-name="f_i" unicode="fi" horiz-adv-x="646" 
d="M252 369l-77 -369h-153l79 369h-84l27 128h84l16 71q37 165 203 165q54 0 89 -19l-26 -124l-4 2q-5 2 -17 4.5t-26 2.5q-60 0 -75 -63l-9 -39h330l-106 -497h-152l78 369h-177zM475 642q0 40 28.5 68t69.5 28q35 0 57 -22t22 -55q0 -42 -29 -69t-69 -27q-34 0 -56.5 22
t-22.5 55z" />
    <glyph glyph-name="f_l" unicode="fl" horiz-adv-x="645" 
d="M252 369l-77 -369h-153l79 369h-84l27 128h84l16 71q37 165 203 165q54 0 89 -19l-26 -124l-4 2q-5 2 -17 4.5t-26 2.5q-61 0 -75 -64l-9 -38h176l49 227h152l-154 -724h-152l78 369h-176z" />
    <glyph glyph-name=".notdef" horiz-adv-x="593" 
d="M-4 0v709h601v-709h-601zM120 124h353v461h-353v-461z" />
    <glyph glyph-name=".null" horiz-adv-x="0" 
 />
    <glyph glyph-name=".null" horiz-adv-x="0" 
 />
    <glyph glyph-name="uni000D" unicode="&#xd;" horiz-adv-x="261" 
 />
    <glyph glyph-name="space" unicode=" " horiz-adv-x="261" 
 />
    <glyph glyph-name="exclam" unicode="!" horiz-adv-x="324" 
d="M72 222l68 487h182l-138 -487h-112zM16 67q0 39 28 67.5t67 28.5q35 0 56.5 -22.5t21.5 -54.5q0 -40 -28.5 -68t-65.5 -28q-35 0 -57 22.5t-22 54.5z" />
    <glyph glyph-name="quotedbl" unicode="&#x22;" horiz-adv-x="435" 
d="M132 366h-52l-11 173l-1 5v12v18q0 37 25.5 61.5t62.5 24.5q34 0 56 -20.5t22 -51.5q0 -19 -14 -47zM328 366h-52l-11 173l-1 5v12v18q0 37 25.5 61.5t62.5 24.5q34 0 56 -20.5t22 -51.5q0 -19 -14 -47z" />
    <glyph glyph-name="numbersign" unicode="#" horiz-adv-x="733" 
d="M80 392v105h144l33 151h114l-33 -151h126l33 151h115l-33 -151h123v-105h-145l-28 -130h122v-106h-145l-33 -156h-115l33 156h-126l-33 -156h-114l33 156h-120v106h143l28 130h-122zM316 392l-28 -130h126l28 130h-126z" />
    <glyph glyph-name="dollar" unicode="$" horiz-adv-x="579" 
d="M138 -116l24 116q-71 23 -111 76t-40 120q0 15 1 25l143 24q-2 -14 -2 -21q0 -45 27 -76t83 -32q39 0 59.5 17.5t20.5 46.5q0 41 -43 60l-75 32q-133 56 -133 179q0 87 61 144t150 66l21 105h126l-25 -116q72 -23 105 -75.5t33 -103.5l-145 -24q0 8 -1.5 16.5t-7 21.5
t-14.5 23t-27 17.5t-42 7.5q-35 0 -56 -20.5t-21 -48.5q0 -41 42 -60l69 -29q143 -60 143 -185q0 -78 -59 -138t-159 -66l-21 -102h-126z" />
    <glyph glyph-name="percent" unicode="%" horiz-adv-x="802" 
d="M191 430q26 0 46.5 20t20.5 55q0 24 -14 39.5t-37 15.5q-27 0 -47 -20.5t-20 -54.5q0 -24 13.5 -39t37.5 -16zM183 329q-65 0 -107.5 43t-42.5 107q0 78 55 130t127 52q65 0 107.5 -43.5t42.5 -106.5q0 -79 -55.5 -130.5t-126.5 -51.5zM596 88q26 0 46.5 20t20.5 55
q0 24 -14 39.5t-37 15.5q-27 0 -47 -20.5t-20 -54.5q0 -24 13.5 -39t37.5 -16zM588 -13q-65 0 -107.5 43t-42.5 107q0 78 55 130t127 52q65 0 107.5 -43.5t42.5 -106.5q0 -79 -55.5 -130.5t-126.5 -51.5zM762 649l-587 -649h-134l587 649h134z" />
    <glyph glyph-name="ampersand" unicode="&#x26;" horiz-adv-x="679" 
d="M612 0h-168l-47 67l-14 -12q-76 -64 -172 -64q-95 0 -150 54.5t-55 128.5q0 73 40 121t119 91l8 4l-6 9q-48 69 -48 131q0 91 64 142.5t150 51.5q84 0 137 -48t53 -118q-1 -112 -141 -188l-20 -11l71 -103l220 183l-41 -192l-109 -91zM154 190q0 -28 21 -48.5t53 -20.5
q44 0 89 38l10 8l-87 126l-16 -9q-70 -37 -70 -94zM294 456l29 16q58 30 58 75q0 24 -16.5 39t-43.5 15q-25 0 -44 -16.5t-19 -49.5q0 -26 23 -59z" />
    <glyph glyph-name="quotesingle" unicode="'" horiz-adv-x="239" 
d="M132 366h-52l-11 173l-1 5v12v18q0 37 25.5 61.5t62.5 24.5q34 0 56 -20.5t22 -51.5q0 -19 -14 -47z" />
    <glyph glyph-name="parenleft" unicode="(" horiz-adv-x="340" 
d="M24 209q0 209 84 360t253 263l68 -90q-278 -198 -278 -524q0 -178 103 -324l-100 -71q-56 77 -93 178t-37 208z" />
    <glyph glyph-name="parenright" unicode=")" horiz-adv-x="344" 
d="M313 443q0 -381 -340 -620l-69 90q131 101 206 228.5t75 301.5q0 179 -102 316l102 70q128 -178 128 -386z" />
    <glyph glyph-name="asterisk" unicode="*" horiz-adv-x="464" 
d="M356 709l-25 -124l120 37l18 -114l-122 -35l55 -95l-103 -66l-57 101l-94 -104l-83 69l95 103l-108 35l51 107l107 -36l22 122h124z" />
    <glyph glyph-name="plus" unicode="+" horiz-adv-x="590" 
d="M354 236v-195h-128v195h-190v124h190v195h128v-195h190v-124h-190z" />
    <glyph glyph-name="comma" unicode="," horiz-adv-x="292" 
d="M-8 77q0 45 31.5 74t76.5 29t72 -30t27 -76q0 -102 -70.5 -172t-172.5 -76l16 73q38 3 77 32t48 71q-8 -4 -23 -4q-37 0 -59.5 22.5t-22.5 56.5z" />
    <glyph glyph-name="hyphen" unicode="-" horiz-adv-x="368" 
d="M306 233h-299l29 137h300z" />
    <glyph glyph-name="period" unicode="." horiz-adv-x="290" 
d="M84 -7q-41 0 -67 27t-26 65q0 45 33.5 77.5t81.5 32.5q41 0 66 -26t25 -65q0 -45 -33 -78t-80 -33z" />
    <glyph glyph-name="slash" unicode="/" horiz-adv-x="475" 
d="M569 724l-516 -739h-142l515 739h143z" />
    <glyph glyph-name="zero" unicode="0" horiz-adv-x="613" 
d="M182 238q0 -114 93 -114q41 0 72.5 30t48 76.5t25 93t8.5 87.5q0 114 -94 114q-40 0 -71.5 -30t-48 -76t-25 -92.5t-8.5 -88.5zM268 -15q-123 0 -182.5 73t-59.5 176q0 49 9 102.5t32 113t57.5 106.5t91.5 77.5t128 30.5q122 0 182 -73t60 -177q0 -49 -9 -102.5
t-32.5 -113t-58 -106t-91.5 -77t-127 -30.5z" />
    <glyph glyph-name="one" unicode="1" horiz-adv-x="382" 
d="M224 0h-157l90 428h-135l22 104q64 1 113 33.5t69 83.5h135z" />
    <glyph glyph-name="two" unicode="2" horiz-adv-x="552" 
d="M-35 0q4 4 4 28q17 95 65 161t145 108l117 51q47 20 70 44t23 59q0 31 -20 52.5t-63 21.5q-50 0 -74 -34.5t-24 -93.5l-145 15q0 110 69 181t185 71q110 0 169 -56t59 -139q0 -152 -176 -230l-135 -59q-37 -17 -57 -48h297l-28 -132h-481z" />
    <glyph glyph-name="three" unicode="3" horiz-adv-x="545" 
d="M200 293l-51 109l188 115h-271l26 132h471l-29 -145l-180 -113q62 -8 101.5 -54t39.5 -113q0 -96 -75 -167.5t-190 -71.5q-113 0 -178.5 64t-65.5 152q0 7 1 13l154 17q-1 -7 -1 -15q0 -42 25.5 -68.5t67.5 -26.5q46 0 74.5 27.5t28.5 71.5q0 39 -26 61t-63 22
q-27 0 -47 -10z" />
    <glyph glyph-name="four" unicode="4" horiz-adv-x="599" 
d="M-19 135l34 160l346 354h187l-81 -382h105l-28 -132h-105l-28 -135h-157l28 135h-301zM310 267l45 213l-208 -213h163z" />
    <glyph glyph-name="five" unicode="5" horiz-adv-x="543" 
d="M-5 197l146 27q-1 -5 -1 -11q0 -38 26.5 -66.5t69.5 -28.5q44 0 75.5 28t31.5 78q0 39 -27.5 61.5t-67.5 22.5q-50 0 -84 -32l-128 58l132 315h375l-28 -132h-261l-47 -114q35 24 94 24q97 0 149 -50.5t52 -136.5q0 -108 -73.5 -182t-193.5 -74q-107 0 -173.5 64
t-66.5 149z" />
    <glyph glyph-name="six" unicode="6" horiz-adv-x="579" 
d="M597 614l-66 -120q-51 28 -126 28q-69 0 -128.5 -38t-85.5 -111q44 59 136 59q94 0 146 -50.5t52 -135.5q0 -112 -75 -186t-189 -74q-107 0 -176 70.5t-69 183.5q0 176 114 296t291 120q121 0 176 -42zM277 308q-44 0 -75 -29t-31 -74q0 -38 25 -62t66 -24
q44 0 74.5 28.5t30.5 75.5q0 38 -25 61.5t-65 23.5z" />
    <glyph glyph-name="seven" unicode="7" horiz-adv-x="545" 
d="M569 649l-27 -126q-28 -18 -68 -54t-97 -99.5t-111.5 -161.5t-87.5 -208h-166q26 97 73.5 189.5t98.5 158t91.5 107.5t69.5 63h-305l28 131h501z" />
    <glyph glyph-name="eight" unicode="8" horiz-adv-x="559" 
d="M296 387q40 0 63.5 23.5t23.5 56.5q0 27 -19.5 47t-57.5 20q-42 0 -64 -24.5t-22 -55.5q0 -27 18.5 -47t57.5 -20zM149 190q0 -34 26 -55.5t65 -21.5q45 0 72 27t27 62q0 31 -23 53.5t-69 22.5q-45 0 -71.5 -27.5t-26.5 -60.5zM490 185q0 -92 -76.5 -146t-180.5 -54
q-99 0 -168 46.5t-69 135.5q0 64 44.5 110t115.5 61q-36 17 -61 53t-25 79q0 85 69.5 139.5t175.5 54.5q107 0 167 -50t60 -127q0 -57 -36.5 -101t-98.5 -64q38 -15 60.5 -54.5t22.5 -82.5z" />
    <glyph glyph-name="nine" unicode="9" horiz-adv-x="566" 
d="M196 427q0 -37 24.5 -60t64.5 -23q44 0 74.5 28t30.5 73q0 39 -24.5 62.5t-66.5 23.5q-43 0 -73 -28.5t-30 -75.5zM-25 37l62 120q57 -33 125 -33q73 0 130 40t80 111q-49 -55 -128 -55q-92 0 -148.5 56t-56.5 142q0 110 76 178t189 68q107 0 176 -70t69 -184
q0 -194 -112 -309.5t-277 -115.5q-109 0 -185 52z" />
    <glyph glyph-name="colon" unicode=":" horiz-adv-x="301" 
d="M87 -7q-41 0 -66 26.5t-25 63.5q0 43 33 75t79 32q40 0 64.5 -25.5t24.5 -63.5q0 -43 -32.5 -75.5t-77.5 -32.5zM153 308q-41 0 -66 26.5t-25 63.5q0 43 33 75t79 32q40 0 64.5 -25.5t24.5 -63.5q0 -43 -32.5 -75.5t-77.5 -32.5z" />
    <glyph glyph-name="semicolon" unicode=";" horiz-adv-x="301" 
d="M-7 71q0 43 30 70.5t73 27.5t68.5 -29t25.5 -72q0 -97 -66.5 -163.5t-164.5 -71.5l15 69q36 3 73.5 30.5t45.5 67.5q-8 -4 -22 -4q-35 0 -56.5 21.5t-21.5 53.5zM153 307q-41 0 -66 26.5t-25 63.5q0 43 33 75t79 32q40 0 64.5 -25.5t24.5 -63.5q0 -43 -32.5 -75.5
t-77.5 -32.5z" />
    <glyph glyph-name="less" unicode="&#x3c;" horiz-adv-x="501" 
d="M21 244v108l439 224v-138l-289 -137l289 -139v-140z" />
    <glyph glyph-name="equal" unicode="=" horiz-adv-x="619" 
d="M56 339v122h495v-122h-495zM56 138v122h495v-122h-495z" />
    <glyph glyph-name="greater" unicode="&#x3e;" horiz-adv-x="501" 
d="M478 353v-108l-439 -223v137l288 138l-288 139v140z" />
    <glyph glyph-name="question" unicode="?" horiz-adv-x="509" 
d="M267 220h-116v7q0 123 103 181l58 32q51 28 51 81q0 28 -19.5 48.5t-58.5 20.5q-48 0 -74 -33.5t-26 -81.5l-138 13q0 100 69 168t178 68q108 0 166.5 -54t58.5 -127q0 -131 -136 -209l-43 -25q-36 -20 -52.5 -39.5t-20.5 -49.5zM109 67q0 39 28.5 67.5t66.5 28.5
q35 0 56.5 -22.5t21.5 -54.5q0 -40 -28.5 -68t-65.5 -28q-35 0 -57 22.5t-22 54.5z" />
    <glyph glyph-name="at" unicode="@" horiz-adv-x="799" 
d="M425 -48q-177 0 -290 104.5t-113 273.5q0 173 115 284t281 111q155 0 257 -94t102 -235q0 -110 -63 -181.5t-145 -73.5h-4q-38 0 -61.5 17t-31.5 41q-17 -29 -47.5 -44.5t-66.5 -15.5q-64 0 -107.5 48.5t-43.5 123.5q0 96 57.5 159.5t137.5 63.5q29 0 55 -13.5t37 -39.5
l8 40h102l-51 -244q-1 -5 -1 -14t6.5 -17.5t20.5 -8.5q36 0 65 45t29 113q0 103 -71 167t-183 64q-125 0 -206 -81t-81 -212q0 -124 79 -204t214 -80q99 0 174 52l51 -73q-38 -34 -102.5 -55t-122.5 -21zM472 365q0 32 -15.5 51t-44.5 19q-41 0 -66.5 -33t-25.5 -82
q0 -38 16 -60.5t47 -22.5q38 0 63 36t26 92z" />
    <glyph glyph-name="A" unicode="A" horiz-adv-x="693" 
d="M463 0l-19 144h-263l-79 -144h-177l412 709h183l107 -709h-164zM394 532l-133 -244h164z" />
    <glyph glyph-name="B" unicode="B" horiz-adv-x="615" 
d="M152 709h245q93 0 142 -46.5t49 -123.5q0 -61 -38.5 -112.5t-95.5 -67.5q35 -12 64 -49.5t29 -89.5q0 -97 -69.5 -158.5t-179.5 -61.5h-296zM246 425h80q46 0 74.5 24t28.5 65q0 64 -81 64h-70zM183 129h94q51 0 83 26t32 70q0 32 -21.5 51t-63.5 19h-88z" />
    <glyph glyph-name="C" unicode="C" horiz-adv-x="718" 
d="M415 723l4 1q72 0 129.5 -21.5t92 -57t54.5 -73.5t26 -78l-155 -48q-10 50 -47.5 88t-110.5 38q-84 0 -149.5 -69t-65.5 -186q0 -78 46 -128t124 -50q115 0 168 119l141 -57q-14 -38 -38.5 -73t-62.5 -69t-95.5 -54.5t-126.5 -20.5q-142 0 -230 91.5t-88 232.5
q0 95 32.5 174.5t86.5 131.5t122.5 80.5t142.5 28.5z" />
    <glyph glyph-name="D" unicode="D" horiz-adv-x="713" 
d="M189 152h120q96 0 153.5 75.5t57.5 171.5q0 74 -39.5 118t-120.5 44h-85zM302 0h-300l148 709h219q146 0 229.5 -82t83.5 -217q0 -96 -31.5 -175t-84.5 -129.5t-121 -78t-143 -27.5z" />
    <glyph glyph-name="E" unicode="E" horiz-adv-x="581" 
d="M451 0h-449l150 709h449l-32 -149h-291l-29 -135h264l-29 -139h-264l-29 -136h292z" />
    <glyph glyph-name="F" unicode="F" horiz-adv-x="565" 
d="M160 0h-158l150 709h456l-32 -150h-299l-31 -150h263l-31 -144h-261z" />
    <glyph glyph-name="G" unicode="G" horiz-adv-x="763" 
d="M407 574q-84 0 -149 -68t-65 -189q0 -83 44.5 -134.5t124.5 -51.5q70 0 114 31.5t62 82.5h-207l29 134h352l-80 -379h-119v69q-60 -80 -181 -80q-137 0 -219 88.5t-82 230.5q0 95 32 174.5t85.5 131.5t122 80.5t143.5 28.5l4 1q72 0 130 -20.5t93.5 -54t56 -70.5
t26.5 -76l-155 -48q-9 48 -48 83.5t-114 35.5z" />
    <glyph glyph-name="H" unicode="H" horiz-adv-x="732" 
d="M580 0h-159l60 284h-261l-61 -284h-157l150 709h158l-59 -276h262l59 276h159z" />
    <glyph glyph-name="I" unicode="I" horiz-adv-x="313" 
d="M161 0h-159l150 709h160z" />
    <glyph glyph-name="J" unicode="J" horiz-adv-x="558" 
d="M407 709h160l-108 -511q-20 -97 -88.5 -155t-162.5 -58q-100 0 -157.5 55t-57.5 144q0 35 7 66l5 22l153 23l-9 -47q-4 -18 -4 -39q0 -31 18 -52.5t54 -21.5q33 0 55.5 23.5t30.5 60.5z" />
    <glyph glyph-name="K" unicode="K" horiz-adv-x="703" 
d="M429 0l-137 277l-92 -84l-41 -193h-157l150 709h158l-59 -276l302 276h218l-356 -322l202 -387h-188z" />
    <glyph glyph-name="L" unicode="L" horiz-adv-x="559" 
d="M460 0h-458l150 709h158l-119 -558h301z" />
    <glyph glyph-name="M" unicode="M" horiz-adv-x="955" 
d="M802 0h-155l100 469l-280 -469h-126l-91 463l-99 -463h-149l150 709h196l97 -478l278 478h230z" />
    <glyph glyph-name="N" unicode="N" horiz-adv-x="753" 
d="M601 0h-156l-188 465l-99 -465h-156l150 709h180l170 -432l92 432h158z" />
    <glyph glyph-name="O" unicode="O" horiz-adv-x="760" 
d="M31 307q0 95 32 175t85.5 132t122 81t142.5 29q143 0 230 -88.5t87 -232.5q0 -95 -32 -175t-85.5 -132.5t-122.5 -81.5t-143 -29q-141 0 -228.5 89t-87.5 233zM568 397q0 80 -43 127.5t-120 47.5q-84 0 -148 -69t-64 -187q0 -80 43 -128.5t119 -48.5q84 0 148.5 70
t64.5 188z" />
    <glyph glyph-name="P" unicode="P" horiz-adv-x="593" 
d="M152 709h234q97 0 158.5 -56.5t61.5 -146.5q0 -115 -76.5 -182t-203.5 -68h-112l-55 -256h-157zM346 573h-64l-39 -181h81q60 0 89.5 29t29.5 71q0 81 -97 81z" />
    <glyph glyph-name="Q" unicode="Q" horiz-adv-x="761" 
d="M31 307q0 95 32 175t85.5 132t122 81t142.5 29q143 0 230 -88.5t87 -232.5q0 -192 -124 -313l68 -99l-121 -76l-67 97q-66 -27 -139 -27q-141 0 -228.5 89t-87.5 233zM303 279l120 77l91 -132q54 73 54 173q0 80 -43 127.5t-120 47.5q-84 0 -148 -69t-64 -187
q0 -80 43 -128.5t119 -48.5q23 0 41 5z" />
    <glyph glyph-name="R" unicode="R" horiz-adv-x="635" 
d="M381 0l-91 264h-74l-56 -264h-158l150 709h255q99 0 153 -51t54 -133q0 -86 -47 -148.5t-125 -88.5l106 -288h-167zM244 400h90q54 0 85.5 28.5t31.5 73.5q0 71 -83 71h-87z" />
    <glyph glyph-name="S" unicode="S" horiz-adv-x="586" 
d="M264 122q45 0 70.5 20t25.5 54q0 46 -51 68l-83 34q-140 57 -140 195q0 102 76 166t182 64q69 0 120 -21.5t76.5 -55.5t37 -66.5t11.5 -63.5l-147 -24q0 11 -3.5 23.5t-12.5 30t-32.5 29t-56.5 11.5q-41 0 -66.5 -24t-25.5 -55q0 -46 50 -67l75 -32q154 -66 154 -200
q0 -89 -70 -156t-187 -67q-58 0 -105 15t-77.5 38.5t-51 54t-29 60.5t-8.5 59q0 15 2 27l145 25q-2 -10 -2 -23q0 -49 31 -83.5t92 -35.5z" />
    <glyph glyph-name="T" unicode="T" horiz-adv-x="607" 
d="M630 558h-198l-119 -558h-158l118 558h-208l33 151h565z" />
    <glyph glyph-name="U" unicode="U" horiz-adv-x="680" 
d="M529 709h160l-102 -481q-26 -118 -103.5 -180.5t-184.5 -62.5q-115 0 -185.5 64.5t-70.5 169.5q0 31 12 91l83 399h160l-86 -407q-8 -38 -8 -60q0 -101 109 -101q98 0 122 116z" />
    <glyph glyph-name="V" unicode="V" horiz-adv-x="688" 
d="M240 709l63 -502l271 502h180l-408 -709h-163l-108 709h165z" />
    <glyph glyph-name="W" unicode="W" horiz-adv-x="1019" 
d="M497 709h162l51 -458l207 458h171l-342 -709h-159l-51 470l-244 -470h-169l-42 709h159l21 -457z" />
    <glyph glyph-name="X" unicode="X" horiz-adv-x="676" 
d="M309 218l-177 -218h-201l312 359l-162 350h183l93 -219l178 219h200l-311 -359l163 -350h-185z" />
    <glyph glyph-name="Y" unicode="Y" horiz-adv-x="634" 
d="M227 296l-154 413h167l90 -262l182 262h190l-317 -414l-62 -295h-159z" />
    <glyph glyph-name="Z" unicode="Z" horiz-adv-x="643" 
d="M522 0h-552l33 152l416 406h-321l32 151h538l-30 -146l-427 -412h343z" />
    <glyph glyph-name="bracketleft" unicode="[" horiz-adv-x="336" 
d="M218 -171h-249l211 994h250l-24 -114h-124l-163 -764h124z" />
    <glyph glyph-name="backslash" unicode="\" horiz-adv-x="454" 
d="M266 -15l-214 739h128l214 -739h-128z" />
    <glyph glyph-name="bracketright" unicode="]" horiz-adv-x="344" 
d="M142 -171h-248l25 116h123l162 764h-124l24 114h250z" />
    <glyph glyph-name="asciicircum" unicode="^" horiz-adv-x="570" 
d="M241 709h112l200 -359h-138l-116 217l-117 -217h-140z" />
    <glyph glyph-name="underscore" unicode="_" horiz-adv-x="503" 
d="M-74 -124v124h511v-124h-511z" />
    <glyph glyph-name="grave" unicode="`" horiz-adv-x="281" 
d="M124 556l-108 151h166l59 -151h-117z" />
    <glyph glyph-name="a" unicode="a" 
d="M271 371q-53 0 -84 -45t-31 -104q0 -47 24 -73t63 -26q45 0 79 40t34 113q0 45 -23 70t-62 25zM408 497h147l-85 -397q-9 -39 -9 -81q0 -10 1 -19h-138q-1 6 -1 18q0 21 3 41q-42 -67 -125 -67q-88 0 -141.5 63t-53.5 160q0 128 72.5 211t178.5 83q43 0 76 -13t45.5 -26
t19.5 -26z" />
    <glyph glyph-name="b" unicode="b" horiz-adv-x="612" 
d="M142 0h-148l153 724h149l-55 -266q18 21 52 35t73 14q93 0 144 -59t51 -150q0 -135 -75 -222.5t-184 -87.5q-55 0 -94.5 23.5t-52.5 52.5zM315 373q-52 0 -87 -44t-35 -103q0 -48 26.5 -75t66.5 -27q46 0 83.5 40t38.5 111q0 49 -26 73.5t-67 24.5z" />
    <glyph glyph-name="c" unicode="c" horiz-adv-x="534" 
d="M509 340l-137 -38q-6 30 -29 50t-64 20q-48 0 -86 -39.5t-38 -108.5q0 -46 27.5 -72.5t71.5 -26.5q68 0 99 63l124 -47q-27 -66 -88 -111t-146 -45q-102 0 -170 66t-68 170q0 130 84.5 210.5t200.5 80.5q95 0 151 -50.5t68 -121.5z" />
    <glyph glyph-name="d" unicode="d" horiz-adv-x="590" 
d="M602 724l-132 -624q-9 -38 -9 -77q0 -17 1 -23h-138q-1 6 -1 22q0 7 3 37q-42 -67 -125 -67q-88 0 -141.5 63t-53.5 160q0 128 72.5 211t178.5 83q96 0 135 -58l58 273h152zM271 371q-53 0 -84 -45t-31 -104q0 -47 24 -73t63 -26q45 0 79 40t34 113q0 45 -23 70t-62 25z
" />
    <glyph glyph-name="e" unicode="e" horiz-adv-x="544" 
d="M159 308h195v7q0 29 -20.5 52.5t-64.5 23.5q-83 0 -110 -83zM480 210l-335 -1q0 -42 27 -70.5t77 -28.5q65 0 93 56l118 -53q-27 -55 -83 -91.5t-141 -36.5q-96 0 -163 65t-67 166q0 131 79.5 213.5t184.5 82.5q103 0 163.5 -59.5t60.5 -153.5q0 -47 -14 -89z" />
    <glyph glyph-name="f" unicode="f" horiz-adv-x="378" 
d="M354 369h-102l-77 -369h-153l79 369h-84l27 128h84l16 71q37 165 203 165q54 0 89 -19l-26 -124l-4 2q-5 2 -17 4.5t-26 2.5q-61 0 -75 -64l-9 -38h103z" />
    <glyph glyph-name="g" unicode="g" 
d="M359 285q0 40 -24 64t-61 24q-50 0 -82 -36t-32 -91q0 -41 24.5 -65t64.5 -24q44 0 77 35.5t33 92.5zM-52 -13l133 26q0 -38 26 -62.5t74 -24.5q49 0 83 30.5t47 87.5l7 31q-36 -45 -109 -45q-91 0 -146 57.5t-55 147.5q0 115 71.5 194t177.5 79q57 0 94 -19t51 -44
l10 52h147l-96 -455q-23 -110 -95.5 -178.5t-184.5 -68.5q-115 0 -175 58t-60 134z" />
    <glyph glyph-name="h" unicode="h" horiz-adv-x="593" 
d="M457 0h-152l57 264q6 26 6 42q0 31 -18.5 50t-51.5 19q-34 0 -56.5 -24t-31.5 -63l-62 -288h-152l153 724h153l-57 -267q44 53 125 53q75 0 115.5 -44.5t40.5 -115.5q0 -29 -8 -65z" />
    <glyph glyph-name="i" unicode="i" horiz-adv-x="287" 
d="M115 642q0 40 28.5 68t69.5 28q35 0 57 -22t22 -55q0 -42 -29 -69t-69 -27q-34 0 -56.5 22t-22.5 55zM143 0h-152l106 497h152z" />
    <glyph glyph-name="j" unicode="j" horiz-adv-x="285" 
d="M-9 -20l111 517h151l-117 -551q-15 -74 -61.5 -112.5t-114.5 -38.5q-64 0 -99 27l25 118l6 -2q5 -3 17.5 -6t25.5 -3q47 0 56 51zM120 642q0 41 28 68.5t69 27.5q36 0 58 -22t22 -55q0 -42 -29 -69t-69 -27q-34 0 -56.5 22t-22.5 55z" />
    <glyph glyph-name="k" unicode="k" horiz-adv-x="577" 
d="M322 0l-82 184l-65 -57l-27 -127h-152l153 724h153l-82 -383l174 156h207l-248 -215l138 -282h-169z" />
    <glyph glyph-name="l" unicode="l" horiz-adv-x="286" 
d="M143 0h-152l154 724h152z" />
    <glyph glyph-name="m" unicode="m" horiz-adv-x="896" 
d="M455 0h-152l59 274q4 17 4 31q0 31 -18 50.5t-51 19.5q-34 0 -56 -23t-31 -63l-62 -289h-152l87 414q9 45 9 83h148q0 -35 -2 -47q21 29 57 44.5t74 15.5q95 0 135 -72q57 72 164 72q73 0 117 -46.5t44 -118.5q0 -21 -5 -49l-63 -296h-151l58 273q4 16 4 32
q0 31 -17.5 50.5t-50.5 19.5q-68 0 -87 -86z" />
    <glyph glyph-name="n" unicode="n" horiz-adv-x="593" 
d="M457 0h-152l56 263q6 25 6 43q0 32 -17.5 50.5t-51.5 18.5t-56.5 -24t-31.5 -63l-62 -288h-152l87 414q9 43 9 83h148q0 -29 -3 -47q22 30 58.5 45t74.5 15q75 0 115.5 -44.5t40.5 -115.5q0 -26 -6 -55z" />
    <glyph glyph-name="o" unicode="o" horiz-adv-x="568" 
d="M276 373q-53 0 -86.5 -44t-33.5 -104q0 -47 25.5 -74t65.5 -27q45 0 82.5 39t37.5 110q0 48 -24.5 73.5t-66.5 26.5zM518 280q0 -121 -79.5 -208t-201.5 -87q-102 0 -166.5 66.5t-64.5 166.5q0 130 82 212t199 82q104 0 167.5 -66t63.5 -166z" />
    <glyph glyph-name="p" unicode="p" horiz-adv-x="608" 
d="M312 375q-52 0 -86.5 -45t-34.5 -104q0 -49 26 -75.5t66 -26.5q46 0 83.5 40t37.5 111q0 48 -25.5 74t-66.5 26zM232 449q20 25 55.5 41.5t75.5 16.5q94 0 144.5 -58t50.5 -151q0 -135 -75.5 -222.5t-184.5 -87.5q-53 0 -91 19t-55 45l-50 -242h-152l128 604q9 45 9 83
h148q0 -39 -3 -48z" />
    <glyph glyph-name="q" unicode="q" horiz-adv-x="590" 
d="M555 497l-147 -688h-152l47 222q-39 -39 -105 -39q-87 1 -140 64.5t-53 158.5q0 128 72.5 210.5t178.5 82.5q62 0 96 -20.5t46 -42.5l10 52h147zM270 371q-52 0 -83 -45t-31 -104q0 -47 24.5 -73t63.5 -26q45 0 78.5 40t33.5 112q0 46 -23.5 71t-62.5 25z" />
    <glyph glyph-name="r" unicode="r" horiz-adv-x="417" 
d="M381 344q-30 9 -60 9q-97 0 -124 -126l-49 -227h-152l88 414q9 45 9 83h148q0 -32 -4 -54q42 58 124 58q32 0 52 -9z" />
    <glyph glyph-name="s" unicode="s" horiz-adv-x="446" 
d="M-18 150l128 21q-1 -5 -1 -9q0 -31 17.5 -48.5t47.5 -17.5q26 0 39.5 11.5t13.5 29.5q0 29 -34 43l-48 20q-113 47 -113 145q0 69 55 118t139 49q55 0 94.5 -16t58.5 -41.5t27.5 -49.5t8.5 -49l-130 -15q0 63 -60 63q-22 0 -36.5 -12t-14.5 -31q0 -26 27 -36l62 -25
q113 -46 113 -149q0 -66 -53 -116t-144 -50q-58 0 -100 17.5t-61.5 45t-27.5 51t-8 45.5v6z" />
    <glyph glyph-name="t" unicode="t" horiz-adv-x="393" 
d="M250 364l-39 -182q-2 -12 -2 -17q0 -43 51 -43q17 0 37 5l-26 -120q-28 -14 -69 -14q-69 0 -109 36.5t-40 97.5q0 18 5 43l40 194h-86l28 133h24q75 0 94 81l15 64h136l-31 -145h96l-29 -133h-95z" />
    <glyph glyph-name="u" unicode="u" horiz-adv-x="578" 
d="M85 497h152l-60 -281q-3 -15 -3 -28q0 -31 17.5 -48.5t50.5 -17.5q34 0 55.5 23.5t30.5 63.5l62 288h152l-86 -410q-9 -41 -9 -87h-147q-1 6 -1 17t2 31q-17 -28 -50.5 -44.5t-69.5 -16.5q-78 0 -121 46.5t-43 118.5q0 26 6 53z" />
    <glyph glyph-name="v" unicode="v" horiz-adv-x="531" 
d="M555 497l-286 -497h-152l-88 497h157l38 -310l162 310h169z" />
    <glyph glyph-name="w" unicode="w" horiz-adv-x="822" 
d="M354 497h162l34 -293l136 293h155l-251 -497h-150l-39 321l-164 -321h-156l-47 497h149l21 -292z" />
    <glyph glyph-name="x" unicode="x" horiz-adv-x="527" 
d="M218 135l-117 -135h-180l233 255l-130 242h167l64 -131l112 131h183l-231 -252l131 -245h-166z" />
    <glyph glyph-name="y" unicode="y" horiz-adv-x="534" 
d="M125 -190h-167l165 266l-103 421h159l56 -265l155 265h168z" />
    <glyph glyph-name="z" unicode="z" horiz-adv-x="500" 
d="M382 0h-417l28 134l263 234h-206l28 129h407l-27 -125l-274 -242h226z" />
    <glyph glyph-name="braceleft" unicode="{" horiz-adv-x="377" 
d="M17 269l26 124q98 0 117 88l31 145q23 108 79.5 152.5t151.5 44.5h50l-24 -114h-37q-78 0 -94 -81l-36 -170q-11 -50 -43 -85t-83 -44q73 -24 73 -101q0 -11 -4 -33l-33 -158q-3 -13 -3 -25q0 -61 68 -61h31l-24 -113h-36q-76 0 -120.5 41t-44.5 114q0 27 6 57l28 130
q3 14 3 25q0 64 -82 64z" />
    <glyph glyph-name="bar" unicode="|" horiz-adv-x="290" 
d="M95 -162h-126l209 985h126z" />
    <glyph glyph-name="braceright" unicode="}" horiz-adv-x="380" 
d="M351 392l-26 -124q-98 0 -116 -88l-31 -146q-41 -196 -237 -196h-45l24 113h38q76 0 94 83l36 169q11 50 43 84.5t83 44.5q-73 23 -73 100q0 10 4 32l33 160q3 14 3 26q0 59 -67 59h-32l24 114h37q75 0 119.5 -40.5t44.5 -113.5q0 -27 -6 -57l-29 -132q-3 -14 -3 -24
q0 -64 82 -64z" />
    <glyph glyph-name="asciitilde" unicode="~" horiz-adv-x="659" 
d="M507 375l80 -65q-27 -52 -72 -81t-98 -29q-59 0 -112 30l-47 26q-25 13 -50 13q-50 0 -84 -50l-82 65q27 52 71.5 81t97.5 29q57 0 112 -29l48 -26q26 -14 52 -14q50 0 84 50z" />
    <glyph glyph-name="uni00A0" unicode="&#xa0;" horiz-adv-x="261" 
 />
    <glyph glyph-name="exclamdown" unicode="&#xa1;" horiz-adv-x="256" 
d="M174 281l-68 -487h-183l139 487h112zM229 435q0 -39 -28 -67t-67 -28q-35 0 -56 22.5t-21 54.5q0 39 28.5 67t64.5 28q35 0 57 -22t22 -55z" />
    <glyph glyph-name="cent" unicode="&#xa2;" horiz-adv-x="552" 
d="M143 0l19 91q-63 23 -99 77t-36 125q0 109 67.5 182t166.5 86l19 88h115l-21 -97q56 -18 90 -58.5t42 -89.5l-130 -35q-4 27 -26.5 46t-61.5 19q-46 0 -82 -36.5t-36 -100.5q0 -43 25.5 -67.5t67.5 -24.5q67 0 95 57l119 -42q-24 -58 -76.5 -98.5t-126.5 -46.5l-16 -75
h-115z" />
    <glyph glyph-name="sterling" unicode="&#xa3;" horiz-adv-x="596" 
d="M46 273l23 110h65q-5 28 -5 54q0 94 60.5 159.5t168.5 65.5q103 0 151 -51.5t48 -122.5q0 -6 -0.5 -12.5t-0.5 -9.5l-1 -4l-134 -13l1 3v7v8q0 32 -17 51.5t-52 19.5q-36 0 -60.5 -25.5t-24.5 -79.5q0 -16 6 -50h169l-24 -110h-134q-4 -48 -28 -87t-65 -56h137
q38 0 59 21t26 54l127 -22q-12 -81 -68 -132t-137 -51h-350l28 127q56 9 91 50.5t41 95.5h-100z" />
    <glyph glyph-name="currency" unicode="&#xa4;" horiz-adv-x="634" 
d="M76 248q0 55 26 101l-71 72l90 90l74 -74q49 23 99 23q54 0 98 -23l74 74l91 -90l-71 -72q26 -49 26 -101q0 -56 -26 -102l71 -70l-91 -91l-73 73q-47 -22 -99 -22q-53 0 -99 23l-74 -74l-90 91l70 70q-25 47 -25 102zM201 248q0 -40 26 -65.5t67 -25.5t67 25.5t26 65.5
t-26 65.5t-67 25.5t-67 -25.5t-26 -65.5z" />
    <glyph glyph-name="yen" unicode="&#xa5;" horiz-adv-x="637" 
d="M57 294l22 106h101l-92 249h161l78 -236l176 236h169l-200 -249h110l-22 -106h-184l-13 -63h184l-23 -106h-183l-26 -125h-147l26 125h-174l23 106h173l14 63h-173z" />
    <glyph glyph-name="brokenbar" unicode="&#xa6;" horiz-adv-x="290" 
d="M220 425h-127l85 398h126zM95 -163h-126l85 398h126z" />
    <glyph glyph-name="section" unicode="&#xa7;" horiz-adv-x="575" 
d="M-10 3l147 9q-2 -13 -2 -23q0 -66 71 -66q27 0 46.5 18t19.5 44q0 29 -29 49l-87 60q-52 36 -80 72.5t-28 86.5q0 103 103 147q-44 48 -44 116q0 92 72 150t161 58q96 0 150.5 -50t54.5 -126q0 -17 -2 -33l-146 -9q2 20 2 25q0 31 -20 47.5t-51 16.5q-27 0 -46.5 -18
t-19.5 -44q0 -29 26 -47l90 -61q108 -73 108 -159q0 -106 -103 -148q43 -49 43 -116q0 -92 -71.5 -150t-160.5 -58q-96 0 -151 50t-55 126q0 17 2 33zM319 277l-92 64q-35 -22 -35 -58q0 -26 23 -42l92 -64q34 20 34 59q0 26 -22 41z" />
    <glyph glyph-name="dieresis" unicode="&#xa8;" horiz-adv-x="391" 
d="M1 624q0 33 25.5 59t60.5 26q30 0 49.5 -20.5t19.5 -49.5q0 -35 -26.5 -59t-59.5 -24q-30 0 -49.5 20t-19.5 48zM219 624q0 33 25.5 59t59.5 26q30 0 50 -20.5t20 -49.5q0 -35 -26.5 -59t-59.5 -24q-30 0 -49.5 20t-19.5 48z" />
    <glyph glyph-name="copyright" unicode="&#xa9;" horiz-adv-x="804" 
d="M27 354q0 153 108.5 262t261.5 109t261.5 -109t108.5 -262t-108.5 -261.5t-261.5 -108.5q-154 0 -262 108.5t-108 261.5zM115 354q0 -121 81.5 -204.5t200.5 -83.5q118 0 199.5 83.5t81.5 204.5t-81.5 205t-199.5 84q-119 0 -200.5 -84t-81.5 -205zM578 420l-100 -27
q-4 21 -21.5 36t-46.5 15q-35 0 -63 -29t-28 -80q0 -34 20 -53.5t52 -19.5q48 0 74 46l90 -34q-20 -48 -64.5 -81t-106.5 -33q-76 0 -125 48.5t-49 124.5q0 95 61.5 153.5t145.5 58.5q69 0 110.5 -36.5t50.5 -88.5z" />
    <glyph glyph-name="ordfeminine" unicode="&#xaa;" horiz-adv-x="451" 
d="M230 549q-33 0 -52 -28t-19 -64q0 -31 16 -47t40 -16q27 0 48 24t21 70q0 31 -15 46t-39 15zM322 649h114l-59 -274q-9 -41 -9 -77h-105q0 24 2 41q-24 -46 -84 -46q-61 0 -99.5 45t-38.5 113q0 91 51 148.5t125 57.5q31 0 54 -9.5t30.5 -18t10.5 -15.5z" />
    <glyph glyph-name="guillemotleft" unicode="&#xab;" horiz-adv-x="542" 
d="M237 102h-135l-100 199l179 196h147l-189 -204zM470 102h-135l-100 199l179 196h147l-189 -204z" />
    <glyph glyph-name="logicalnot" unicode="&#xac;" horiz-adv-x="631" 
d="M549 129h-130v195h-372v125h502v-320z" />
    <glyph glyph-name="uni00AD" unicode="&#xad;" horiz-adv-x="368" 
d="M306 233h-299l29 137h300z" />
    <glyph glyph-name="registered" unicode="&#xae;" horiz-adv-x="804" 
d="M27 354q0 153 108.5 262t261.5 109t261.5 -109t108.5 -262t-108.5 -261.5t-261.5 -108.5q-154 0 -262 108.5t-108 261.5zM115 354q0 -121 81.5 -204.5t200.5 -83.5q118 0 199.5 83.5t81.5 204.5t-81.5 205t-199.5 84q-119 0 -200.5 -84t-81.5 -205zM424 157l-35 130
l-26 1l-28 -134h-104l85 399h152q52 0 86 -33.5t34 -81.5t-27.5 -85.5t-73.5 -52.5l46 -143h-109zM382 372h37q26 0 45 16.5t19 42.5q0 38 -43 38h-38z" />
    <glyph glyph-name="macron" unicode="&#xaf;" horiz-adv-x="303" 
d="M275 577h-285l22 105h286z" />
    <glyph glyph-name="degree" unicode="&#xb0;" horiz-adv-x="386" 
d="M200 433q26 0 46.5 20t20.5 55q0 24 -14 39.5t-37 15.5q-27 0 -47 -20.5t-20 -54.5q0 -24 13.5 -39t37.5 -16zM192 332q-65 0 -107.5 43t-42.5 107q0 78 55 130t127 52q65 0 107.5 -43.5t42.5 -106.5q0 -79 -55.5 -130.5t-126.5 -51.5z" />
    <glyph glyph-name="plusminus" unicode="&#xb1;" horiz-adv-x="625" 
d="M371 314v-116h-128v116h-178v124h178v117h128v-117h178v-124h-178zM65 40v124h484v-124h-484z" />
    <glyph glyph-name="twosuperior" unicode="&#xb2;" horiz-adv-x="385" 
d="M166 521l66 28q42 17 42 45q0 13 -9 23.5t-27 10.5q-48 0 -48 -56l-99 8q0 57 42 97.5t110 40.5q69 0 106.5 -32.5t37.5 -81.5q0 -86 -111 -132l-76 -32q-1 0 -6 -5h151l-21 -95h-284q0 127 126 181z" />
    <glyph glyph-name="threesuperior" unicode="&#xb3;" horiz-adv-x="430" 
d="M197 499l-27 70l105 49h-167l19 91h291l-22 -105l-96 -46q34 -8 55 -32.5t21 -59.5q0 -56 -45.5 -95t-117.5 -39q-70 0 -110.5 37t-40.5 88q0 2 0.5 7t0.5 7l104 6q-1 -4 -1 -8q0 -20 13 -32.5t36 -12.5q22 0 35 12t13 31q0 17 -12.5 26.5t-30.5 9.5q-11 0 -23 -4z" />
    <glyph glyph-name="acute" unicode="&#xb4;" horiz-adv-x="279" 
d="M286 707l-174 -151h-129l122 151h181z" />
    <glyph glyph-name="mu" unicode="&#xb5;" horiz-adv-x="610" 
d="M47 -190v687h153v-282q0 -38 20.5 -62t59.5 -24q38 0 60 23.5t22 61.5v283h153v-408q0 -39 5 -89h-146q-4 18 -4 50q-18 -30 -55 -45.5t-78 -15.5q-21 0 -37 3v-182h-153z" />
    <glyph glyph-name="paragraph" unicode="&#xb6;" horiz-adv-x="690" 
d="M413 597l-167 -788h-116l103 482h-9q-76 0 -126.5 50.5t-50.5 124.5q0 114 87 178.5t202 64.5h412l-24 -112h-97l-167 -788h-117l167 788h-97z" />
    <glyph glyph-name="periodcentered" unicode="&#xb7;" horiz-adv-x="289" 
d="M42 313q0 40 29.5 70t72.5 30q36 0 60 -23.5t24 -56.5q0 -44 -30 -74t-72 -30q-37 0 -60.5 24.5t-23.5 59.5z" />
    <glyph glyph-name="cedilla" unicode="&#xb8;" horiz-adv-x="272" 
d="M126 12h96l-64 -65q36 -4 58 -26.5t22 -52.5q0 -39 -33 -71t-97 -32q-52 0 -88.5 23.5t-46.5 43.5l56 51q32 -42 75 -42q38 0 38 26t-36 26q-5 0 -11.5 -0.5t-9.5 -0.5l-24 52z" />
    <glyph glyph-name="onesuperior" unicode="&#xb9;" horiz-adv-x="312" 
d="M214 341h-115l46 217h-93l15 73q46 1 79.5 24.5t45.5 53.5h100z" />
    <glyph glyph-name="ordmasculine" unicode="&#xba;" horiz-adv-x="416" 
d="M235 552q-35 0 -55.5 -28.5t-20.5 -64.5q0 -30 16 -46.5t41 -16.5q28 0 52 24t24 69q0 61 -57 63zM408 495q0 -85 -56.5 -146t-143.5 -61q-72 0 -118.5 47t-46.5 118q0 92 59 149.5t142 57.5q73 0 118.5 -47t45.5 -118z" />
    <glyph glyph-name="guillemotright" unicode="&#xbb;" horiz-adv-x="531" 
d="M43 497h133l102 -199l-179 -196h-148l189 204zM274 497h133l102 -199l-179 -196h-148l189 204z" />
    <glyph glyph-name="onequarter" unicode="&#xbc;" horiz-adv-x="820" 
d="M199 281h-115l46 217h-93l15 73q46 1 79.5 24.5t45.5 53.5h100zM390 71l24 114l201 184h121l-44 -212h60l-19 -86h-59l-15 -71h-113l15 71h-171zM579 157l21 97l-106 -97h85zM731 649l-587 -649h-134l587 649h134z" />
    <glyph glyph-name="onehalf" unicode="&#xbd;" horiz-adv-x="854" 
d="M200 281h-115l46 217h-93l15 73q46 1 79.5 24.5t45.5 53.5h100zM731 649l-587 -649h-134l587 649h134zM566 181l66 28q42 17 42 45q0 13 -9 23.5t-27 10.5q-48 0 -48 -56l-99 8q0 57 42 97.5t110 40.5q69 0 106.5 -32.5t37.5 -81.5q0 -86 -111 -132l-76 -32q-2 0 -6 -5
h151l-21 -95h-284q0 127 126 181z" />
    <glyph glyph-name="threequarters" unicode="&#xbe;" horiz-adv-x="934" 
d="M177 439l-27 70l105 49h-167l19 91h291l-22 -105l-96 -46q34 -8 55 -32.5t21 -59.5q0 -56 -45.5 -95t-117.5 -39q-70 0 -110.5 37t-40.5 88q0 2 0.5 7t0.5 7l104 6q-1 -4 -1 -8q0 -20 13 -32.5t36 -12.5q22 0 35 12t13 31q0 17 -12.5 26.5t-30.5 9.5q-11 0 -23 -4z
M503 71l24 114l201 184h121l-44 -212h60l-19 -86h-59l-15 -71h-113l15 71h-171zM692 157l21 97l-106 -97h85zM844 649l-587 -649h-134l587 649h134z" />
    <glyph glyph-name="questiondown" unicode="&#xbf;" horiz-adv-x="442" 
d="M169 283h116q0 -27 -3.5 -47.5t-12.5 -47.5t-31 -51t-56 -42l-58 -32q-51 -29 -51 -82q0 -28 20 -48t59 -20q47 0 73.5 33.5t26.5 81.5l138 -14q-1 -99 -70 -167t-177 -68t-167 54t-59 127q0 131 136 209l43 25q37 21 53 39.5t20 49.5zM327 435q0 -39 -28.5 -67
t-66.5 -28q-35 0 -56.5 22.5t-21.5 54.5q0 39 28.5 67t65.5 28q35 0 57 -22t22 -55z" />
    <glyph glyph-name="Agrave" unicode="&#xc0;" horiz-adv-x="693" 
d="M463 0l-19 144h-263l-79 -144h-177l412 709h183l107 -709h-164zM394 532l-133 -244h164zM366 759l-120 132h174l76 -132h-130z" />
    <glyph glyph-name="Aacute" unicode="&#xc1;" horiz-adv-x="693" 
d="M463 0l-19 144h-263l-79 -144h-177l412 709h183l107 -709h-164zM394 532l-133 -244h164zM683 891l-177 -132h-143l132 132h188z" />
    <glyph glyph-name="Acircumflex" unicode="&#xc2;" horiz-adv-x="693" 
d="M463 0l-19 144h-263l-79 -144h-177l412 709h183l107 -709h-164zM394 532l-133 -244h164zM371 759h-139l150 132h146l95 -132h-135l-44 65z" />
    <glyph glyph-name="Atilde" unicode="&#xc3;" horiz-adv-x="693" 
d="M463 0l-19 144h-263l-79 -144h-177l412 709h183l107 -709h-164zM394 532l-133 -244h164zM629 895q-10 -74 -44 -109t-84 -35q-34 0 -76 25q-36 23 -51 23q-29 0 -35 -42h-93q8 73 45 106.5t88 33.5q36 0 74 -23q4 -2 12.5 -8t12.5 -8t10.5 -4.5t11.5 -2.5q29 0 36 44h93z
" />
    <glyph glyph-name="Adieresis" unicode="&#xc4;" horiz-adv-x="693" 
d="M193 817q0 33 25.5 60t61.5 27q31 0 51.5 -21t20.5 -50q0 -36 -26 -61t-60 -25q-33 0 -53 20t-20 50zM526 817q0 33 26 60t62 27q31 0 51 -21t20 -50q0 -37 -25.5 -61.5t-60.5 -24.5q-33 0 -53 20t-20 50zM463 0l-19 144h-263l-79 -144h-177l412 709h183l107 -709h-164z
M394 532l-133 -244h164z" />
    <glyph glyph-name="Aring" unicode="&#xc5;" horiz-adv-x="693" 
d="M394 533l-133 -245h164zM436 804q-22 0 -37.5 -15t-15.5 -38q0 -19 12.5 -30.5t32.5 -11.5q21 0 37.5 15t16.5 39q0 19 -13 30t-33 11zM290 745q0 60 46 104.5t108 44.5q55 0 93.5 -35t38.5 -88q0 -65 -49 -109l100 -662h-164l-19 144h-263l-79 -144h-177l389 670
q-24 32 -24 75z" />
    <glyph glyph-name="AE" unicode="&#xc6;" horiz-adv-x="1075" 
d="M684 150h292l-32 -150h-450l32 152h-271l-129 -152h-201l618 709h551l-31 -149h-291l-29 -135h263l-29 -143h-263zM366 282h188l63 295z" />
    <glyph glyph-name="Ccedilla" unicode="&#xc7;" horiz-adv-x="718" 
d="M415 723l4 1q72 0 129.5 -21.5t92 -57t54.5 -73.5t26 -78l-155 -48q-10 50 -47.5 88t-110.5 38q-84 0 -149.5 -69t-65.5 -186q0 -78 46 -128t124 -50q115 0 168 119l141 -57q-13 -35 -35 -68.5t-56.5 -65.5t-85 -54t-111.5 -27l-38 -39q36 -4 58 -26.5t22 -52.5
q0 -39 -33 -71t-97 -32q-52 0 -88.5 23.5t-46.5 43.5l56 51q32 -42 75 -42q38 0 38 26t-36 26q-10 0 -21 -1l-24 52l43 44q-118 18 -189.5 106t-71.5 214q0 95 32.5 174.5t86.5 131.5t122.5 80.5t142.5 28.5z" />
    <glyph glyph-name="Egrave" unicode="&#xc8;" horiz-adv-x="581" 
d="M339 759l-120 132h174l76 -132h-130zM451 0h-449l150 709h449l-32 -149h-291l-29 -135h264l-29 -139h-264l-29 -136h292z" />
    <glyph glyph-name="Eacute" unicode="&#xc9;" horiz-adv-x="581" 
d="M614 891l-177 -132h-143l132 132h188zM451 0h-449l150 709h449l-32 -149h-291l-29 -135h264l-29 -139h-264l-29 -136h292z" />
    <glyph glyph-name="Ecircumflex" unicode="&#xca;" horiz-adv-x="581" 
d="M325 759h-139l150 132h146l95 -132h-135l-44 65zM451 0h-449l150 709h449l-32 -149h-291l-29 -135h264l-29 -139h-264l-29 -136h292z" />
    <glyph glyph-name="Edieresis" unicode="&#xcb;" horiz-adv-x="581" 
d="M211 817q0 33 25.5 59t60.5 26q31 0 50.5 -20t19.5 -49q0 -37 -25 -61t-60 -24q-31 0 -51 19.5t-20 49.5zM419 817q0 33 25.5 59t59.5 26q31 0 50.5 -20t19.5 -49q0 -37 -25 -61t-59 -24q-32 0 -51.5 19.5t-19.5 49.5zM451 0h-449l150 709h449l-32 -149h-291l-29 -135
h264l-29 -139h-264l-29 -136h292z" />
    <glyph glyph-name="Igrave" unicode="&#xcc;" horiz-adv-x="313" 
d="M161 0h-159l150 709h160zM179 759l-120 132h174l76 -132h-130z" />
    <glyph glyph-name="Iacute" unicode="&#xcd;" horiz-adv-x="313" 
d="M161 0h-159l150 709h160zM485 891l-177 -132h-143l132 132h188z" />
    <glyph glyph-name="Icircumflex" unicode="&#xce;" horiz-adv-x="313" 
d="M161 0h-159l150 709h160zM182 759h-139l150 132h146l95 -132h-135l-44 65z" />
    <glyph glyph-name="Idieresis" unicode="&#xcf;" horiz-adv-x="313" 
d="M161 0h-159l150 709h160zM71 817q0 33 25 59t60 26q30 0 49.5 -20t19.5 -49q0 -36 -25 -60t-59 -24q-31 0 -50.5 19t-19.5 49zM271 817q0 33 25 59t60 26q30 0 49.5 -20t19.5 -49q0 -36 -25 -60t-59 -24q-31 0 -50.5 19t-19.5 49z" />
    <glyph glyph-name="Eth" unicode="&#xd0;" horiz-adv-x="745" 
d="M6 309l23 112h93l60 288h219q146 0 229.5 -82t83.5 -217q0 -96 -31.5 -175t-84.5 -129.5t-121 -78t-143 -27.5h-300l64 309h-92zM221 152h120q96 0 153.5 75.5t57.5 171.5q0 74 -39.5 118t-120.5 44h-85l-30 -140h150l-23 -112h-150z" />
    <glyph glyph-name="Ntilde" unicode="&#xd1;" horiz-adv-x="753" 
d="M664 895q-10 -74 -44 -109t-84 -35q-34 0 -76 25q-36 23 -51 23q-29 0 -35 -42h-93q8 73 45 106.5t88 33.5q36 0 74 -23q4 -2 12.5 -8t12.5 -8t10.5 -4.5t11.5 -2.5q29 0 36 44h93zM601 0h-156l-188 465l-99 -465h-156l150 709h180l170 -432l92 432h158z" />
    <glyph glyph-name="Ograve" unicode="&#xd2;" horiz-adv-x="760" 
d="M384 759l-120 132h174l76 -132h-130zM31 307q0 95 32 175t85.5 132t122 81t142.5 29q143 0 230 -88.5t87 -232.5q0 -95 -32 -175t-85.5 -132.5t-122.5 -81.5t-143 -29q-141 0 -228.5 89t-87.5 233zM568 397q0 80 -43 127.5t-120 47.5q-84 0 -148 -69t-64 -187
q0 -80 43 -128.5t119 -48.5q84 0 148.5 70t64.5 188z" />
    <glyph glyph-name="Oacute" unicode="&#xd3;" horiz-adv-x="760" 
d="M679 891l-177 -132h-143l132 132h188zM31 307q0 95 32 175t85.5 132t122 81t142.5 29q143 0 230 -88.5t87 -232.5q0 -95 -32 -175t-85.5 -132.5t-122.5 -81.5t-143 -29q-141 0 -228.5 89t-87.5 233zM568 397q0 80 -43 127.5t-120 47.5q-84 0 -148 -69t-64 -187
q0 -80 43 -128.5t119 -48.5q84 0 148.5 70t64.5 188z" />
    <glyph glyph-name="Ocircumflex" unicode="&#xd4;" horiz-adv-x="760" 
d="M387 759h-139l150 132h146l95 -132h-135l-44 65zM31 307q0 95 32 175t85.5 132t122 81t142.5 29q143 0 230 -88.5t87 -232.5q0 -95 -32 -175t-85.5 -132.5t-122.5 -81.5t-143 -29q-141 0 -228.5 89t-87.5 233zM568 397q0 80 -43 127.5t-120 47.5q-84 0 -148 -69t-64 -187
q0 -80 43 -128.5t119 -48.5q84 0 148.5 70t64.5 188z" />
    <glyph glyph-name="Otilde" unicode="&#xd5;" horiz-adv-x="760" 
d="M655 895q-10 -74 -44 -109t-84 -35q-34 0 -76 25q-36 23 -51 23q-29 0 -35 -42h-93q8 73 45 106.5t88 33.5q36 0 74 -23q4 -2 12.5 -8t12.5 -8t10.5 -4.5t11.5 -2.5q29 0 36 44h93zM31 307q0 95 32 175t85.5 132t122 81t142.5 29q143 0 230 -88.5t87 -232.5
q0 -95 -32 -175t-85.5 -132.5t-122.5 -81.5t-143 -29q-141 0 -228.5 89t-87.5 233zM568 397q0 80 -43 127.5t-120 47.5q-84 0 -148 -69t-64 -187q0 -80 43 -128.5t119 -48.5q84 0 148.5 70t64.5 188z" />
    <glyph glyph-name="Odieresis" unicode="&#xd6;" horiz-adv-x="760" 
d="M202 817q0 33 25.5 60t61.5 27q31 0 51.5 -21t20.5 -50q0 -36 -26 -61t-60 -25q-33 0 -53 20t-20 50zM532 817q0 33 26 60t62 27q31 0 51 -21t20 -50q0 -37 -25.5 -61.5t-60.5 -24.5q-33 0 -53 20t-20 50zM31 307q0 95 32 175t85.5 132t122 81t142.5 29q143 0 230 -88.5
t87 -232.5q0 -95 -32 -175t-85.5 -132.5t-122.5 -81.5t-143 -29q-141 0 -228.5 89t-87.5 233zM568 397q0 80 -43 127.5t-120 47.5q-84 0 -148 -69t-64 -187q0 -80 43 -128.5t119 -48.5q84 0 148.5 70t64.5 188z" />
    <glyph glyph-name="multiply" unicode="&#xd7;" horiz-adv-x="590" 
d="M131 43l-90 92l163 164l-163 165l90 90l164 -165l164 165l90 -90l-164 -165l164 -164l-90 -92l-164 165z" />
    <glyph glyph-name="Oslash" unicode="&#xd8;" horiz-adv-x="760" 
d="M31 307q0 95 32 175t85.5 132t122 81t142.5 29q94 0 168 -41l74 89l92 -77l-77 -92q60 -84 60 -200q0 -95 -32 -175t-85.5 -132.5t-122.5 -81.5t-143 -29q-91 0 -163 39l-72 -86l-93 76l75 89q-63 85 -63 204zM193 316q0 -46 13 -79l270 322q-33 13 -71 13
q-84 0 -148 -69t-64 -187zM568 397q0 38 -11 71l-267 -318q30 -11 65 -11q83 0 146.5 70t66.5 188z" />
    <glyph glyph-name="Ugrave" unicode="&#xd9;" horiz-adv-x="680" 
d="M374 759l-120 132h174l76 -132h-130zM529 709h160l-102 -481q-26 -118 -103.5 -180.5t-184.5 -62.5q-115 0 -185.5 64.5t-70.5 169.5q0 31 12 91l83 399h160l-86 -407q-8 -38 -8 -60q0 -101 109 -101q98 0 122 116z" />
    <glyph glyph-name="Uacute" unicode="&#xda;" horiz-adv-x="680" 
d="M648 891l-177 -132h-143l132 132h188zM529 709h160l-102 -481q-26 -118 -103.5 -180.5t-184.5 -62.5q-115 0 -185.5 64.5t-70.5 169.5q0 31 12 91l83 399h160l-86 -407q-8 -38 -8 -60q0 -101 109 -101q98 0 122 116z" />
    <glyph glyph-name="Ucircumflex" unicode="&#xdb;" horiz-adv-x="680" 
d="M361 759h-139l150 132h146l95 -132h-135l-44 65zM529 709h160l-102 -481q-26 -118 -103.5 -180.5t-184.5 -62.5q-115 0 -185.5 64.5t-70.5 169.5q0 31 12 91l83 399h160l-86 -407q-8 -38 -8 -60q0 -101 109 -101q98 0 122 116z" />
    <glyph glyph-name="Udieresis" unicode="&#xdc;" horiz-adv-x="680" 
d="M232 817q0 33 25.5 60t61.5 27q31 0 51.5 -21t20.5 -50q0 -36 -26 -61t-60 -25q-33 0 -53 20t-20 50zM465 817q0 33 26 60t62 27q31 0 51 -21t20 -50q0 -37 -25.5 -61.5t-60.5 -24.5q-33 0 -53 20t-20 50zM529 709h160l-102 -481q-26 -118 -103.5 -180.5t-184.5 -62.5
q-115 0 -185.5 64.5t-70.5 169.5q0 31 12 91l83 399h160l-86 -407q-8 -38 -8 -60q0 -101 109 -101q98 0 122 116z" />
    <glyph glyph-name="Yacute" unicode="&#xdd;" horiz-adv-x="634" 
d="M227 296l-154 413h167l90 -262l182 262h190l-317 -414l-62 -295h-159zM607 891l-177 -132h-143l132 132h188z" />
    <glyph glyph-name="Thorn" unicode="&#xde;" horiz-adv-x="581" 
d="M322 449h-65l-39 -181h82q66 0 92.5 31.5t26.5 69.5q0 80 -97 80zM161 0h-159l150 709h160l-27 -124h76q97 0 159 -56.5t62 -146.5q0 -115 -76.5 -182t-203.5 -67h-113z" />
    <glyph glyph-name="germandbls" unicode="&#xdf;" horiz-adv-x="613" 
d="M412 332q0 -16 25 -30l24 -15q84 -50 84 -136q0 -59 -48.5 -113.5t-141.5 -54.5q-82 0 -122.5 42.5t-40.5 98.5q0 10 2 22l120 8q-1 -4 -1 -11q0 -47 46 -47q20 0 32.5 11.5t12.5 29.5q0 24 -34 43l-25 14q-85 46 -85 121q0 92 95 136l17 8q31 16 44.5 32t13.5 40
q0 22 -21.5 41t-63.5 19q-86 0 -108 -107l-100 -484h-150l107 512q23 107 94 159.5t164 52.5q105 0 166 -53t61 -124q0 -118 -121 -177l-16 -8q-30 -13 -30 -30z" />
    <glyph glyph-name="agrave" unicode="&#xe0;" 
d="M271 371q-53 0 -84 -45t-31 -104q0 -47 24 -73t63 -26q45 0 79 40t34 113q0 45 -23 70t-62 25zM408 497h147l-85 -397q-9 -39 -9 -81q0 -10 1 -19h-138q-1 6 -1 18q0 21 3 41q-42 -67 -125 -67q-88 0 -141.5 63t-53.5 160q0 128 72.5 211t178.5 83q43 0 76 -13t45.5 -26
t19.5 -26zM245 556l-108 151h166l59 -151h-117z" />
    <glyph glyph-name="aacute" unicode="&#xe1;" 
d="M271 371q-53 0 -84 -45t-31 -104q0 -47 24 -73t63 -26q45 0 79 40t34 113q0 45 -23 70t-62 25zM408 497h147l-85 -397q-9 -39 -9 -81q0 -10 1 -19h-138q-1 6 -1 18q0 21 3 41q-42 -67 -125 -67q-88 0 -141.5 63t-53.5 160q0 128 72.5 211t178.5 83q43 0 76 -13t45.5 -26
t19.5 -26zM529 707l-174 -151h-129l122 151h181z" />
    <glyph glyph-name="acircumflex" unicode="&#xe2;" 
d="M250 556h-124l150 151h141l84 -151h-114l-53 71zM271 371q-53 0 -84 -45t-31 -104q0 -47 24 -73t63 -26q45 0 79 40t34 113q0 45 -23 70t-62 25zM408 497h147l-85 -397q-9 -39 -9 -81q0 -10 1 -19h-138q-1 6 -1 18q0 21 3 41q-42 -67 -125 -67q-88 0 -141.5 63t-53.5 160
q0 128 72.5 211t178.5 83q43 0 76 -13t45.5 -26t19.5 -26z" />
    <glyph glyph-name="atilde" unicode="&#xe3;" 
d="M271 371q-53 0 -84 -45t-31 -104q0 -47 24 -73t63 -26q45 0 79 40t34 113q0 45 -23 70t-62 25zM408 497h147l-85 -397q-9 -39 -9 -81q0 -10 1 -19h-138q-1 6 -1 18q0 21 3 41q-42 -67 -125 -67q-88 0 -141.5 63t-53.5 160q0 128 72.5 211t178.5 83q43 0 76 -13t45.5 -26
t19.5 -26zM219 557h-94q8 77 47.5 113.5t92.5 36.5q39 0 75 -23q31 -22 50 -22q34 0 42 44h94q-11 -75 -48 -112.5t-87 -37.5q-36 0 -76 23q-38 21 -53 21q-34 0 -43 -43z" />
    <glyph glyph-name="adieresis" unicode="&#xe4;" 
d="M141 624q0 33 25.5 59t60.5 26q30 0 49.5 -20.5t19.5 -49.5q0 -35 -26.5 -59t-59.5 -24q-30 0 -49.5 20t-19.5 48zM359 624q0 33 25.5 59t59.5 26q30 0 50 -20.5t20 -49.5q0 -35 -26.5 -59t-59.5 -24q-30 0 -49.5 20t-19.5 48zM271 371q-53 0 -84 -45t-31 -104
q0 -47 24 -73t63 -26q45 0 79 40t34 113q0 45 -23 70t-62 25zM408 497h147l-85 -397q-9 -39 -9 -81q0 -10 1 -19h-138q-1 6 -1 18q0 21 3 41q-42 -67 -125 -67q-88 0 -141.5 63t-53.5 160q0 128 72.5 211t178.5 83q43 0 76 -13t45.5 -26t19.5 -26z" />
    <glyph glyph-name="aring" unicode="&#xe5;" 
d="M271 371q-53 0 -84 -45t-31 -104q0 -47 24 -73t63 -26q45 0 79 40t34 113q0 45 -23 70t-62 25zM408 497h147l-85 -397q-9 -39 -9 -81q0 -10 1 -19h-138q-1 6 -1 18q0 21 3 41q-42 -67 -125 -67q-88 0 -141.5 63t-53.5 160q0 128 72.5 211t178.5 83q43 0 76 -13t45.5 -26
t19.5 -26zM336 772q45 0 76.5 -27.5t31.5 -72.5q0 -53 -38.5 -87.5t-88.5 -34.5q-45 0 -75.5 28.5t-30.5 72.5q0 52 38 86.5t87 34.5zM288 656q0 -15 10 -24.5t26 -9.5q17 0 28.5 11.5t11.5 29.5q0 15 -9.5 24.5t-24.5 9.5q-16 0 -29 -11.5t-13 -29.5z" />
    <glyph glyph-name="ae" unicode="&#xe6;" horiz-adv-x="839" 
d="M282 299q43 1 43 41q0 21 -19.5 36.5t-56.5 15.5q-33 0 -56 -18.5t-30 -44.5l-125 40q17 56 74 99.5t145 43.5q108 0 159 -53q65 53 148 53q104 0 164 -59.5t60 -153.5q0 -51 -14 -89h-332q0 -42 27 -71t76 -29q65 0 93 56l116 -53q-26 -55 -82.5 -91.5t-140.5 -36.5
q-111 0 -176 84q-66 -81 -177 -81q-92 0 -141.5 43t-49.5 103q0 76 49.5 116.5t120.5 43.5zM136 144q0 -22 16 -35t41 -13q33 0 64.5 25t39.5 70l3 18l-98 -4q-27 -2 -46.5 -18t-19.5 -43zM563 391q-83 0 -108 -83h194v6q0 29 -21 53t-65 24z" />
    <glyph glyph-name="ccedilla" unicode="&#xe7;" horiz-adv-x="534" 
d="M509 340l-137 -38q-6 30 -29 50t-64 20q-48 0 -86 -39.5t-38 -108.5q0 -46 27.5 -73t71.5 -27q68 0 99 63l124 -47q-25 -61 -80 -105t-131 -50l-37 -38q36 -4 58 -26.5t22 -52.5q0 -39 -33 -71t-97 -32q-52 0 -88.5 23.5t-46.5 43.5l56 51q32 -42 75 -42q38 0 38 26
t-36 26q-11 0 -21 -1l-24 52l46 48q-78 19 -125.5 81t-47.5 148q0 130 84.5 210.5t200.5 80.5q95 0 151 -50.5t68 -121.5z" />
    <glyph glyph-name="egrave" unicode="&#xe8;" horiz-adv-x="544" 
d="M159 308h195v7q0 29 -20.5 52.5t-64.5 23.5q-83 0 -110 -83zM480 210l-335 -1q0 -42 27 -70.5t77 -28.5q65 0 93 56l118 -53q-27 -55 -83 -91.5t-141 -36.5q-96 0 -163 65t-67 166q0 131 79.5 213.5t184.5 82.5q103 0 163.5 -59.5t60.5 -153.5q0 -47 -14 -89zM243 556
l-108 151h166l59 -151h-117z" />
    <glyph glyph-name="eacute" unicode="&#xe9;" horiz-adv-x="544" 
d="M528 707l-174 -151h-129l122 151h181zM159 308h195v7q0 29 -20.5 52.5t-64.5 23.5q-83 0 -110 -83zM480 210l-335 -1q0 -42 27 -70.5t77 -28.5q65 0 93 56l118 -53q-27 -55 -83 -91.5t-141 -36.5q-96 0 -163 65t-67 166q0 131 79.5 213.5t184.5 82.5q103 0 163.5 -59.5
t60.5 -153.5q0 -47 -14 -89z" />
    <glyph glyph-name="ecircumflex" unicode="&#xea;" horiz-adv-x="544" 
d="M230 556h-124l150 151h141l84 -151h-114l-53 71zM159 308h195v7q0 29 -20.5 52.5t-64.5 23.5q-83 0 -110 -83zM480 210l-335 -1q0 -42 27 -70.5t77 -28.5q65 0 93 56l118 -53q-27 -55 -83 -91.5t-141 -36.5q-96 0 -163 65t-67 166q0 131 79.5 213.5t184.5 82.5
q103 0 163.5 -59.5t60.5 -153.5q0 -47 -14 -89z" />
    <glyph glyph-name="edieresis" unicode="&#xeb;" horiz-adv-x="544" 
d="M123 624q0 33 25.5 59t60.5 26q30 0 49.5 -20.5t19.5 -49.5q0 -35 -26.5 -59t-59.5 -24q-30 0 -49.5 20t-19.5 48zM341 624q0 33 25.5 59t59.5 26q30 0 50 -20.5t20 -49.5q0 -35 -26.5 -59t-59.5 -24q-30 0 -49.5 20t-19.5 48zM159 308h195v7q0 29 -20.5 52.5t-64.5 23.5
q-83 0 -110 -83zM480 210l-335 -1q0 -42 27 -70.5t77 -28.5q65 0 93 56l118 -53q-27 -55 -83 -91.5t-141 -36.5q-96 0 -163 65t-67 166q0 131 79.5 213.5t184.5 82.5q103 0 163.5 -59.5t60.5 -153.5q0 -47 -14 -89z" />
    <glyph glyph-name="igrave" unicode="&#xec;" horiz-adv-x="287" 
d="M144 0h-153l107 497h153zM126 556l-108 151h166l59 -151h-117z" />
    <glyph glyph-name="iacute" unicode="&#xed;" horiz-adv-x="287" 
d="M420 707l-174 -151h-129l122 151h181zM144 0h-153l107 497h153z" />
    <glyph glyph-name="icircumflex" unicode="&#xee;" horiz-adv-x="287" 
d="M115 556h-124l150 151h141l84 -151h-114l-53 71zM144 0h-153l107 497h153z" />
    <glyph glyph-name="idieresis" unicode="&#xef;" horiz-adv-x="287" 
d="M144 0h-153l107 497h153zM28 624q0 32 25.5 57t59.5 25q29 0 47.5 -19.5t18.5 -47.5q0 -35 -25.5 -58.5t-57.5 -23.5q-30 0 -49 19.5t-19 47.5zM210 624q0 33 25 57.5t59 24.5q29 0 47.5 -19.5t18.5 -47.5q0 -35 -25.5 -58.5t-56.5 -23.5t-49.5 19t-18.5 48z" />
    <glyph glyph-name="eth" unicode="&#xf0;" horiz-adv-x="564" 
d="M525 626l-73 -34q78 -92 78 -228q0 -176 -85 -277.5t-213 -101.5q-110 0 -173.5 65t-63.5 156q0 110 72 177t177 67q96 0 139 -55q-6 79 -65 135l-139 -65l-36 84l78 37q-45 15 -106 17l38 122q125 -2 224 -67l113 53zM350 237q0 41 -24.5 65.5t-67.5 24.5
q-47 0 -79.5 -32t-32.5 -86q0 -38 25 -65t68 -27q47 0 79 33.5t32 86.5z" />
    <glyph glyph-name="ntilde" unicode="&#xf1;" horiz-adv-x="593" 
d="M231 557h-94q8 77 47.5 113.5t92.5 36.5q39 0 75 -23q31 -22 50 -22q34 0 42 44h94q-11 -75 -48 -112.5t-87 -37.5q-36 0 -76 23q-38 21 -53 21q-34 0 -43 -43zM457 0h-152l56 263q6 25 6 43q0 32 -17.5 50.5t-51.5 18.5t-56.5 -24t-31.5 -63l-62 -288h-152l87 414
q9 43 9 83h148q0 -29 -3 -47q22 30 58.5 45t74.5 15q75 0 115.5 -44.5t40.5 -115.5q0 -26 -6 -55z" />
    <glyph glyph-name="ograve" unicode="&#xf2;" horiz-adv-x="568" 
d="M251 556l-108 151h166l59 -151h-117zM276 373q-53 0 -86.5 -44t-33.5 -104q0 -47 25.5 -74t65.5 -27q45 0 82.5 39t37.5 110q0 48 -24.5 73.5t-66.5 26.5zM518 280q0 -121 -79.5 -208t-201.5 -87q-102 0 -166.5 66.5t-64.5 166.5q0 130 82 212t199 82q104 0 167.5 -66
t63.5 -166z" />
    <glyph glyph-name="oacute" unicode="&#xf3;" horiz-adv-x="568" 
d="M535 707l-174 -151h-129l122 151h181zM276 373q-53 0 -86.5 -44t-33.5 -104q0 -47 25.5 -74t65.5 -27q45 0 82.5 39t37.5 110q0 48 -24.5 73.5t-66.5 26.5zM518 280q0 -121 -79.5 -208t-201.5 -87q-102 0 -166.5 66.5t-64.5 166.5q0 130 82 212t199 82q104 0 167.5 -66
t63.5 -166z" />
    <glyph glyph-name="ocircumflex" unicode="&#xf4;" horiz-adv-x="568" 
d="M238 556h-124l150 151h141l84 -151h-114l-53 71zM276 373q-53 0 -86.5 -44t-33.5 -104q0 -47 25.5 -74t65.5 -27q45 0 82.5 39t37.5 110q0 48 -24.5 73.5t-66.5 26.5zM518 280q0 -121 -79.5 -208t-201.5 -87q-102 0 -166.5 66.5t-64.5 166.5q0 130 82 212t199 82
q104 0 167.5 -66t63.5 -166z" />
    <glyph glyph-name="otilde" unicode="&#xf5;" horiz-adv-x="568" 
d="M276 373q-53 0 -86.5 -44t-33.5 -104q0 -47 25.5 -74t65.5 -27q45 0 82.5 39t37.5 110q0 48 -24.5 73.5t-66.5 26.5zM518 280q0 -121 -79.5 -208t-201.5 -87q-102 0 -166.5 66.5t-64.5 166.5q0 130 82 212t199 82q104 0 167.5 -66t63.5 -166zM204 557h-94
q8 77 47.5 113.5t92.5 36.5q39 0 75 -23q31 -22 50 -22q34 0 42 44h94q-11 -75 -48 -112.5t-87 -37.5q-36 0 -76 23q-38 21 -53 21q-34 0 -43 -43z" />
    <glyph glyph-name="odieresis" unicode="&#xf6;" horiz-adv-x="568" 
d="M132 624q0 33 25.5 59t60.5 26q30 0 49.5 -20.5t19.5 -49.5q0 -35 -26.5 -59t-59.5 -24q-30 0 -49.5 20t-19.5 48zM350 624q0 33 25.5 59t59.5 26q30 0 50 -20.5t20 -49.5q0 -35 -26.5 -59t-59.5 -24q-30 0 -49.5 20t-19.5 48zM276 373q-53 0 -86.5 -44t-33.5 -104
q0 -47 25.5 -74t65.5 -27q45 0 82.5 39t37.5 110q0 48 -24.5 73.5t-66.5 26.5zM518 280q0 -121 -79.5 -208t-201.5 -87q-102 0 -166.5 66.5t-64.5 166.5q0 130 82 212t199 82q104 0 167.5 -66t63.5 -166z" />
    <glyph glyph-name="divide" unicode="&#xf7;" horiz-adv-x="588" 
d="M199 486q0 35 25 59.5t60 24.5q34 0 59 -25t25 -59q0 -35 -25 -60t-59 -25q-35 0 -60 25t-25 60zM199 114q0 34 25 58.5t60 24.5q34 0 59 -24.5t25 -58.5q0 -35 -25 -60t-59 -25q-35 0 -60 25t-25 60zM35 237v124h505v-124h-505z" />
    <glyph glyph-name="oslash" unicode="&#xf8;" horiz-adv-x="568" 
d="M22 -37l-58 58l75 71q-33 54 -33 126q0 130 82 212t199 82q84 0 144 -46l74 71l56 -58l-76 -73q33 -57 33 -126q0 -121 -79.5 -208t-201.5 -87q-84 0 -144 46zM367 273q0 11 -1 19l-164 -157q18 -11 45 -11q45 0 82.5 39t37.5 110zM276 373q-53 0 -86.5 -44t-33.5 -104
q0 -14 1 -20l164 157q-20 11 -45 11z" />
    <glyph glyph-name="ugrave" unicode="&#xf9;" horiz-adv-x="578" 
d="M85 497h152l-60 -281q-3 -15 -3 -28q0 -31 17.5 -48.5t50.5 -17.5q34 0 55.5 23.5t30.5 63.5l62 288h152l-86 -410q-9 -41 -9 -87h-147q-1 6 -1 17t2 31q-17 -28 -50.5 -44.5t-69.5 -16.5q-78 0 -121 46.5t-43 118.5q0 26 6 53zM271 556l-108 151h166l59 -151h-117z" />
    <glyph glyph-name="uacute" unicode="&#xfa;" horiz-adv-x="578" 
d="M532 707l-174 -151h-129l122 151h181zM85 497h152l-60 -281q-3 -15 -3 -28q0 -31 17.5 -48.5t50.5 -17.5q34 0 55.5 23.5t30.5 63.5l62 288h152l-86 -410q-9 -41 -9 -87h-147q-1 6 -1 17t2 31q-17 -28 -50.5 -44.5t-69.5 -16.5q-78 0 -121 46.5t-43 118.5q0 26 6 53z" />
    <glyph glyph-name="ucircumflex" unicode="&#xfb;" horiz-adv-x="578" 
d="M259 556h-124l150 151h141l84 -151h-114l-53 71zM85 497h152l-60 -281q-3 -15 -3 -28q0 -31 17.5 -48.5t50.5 -17.5q34 0 55.5 23.5t30.5 63.5l62 288h152l-86 -410q-9 -41 -9 -87h-147q-1 6 -1 17t2 31q-17 -28 -50.5 -44.5t-69.5 -16.5q-78 0 -121 46.5t-43 118.5
q0 26 6 53z" />
    <glyph glyph-name="udieresis" unicode="&#xfc;" horiz-adv-x="578" 
d="M144 624q0 33 25.5 59t60.5 26q30 0 49.5 -20.5t19.5 -49.5q0 -35 -26.5 -59t-59.5 -24q-30 0 -49.5 20t-19.5 48zM362 624q0 33 25.5 59t59.5 26q30 0 50 -20.5t20 -49.5q0 -35 -26.5 -59t-59.5 -24q-30 0 -49.5 20t-19.5 48zM85 497h152l-60 -281q-3 -15 -3 -28
q0 -31 17.5 -48.5t50.5 -17.5q34 0 55.5 23.5t30.5 63.5l62 288h152l-86 -410q-9 -41 -9 -87h-147q-1 6 -1 17t2 31q-17 -28 -50.5 -44.5t-69.5 -16.5q-78 0 -121 46.5t-43 118.5q0 26 6 53z" />
    <glyph glyph-name="yacute" unicode="&#xfd;" horiz-adv-x="534" 
d="M125 -190h-167l165 266l-103 421h159l56 -265l155 265h168zM508 707l-174 -151h-129l122 151h181z" />
    <glyph glyph-name="thorn" unicode="&#xfe;" horiz-adv-x="614" 
d="M-44 -190l194 914h153l-57 -267q44 50 123 50q94 0 144.5 -58t50.5 -151q-1 -135 -76 -222.5t-184 -87.5q-53 0 -91 18.5t-55 44.5l-50 -241h-152zM318 375q-52 0 -86.5 -45t-34.5 -104q0 -49 26 -75.5t66 -26.5q46 0 83.5 40t37.5 111q0 48 -25.5 74t-66.5 26z" />
    <glyph glyph-name="ydieresis" unicode="&#xff;" horiz-adv-x="534" 
d="M114 624q0 33 25.5 59t60.5 26q30 0 49.5 -20.5t19.5 -49.5q0 -35 -26.5 -59t-59.5 -24q-30 0 -49.5 20t-19.5 48zM332 624q0 33 25.5 59t59.5 26q30 0 50 -20.5t20 -49.5q0 -35 -26.5 -59t-59.5 -24q-30 0 -49.5 20t-19.5 48zM125 -190h-167l165 266l-103 421h159
l56 -265l155 265h168z" />
    <glyph glyph-name="dotlessi" unicode="&#x131;" horiz-adv-x="287" 
d="M144 0h-153l107 497h153z" />
    <glyph glyph-name="Lslash" unicode="&#x141;" horiz-adv-x="586" 
d="M487 0h-458l58 277l-104 -43l26 123l104 43l66 309h158l-51 -238l138 57l-26 -122l-138 -57l-42 -198h301z" />
    <glyph glyph-name="lslash" unicode="&#x142;" horiz-adv-x="330" 
d="M158 0h-152l59 277l-90 -37l26 123l90 37l69 324h152l-55 -256l103 42l-26 -123l-103 -42z" />
    <glyph glyph-name="OE" unicode="&#x152;" horiz-adv-x="1070" 
d="M568 397q0 80 -43 127.5t-120 47.5q-84 0 -148 -69t-64 -187q0 -80 43 -128.5t119 -48.5q83 0 146.5 70t66.5 188zM939 0h-449l11 50q-71 -65 -169 -65q-134 0 -217.5 90.5t-83.5 231.5q0 95 32 175t85.5 132t122 81t142.5 29q151 0 208 -103l19 88h449l-32 -149h-291
l-29 -135h264l-29 -139h-264l-29 -136h292z" />
    <glyph glyph-name="oe" unicode="&#x153;" horiz-adv-x="902" 
d="M594 -15q-106 0 -173 76q-74 -76 -184 -76q-102 0 -166.5 66.5t-64.5 166.5q0 130 82 212t199 82q111 0 167 -72q75 72 174 72q103 0 163.5 -59.5t60.5 -153.5q0 -47 -14 -89h-335q0 -42 27.5 -71t76.5 -29q65 0 93 56l118 -53q-26 -55 -82.5 -91.5t-141.5 -36.5z
M517 308h195q1 4 1 8q0 29 -21.5 52t-64.5 23q-83 0 -110 -83zM367 273q0 48 -25 74t-66 26q-53 0 -86.5 -44t-33.5 -104q0 -47 25.5 -74t65.5 -27q45 0 82.5 39t37.5 110z" />
    <glyph glyph-name="Scaron" unicode="&#x160;" horiz-adv-x="586" 
d="M457 891h145l-152 -132h-146l-95 132h132l43 -65zM264 122q45 0 70.5 20t25.5 54q0 46 -51 68l-83 34q-140 57 -140 195q0 102 76 166t182 64q69 0 120 -21.5t76.5 -55.5t37 -66.5t11.5 -63.5l-147 -24q0 11 -3.5 23.5t-12.5 30t-32.5 29t-56.5 11.5q-41 0 -66.5 -24
t-25.5 -55q0 -46 50 -67l75 -32q154 -66 154 -200q0 -89 -70 -156t-187 -67q-58 0 -105 15t-77.5 38.5t-51 54t-29 60.5t-8.5 59q0 15 2 27l145 25q-2 -10 -2 -23q0 -49 31 -83.5t92 -35.5z" />
    <glyph glyph-name="scaron" unicode="&#x161;" horiz-adv-x="446" 
d="M347 707h126l-147 -151h-142l-83 151h112l55 -72zM-18 150l128 21q-1 -5 -1 -9q0 -31 17.5 -48.5t47.5 -17.5q26 0 39.5 11.5t13.5 29.5q0 29 -34 43l-48 20q-113 47 -113 145q0 69 55 118t139 49q55 0 94.5 -16t58.5 -41.5t27.5 -49.5t8.5 -49l-130 -15q0 63 -60 63
q-22 0 -36.5 -12t-14.5 -31q0 -26 27 -36l62 -25q113 -46 113 -149q0 -66 -53 -116t-144 -50q-58 0 -100 17.5t-61.5 45t-27.5 51t-8 45.5v6z" />
    <glyph glyph-name="Ydieresis" unicode="&#x178;" horiz-adv-x="634" 
d="M198 817q0 33 25.5 60t61.5 27q31 0 51.5 -21t20.5 -50q0 -36 -26 -61t-60 -25q-33 0 -53 20t-20 50zM431 817q0 33 26 60t62 27q31 0 51 -21t20 -50q0 -37 -25.5 -61.5t-60.5 -24.5q-33 0 -53 20t-20 50zM227 296l-154 413h167l90 -262l182 262h190l-317 -414l-62 -295
h-159z" />
    <glyph glyph-name="Zcaron" unicode="&#x17d;" horiz-adv-x="643" 
d="M487 891h145l-152 -132h-146l-95 132h132l43 -65zM522 0h-552l33 152l416 406h-321l32 151h538l-30 -146l-427 -412h343z" />
    <glyph glyph-name="zcaron" unicode="&#x17e;" horiz-adv-x="500" 
d="M376 707h126l-147 -151h-142l-83 151h112l55 -72zM382 0h-417l28 134l263 234h-206l28 129h407l-27 -125l-274 -242h226z" />
    <glyph glyph-name="florin" unicode="&#x192;" horiz-adv-x="502" 
d="M88 30l69 341h-92v126h118l16 81q16 80 73 121.5t126 41.5q51 0 96 -16v-130q-32 8 -65 8q-25 0 -48.5 -15t-30.5 -53l-8 -38h110v-126h-136l-78 -384q-17 -81 -73 -122t-125 -41q-52 0 -100 15v131q34 -8 70 -8q24 0 47 15t31 53z" />
    <glyph glyph-name="circumflex" unicode="&#x2c6;" horiz-adv-x="387" 
d="M104 556h-124l150 151h141l84 -151h-114l-53 71z" />
    <glyph glyph-name="caron" unicode="&#x2c7;" horiz-adv-x="387" 
d="M262 707h126l-147 -151h-142l-83 151h112l55 -72z" />
    <glyph glyph-name="uni02C9" unicode="&#x2c9;" horiz-adv-x="303" 
d="M275 577h-285l22 105h286z" />
    <glyph glyph-name="breve" unicode="&#x2d8;" horiz-adv-x="409" 
d="M172 551q-70 0 -108.5 38.5t-38.5 93.5q0 10 2 24h96q-1 -3 -1 -7q0 -21 14 -36t44 -15q32 0 50.5 17.5t25.5 40.5h108q-16 -67 -65 -111.5t-127 -44.5z" />
    <glyph glyph-name="dotaccent" unicode="&#x2d9;" horiz-adv-x="177" 
d="M-9 625q0 38 29 67t69 29q34 0 56.5 -22.5t22.5 -54.5q0 -41 -28.5 -69.5t-67.5 -28.5q-36 0 -58.5 23t-22.5 56z" />
    <glyph glyph-name="ring" unicode="&#x2da;" horiz-adv-x="249" 
d="M126 764q45 0 76.5 -27.5t31.5 -72.5q0 -53 -38.5 -87.5t-88.5 -34.5q-45 0 -75.5 28.5t-30.5 72.5q0 52 38 86.5t87 34.5zM78 648q0 -15 10 -24.5t26 -9.5q17 0 28.5 11.5t11.5 29.5q0 15 -9.5 24.5t-24.5 9.5q-16 0 -29 -11.5t-13 -29.5z" />
    <glyph glyph-name="ogonek" unicode="&#x2db;" horiz-adv-x="193" 
d="M106 -226q-49 0 -83.5 28t-34.5 76q0 60 40.5 97.5t91.5 54.5l71 -30q-38 -13 -66.5 -38.5t-28.5 -56.5q0 -37 49 -41q14 0 19 1l-18 -87q-13 -4 -40 -4z" />
    <glyph glyph-name="tilde" unicode="&#x2dc;" horiz-adv-x="371" 
d="M192 557h-94q8 77 47.5 113.5t92.5 36.5q39 0 75 -23q31 -22 50 -22q34 0 42 44h94q-11 -75 -48 -112.5t-87 -37.5q-36 0 -76 23q-38 21 -53 21q-34 0 -43 -43z" />
    <glyph glyph-name="hungarumlaut" unicode="&#x2dd;" horiz-adv-x="383" 
d="M210 707l-134 -151h-98l86 151h146zM389 707l-150 -151h-100l102 151h148z" />
    <glyph glyph-name="uni0394" unicode="&#x394;" horiz-adv-x="673" 
d="M450 148l-136 391l-136 -391h272zM-39 0l267 709h172l267 -709h-706z" />
    <glyph glyph-name="uni03A9" unicode="&#x3a9;" horiz-adv-x="776" 
d="M384 575q-74 0 -126.5 -48.5t-52.5 -129.5q0 -70 42 -117.5t104 -60.5v-219h-301v145h162q-75 31 -122.5 100.5t-47.5 165.5q0 139 100.5 226.5t241.5 87.5t241.5 -87.5t100.5 -226.5q0 -96 -48 -165.5t-123 -100.5h162v-145h-300v219q62 13 103.5 60.5t41.5 117.5
q0 81 -52.5 129.5t-125.5 48.5z" />
    <glyph glyph-name="uni03BC" unicode="&#x3bc;" horiz-adv-x="610" 
d="M47 -190v687h153v-282q0 -38 20.5 -62t59.5 -24q38 0 60 23.5t22 61.5v283h153v-408q0 -39 5 -89h-146q-4 18 -4 50q-18 -30 -55 -45.5t-78 -15.5q-21 0 -37 3v-182h-153z" />
    <glyph glyph-name="pi" unicode="&#x3c0;" horiz-adv-x="659" 
d="M536 368v-200q0 -45 46 -45q18 0 31 3v-121l-3 -1q-4 -2 -10.5 -4t-15 -4t-21 -3.5t-25.5 -1.5q-75 0 -114.5 41.5t-39.5 114.5v221h-116v-368h-153v368h-83v129h579v-129h-75z" />
    <glyph glyph-name="uni2007" unicode="&#x2007;" horiz-adv-x="613" 
 />
    <glyph glyph-name="uni2008" unicode="&#x2008;" horiz-adv-x="290" 
 />
    <glyph glyph-name="uni200B" unicode="&#x200b;" horiz-adv-x="0" 
 />
    <glyph glyph-name="endash" unicode="&#x2013;" horiz-adv-x="624" 
d="M544 236h-517l27 132h518z" />
    <glyph glyph-name="emdash" unicode="&#x2014;" horiz-adv-x="1060" 
d="M970 236h-933l27 132h934z" />
    <glyph glyph-name="quoteleft" unicode="&#x2018;" horiz-adv-x="209" 
d="M221 510q0 -37 -26.5 -62.5t-66.5 -25.5t-62 26t-22 63q0 81 62 140.5t146 62.5l-15 -66q-33 -2 -64.5 -24t-41.5 -54q8 4 21 4q32 0 50.5 -19.5t18.5 -44.5z" />
    <glyph glyph-name="quoteright" unicode="&#x2019;" horiz-adv-x="207" 
d="M74 625q0 37 26.5 63t65.5 26q40 0 62.5 -26t22.5 -63q0 -81 -62.5 -141t-145.5 -63l14 67q31 2 64 23.5t42 53.5q-8 -4 -21 -4q-32 0 -50 19.5t-18 44.5z" />
    <glyph glyph-name="quotesinglbase" unicode="&#x201a;" horiz-adv-x="221" 
d="M-37 61q0 37 26.5 63t65.5 26q40 0 62.5 -26t22.5 -63q0 -81 -62.5 -141t-146.5 -64l15 68q31 1 64 23t42 54q-8 -4 -21 -4q-32 0 -50 19.5t-18 44.5z" />
    <glyph glyph-name="quotedblleft" unicode="&#x201c;" horiz-adv-x="415" 
d="M220 511q0 -37 -26.5 -63t-65.5 -26q-40 0 -62 26t-22 63q0 81 62 140.5t146 62.5l-15 -66q-33 -2 -64.5 -24t-41.5 -54q8 4 21 4q32 0 50 -19t18 -44zM427 511q0 -37 -26.5 -63t-65.5 -26q-40 0 -62 26t-22 63q0 81 62 140.5t146 62.5l-15 -66q-33 -2 -64.5 -24
t-41.5 -54q8 4 21 4q32 0 50 -19t18 -44z" />
    <glyph glyph-name="quotedblright" unicode="&#x201d;" horiz-adv-x="416" 
d="M74 625q0 37 26.5 63t65.5 26q40 0 62 -26t22 -63q0 -80 -62 -140t-145 -63l14 67q30 1 63.5 23t42.5 53l-3 -1q-3 0 -8 -1t-10 -1q-32 0 -50 19t-18 44zM284 625q0 37 26.5 63t65.5 26q40 0 62 -26t22 -63q0 -80 -62.5 -140t-145.5 -63l15 67q30 1 63.5 23t42.5 53
l-3 -1q-3 0 -8 -1t-10 -1q-32 0 -50 19t-18 44z" />
    <glyph glyph-name="quotedblbase" unicode="&#x201e;" horiz-adv-x="429" 
d="M-37 61q0 37 26.5 63t65.5 26q40 0 62 -26.5t22 -63.5q0 -80 -62.5 -140t-145.5 -63l15 67q31 2 64 23.5t42 53.5l-3 -1q-3 -1 -8 -2t-10 -1q-32 0 -50 19t-18 45zM171 61q0 37 26.5 63t65.5 26q40 0 62 -26.5t22 -63.5q0 -80 -62.5 -140t-145.5 -63l15 67q31 2 64 23.5
t42 53.5l-3 -1q-3 -1 -8 -2t-10 -1q-32 0 -50 19t-18 45z" />
    <glyph glyph-name="dagger" unicode="&#x2020;" horiz-adv-x="425" 
d="M222 709h126l-30 -139h120l-24 -114h-121l-62 -293h-126l62 293h-120l24 114h120z" />
    <glyph glyph-name="daggerdbl" unicode="&#x2021;" horiz-adv-x="440" 
d="M202 0h-126l30 141h-120l24 114h121l42 199h-121l24 114h121l30 141h126l-30 -141h121l-24 -114h-121l-42 -199h120l-24 -114h-121z" />
    <glyph glyph-name="bullet" unicode="&#x2022;" horiz-adv-x="536" 
d="M47 303q0 87 61 148.5t147 61.5t147.5 -61.5t61.5 -148.5q0 -85 -61.5 -146.5t-147.5 -61.5t-147 61.5t-61 146.5z" />
    <glyph glyph-name="ellipsis" unicode="&#x2026;" horiz-adv-x="868" 
d="M73 -14q-35 0 -58 23.5t-23 56.5q0 39 29.5 68.5t71.5 29.5q36 0 58.5 -23.5t22.5 -56.5q0 -40 -29.5 -69t-71.5 -29zM372 -14q-35 0 -57.5 23.5t-22.5 56.5q0 40 29 69t71 29q36 0 58.5 -23.5t22.5 -56.5q0 -40 -29.5 -69t-71.5 -29zM673 -14q-36 0 -58.5 23.5
t-22.5 56.5q0 40 29 69t71 29q36 0 58.5 -23.5t22.5 -56.5q0 -40 -29 -69t-71 -29z" />
    <glyph glyph-name="perthousand" unicode="&#x2030;" horiz-adv-x="1028" 
d="M191 430q26 0 46.5 20t20.5 55q0 24 -14 39.5t-37 15.5q-27 0 -47 -20.5t-20 -54.5q0 -24 13.5 -39t37.5 -16zM183 329q-65 0 -107.5 43t-42.5 107q0 78 55 130t127 52q65 0 107.5 -43.5t42.5 -106.5q0 -79 -55.5 -130.5t-126.5 -51.5zM597 92q26 0 46.5 20t20.5 55
q0 24 -14 39.5t-37 15.5q-27 0 -47 -20.5t-20 -54.5q0 -24 13.5 -39t37.5 -16zM821 92q26 0 46.5 20t20.5 55q0 24 -14 39.5t-37 15.5q-27 0 -47 -20.5t-20 -54.5q0 -24 13.5 -39t37.5 -16zM761 649l-587 -649h-134l587 649h134zM813 -9q-65 0 -108 43q-51 -43 -116 -43
t-107.5 43t-42.5 107q0 78 55 130t127 52q63 0 106 -43q53 43 118 43t107.5 -43.5t42.5 -106.5q0 -79 -55.5 -130.5t-126.5 -51.5z" />
    <glyph glyph-name="guilsinglleft" unicode="&#x2039;" horiz-adv-x="309" 
d="M237 102h-135l-100 199l179 196h147l-189 -204z" />
    <glyph glyph-name="guilsinglright" unicode="&#x203a;" horiz-adv-x="300" 
d="M43 497h133l102 -199l-179 -196h-148l189 204z" />
    <glyph glyph-name="uni2042" unicode="&#x2042;" horiz-adv-x="812" 
d="M519 708l-21 -106l103 32l15 -98l-104 -30l47 -81l-88 -56l-49 86l-80 -89l-71 59l81 88l-93 30l44 92l92 -31l18 104h106zM251 327l-21 -106l103 32l15 -98l-104 -30l47 -81l-88 -56l-49 86l-80 -89l-71 59l81 88l-93 30l44 92l92 -31l18 104h106zM660 327l-21 -106
l103 32l15 -98l-104 -30l47 -81l-88 -56l-49 86l-80 -89l-71 59l81 88l-93 30l44 92l92 -31l18 104h106z" />
    <glyph glyph-name="fraction" unicode="&#x2044;" horiz-adv-x="534" 
d="M627 649l-587 -649h-134l587 649h134z" />
    <glyph glyph-name="uni2051" unicode="&#x2051;" horiz-adv-x="422" 
d="M336 708l-21 -106l103 32l15 -98l-104 -30l47 -81l-88 -56l-49 86l-80 -89l-71 59l81 88l-93 30l44 92l92 -31l18 104h106zM254 331l-21 -106l103 32l15 -98l-104 -30l47 -81l-88 -56l-49 86l-80 -89l-71 59l81 88l-93 30l44 92l92 -31l18 104h106z" />
    <glyph glyph-name="uni2070" unicode="&#x2070;" horiz-adv-x="422" 
d="M47 482q0 31 6.5 62.5t21.5 63t36.5 56t55 39.5t73.5 15q80 0 120 -42t40 -107q0 -55 -18 -106.5t-63.5 -91t-111.5 -39.5q-77 0 -118.5 41.5t-41.5 108.5zM162 484q0 -58 47 -58q26 0 44.5 25.5t25.5 56.5t7 60q0 56 -49 56q-37 0 -56 -46.5t-19 -93.5z" />
    <glyph glyph-name="uni2074" unicode="&#x2074;" horiz-adv-x="444" 
d="M51 411l24 114l201 184h121l-44 -212h60l-19 -86h-59l-15 -71h-113l15 71h-171zM240 497l21 97l-106 -97h85z" />
    <glyph glyph-name="uni2075" unicode="&#x2075;" horiz-adv-x="393" 
d="M47 463l100 10q0 -21 13 -33.5t34 -12.5q20 0 34 13.5t14 35.5q0 17 -12 28t-29 11q-25 0 -43 -18l-87 40l78 172h227l-19 -90h-152l-21 -47q19 14 56 14q53 0 82.5 -29t29.5 -77q0 -61 -44.5 -103.5t-114.5 -42.5q-68 0 -107 37t-39 92z" />
    <glyph glyph-name="uni2076" unicode="&#x2076;" horiz-adv-x="392" 
d="M397 689l-37 -84q-38 18 -79 18q-35 0 -65.5 -16t-43.5 -44q28 20 69 20q54 0 84.5 -29.5t30.5 -76.5q0 -65 -46 -106t-114 -41q-65 0 -106.5 43t-41.5 112q0 104 69.5 166.5t165.5 62.5q67 0 114 -25zM208 506q-19 0 -33.5 -12.5t-14.5 -33.5q0 -17 10.5 -28t27.5 -11
q21 0 35 13t14 35q0 16 -11 26.5t-28 10.5z" />
    <glyph glyph-name="uni2077" unicode="&#x2077;" horiz-adv-x="357" 
d="M395 709l-19 -92q-143 -102 -195 -277h-120q13 48 37 94.5t47.5 77.5t47 56t36.5 36t15 12h-179l19 93h311z" />
    <glyph glyph-name="uni2078" unicode="&#x2078;" horiz-adv-x="401" 
d="M202 595q0 -12 9.5 -21t24.5 -9q19 0 30 10.5t11 24.5q0 30 -35 30q-19 0 -29.5 -11t-10.5 -24zM164 451q0 -16 12.5 -25.5t30.5 -9.5q23 0 36 12.5t13 28.5q0 34 -44 34q-22 0 -35 -12.5t-13 -27.5zM210 331q-78 0 -118.5 29t-40.5 76q0 37 27.5 63.5t67.5 33.5
q-21 9 -34.5 30t-13.5 45q0 46 41 77.5t105 31.5q72 0 108.5 -28.5t36.5 -74.5q0 -31 -23 -55t-59 -34q24 -8 41 -30t17 -48q0 -51 -43.5 -83.5t-111.5 -32.5z" />
    <glyph glyph-name="uni2079" unicode="&#x2079;" horiz-adv-x="412" 
d="M42 357l36 83q32 -18 81 -18q33 0 65 16.5t43 47.5q-29 -22 -69 -22q-53 0 -84 29.5t-31 75.5q0 64 46 105t114 41q65 0 106.5 -42.5t41.5 -110.5q0 -106 -69 -168.5t-165 -62.5q-66 0 -115 26zM231 539q19 0 33 13t14 34q0 17 -11 28.5t-27 11.5q-21 0 -34.5 -14
t-13.5 -36q0 -15 11 -26t28 -11z" />
    <glyph glyph-name="uni2080" unicode="&#x2080;" horiz-adv-x="422" 
d="M12 67q0 31 6.5 62.5t21.5 63t36.5 56t55 39.5t73.5 15q80 0 120 -42t40 -107q0 -55 -18 -106.5t-63.5 -91t-111.5 -39.5q-77 0 -118.5 41.5t-41.5 108.5zM127 69q0 -58 47 -58q26 0 44.5 25.5t25.5 56.5t7 60q0 56 -49 56q-37 0 -56 -46.5t-19 -93.5z" />
    <glyph glyph-name="uni2081" unicode="&#x2081;" horiz-adv-x="312" 
d="M154 -120h-115l46 217h-93l15 73q46 1 79.5 24.5t45.5 53.5h100z" />
    <glyph glyph-name="uni2082" unicode="&#x2082;" horiz-adv-x="385" 
d="M99 61l66 28q42 17 42 45q0 13 -9 23.5t-27 10.5q-48 0 -48 -56l-99 8q0 57 42 97.5t110 40.5q69 0 106.5 -32.5t37.5 -81.5q0 -86 -111 -132l-76 -32q-1 0 -6 -5h151l-21 -95h-284q0 127 126 181z" />
    <glyph glyph-name="uni2083" unicode="&#x2083;" horiz-adv-x="430" 
d="M137 40l-27 70l105 49h-167l19 91h291l-22 -105l-96 -46q34 -8 55 -32.5t21 -59.5q0 -56 -45.5 -95t-117.5 -39q-70 0 -110.5 37t-40.5 88q0 2 0.5 7t0.5 7l104 6q-1 -4 -1 -8q0 -20 13 -32.5t36 -12.5q22 0 35 12t13 31q0 17 -12.5 26.5t-30.5 9.5q-11 0 -23 -4z" />
    <glyph glyph-name="uni2084" unicode="&#x2084;" horiz-adv-x="435" 
d="M-26 -49l24 114l201 184h121l-44 -212h60l-19 -86h-59l-15 -71h-113l15 71h-171zM163 37l21 97l-106 -97h85z" />
    <glyph glyph-name="uni2085" unicode="&#x2085;" horiz-adv-x="393" 
d="M-26 3l100 10q0 -21 13 -33.5t34 -12.5q20 0 34 13.5t14 35.5q0 17 -12 28t-29 11q-25 0 -43 -18l-87 40l78 172h227l-19 -90h-152l-21 -47q19 14 56 14q53 0 82.5 -29t29.5 -77q0 -61 -44.5 -103.5t-114.5 -42.5q-68 0 -107 37t-39 92z" />
    <glyph glyph-name="uni2086" unicode="&#x2086;" horiz-adv-x="392" 
d="M323 231l-37 -84q-38 18 -79 18q-35 0 -65.5 -16t-43.5 -44q28 20 69 20q54 0 84.5 -29.5t30.5 -76.5q0 -65 -46 -106t-114 -41q-65 0 -106.5 43t-41.5 112q0 104 69.5 166.5t165.5 62.5q67 0 114 -25zM134 48q-19 0 -33.5 -12.5t-14.5 -33.5q0 -17 10.5 -28t27.5 -11
q21 0 35 13t14 35q0 16 -11 26.5t-28 10.5z" />
    <glyph glyph-name="uni2087" unicode="&#x2087;" horiz-adv-x="357" 
d="M327 248l-19 -92q-143 -102 -195 -277h-120q13 48 37 94.5t47.5 77.5t47 56t36.5 36t15 12h-179l19 93h311z" />
    <glyph glyph-name="uni2088" unicode="&#x2088;" horiz-adv-x="401" 
d="M134 135q0 -12 9.5 -21t24.5 -9q19 0 30 10.5t11 24.5q0 30 -35 30q-19 0 -29.5 -11t-10.5 -24zM96 -9q0 -16 12.5 -25.5t30.5 -9.5q23 0 36 12.5t13 28.5q0 34 -44 34q-22 0 -35 -12.5t-13 -27.5zM142 -129q-78 0 -118.5 29t-40.5 76q0 37 27.5 63.5t67.5 33.5
q-21 9 -34.5 30t-13.5 45q0 46 41 77.5t105 31.5q72 0 108.5 -28.5t36.5 -74.5q0 -31 -23 -55t-59 -34q24 -8 41 -30t17 -48q0 -51 -43.5 -83.5t-111.5 -32.5z" />
    <glyph glyph-name="uni2089" unicode="&#x2089;" horiz-adv-x="412" 
d="M-16 -101l36 83q32 -18 81 -18q33 0 65 16.5t43 47.5q-29 -22 -69 -22q-53 0 -84 29.5t-31 75.5q0 64 46 105t114 41q65 0 106.5 -42.5t41.5 -110.5q0 -106 -69 -168.5t-165 -62.5q-66 0 -115 26zM173 81q19 0 33 13t14 34q0 17 -11 28.5t-27 11.5q-21 0 -34.5 -14
t-13.5 -36q0 -15 11 -26t28 -11z" />
    <glyph glyph-name="Euro" unicode="&#x20ac;" horiz-adv-x="665" 
d="M48 351l22 97h78q45 101 137 158.5t201 57.5q121 0 197 -65l-79 -111q-45 42 -130 42q-44 0 -88 -20.5t-74 -61.5h268l-63 -97h-245q-5 -30 -5 -58h215l-61 -98h-132q43 -75 151 -75q54 0 101 27l44 -117q-76 -45 -167 -45q-112 0 -189.5 57t-102.5 153h-111l22 98h78
q2 39 5 58h-72z" />
    <glyph glyph-name="uni2113" unicode="&#x2113;" horiz-adv-x="493" 
d="M102 142q0 4 0.5 11t2 16t1.5 12q-36 -6 -74 -9l27 131q37 3 73 13l42 197q16 75 63.5 115.5t110.5 40.5q69 0 106.5 -37.5t37.5 -100.5q0 -83 -67 -167t-176 -136l-5 -24q-2 -8 -2 -21q0 -65 75 -65q42 0 74 15l-27 -124q-33 -19 -86 -19q-82 0 -129 41t-47 111z
M309 507l-25 -116q32 25 53 59.5t21 68.5q0 22 -20 22q-22 0 -29 -34z" />
    <glyph glyph-name="trademark" unicode="&#x2122;" horiz-adv-x="877" 
d="M355 618h-97l-57 -274h-102l57 274h-100l19 91h299zM785 344h-100l46 220l-126 -220h-71l-44 222l-46 -222h-99l77 365h137l39 -194l114 194h150z" />
    <glyph glyph-name="Omega" unicode="&#x2126;" horiz-adv-x="776" 
d="M384 575q-74 0 -126.5 -48.5t-52.5 -129.5q0 -70 42 -117.5t104 -60.5v-219h-301v145h162q-75 31 -122.5 100.5t-47.5 165.5q0 139 100.5 226.5t241.5 87.5t241.5 -87.5t100.5 -226.5q0 -96 -48 -165.5t-123 -100.5h162v-145h-300v219q62 13 103.5 60.5t41.5 117.5
q0 81 -52.5 129.5t-125.5 48.5z" />
    <glyph glyph-name="uni2160" unicode="&#x2160;" horiz-adv-x="480" 
d="M98 649h410l-27 -131h-127l-82 -387h126l-27 -131h-410l27 131h127l82 387h-126z" />
    <glyph glyph-name="uni2161" unicode="&#x2161;" horiz-adv-x="780" 
d="M98 649h710l-27 -131h-135l-82 -387h134l-27 -131h-710l27 131h135l82 387h-134zM362 518l-82 -387h127l82 387h-127z" />
    <glyph glyph-name="uni2162" unicode="&#x2162;" horiz-adv-x="1054" 
d="M682 131l81 387h-122l-81 -387h122zM403 131l81 387h-122l-81 -387h122zM-39 0l27 131h136l81 387h-134l27 131h984l-27 -131h-135l-81 -387h133l-27 -131h-984z" />
    <glyph glyph-name="uni2163" unicode="&#x2163;" horiz-adv-x="1053" 
d="M71 518l27 131h994l-27 -131h-105l-202 -387h224l-27 -131h-994l27 131h132l82 387h-131zM360 518l-82 -387h200l-42 387h-76zM593 518l29 -339l171 339h-200z" />
    <glyph glyph-name="uni2164" unicode="&#x2164;" horiz-adv-x="785" 
d="M-13 131h223l-42 387h-99l27 131h727l-27 -131h-103l-202 -387h222l-27 -131h-726zM325 518l29 -339l171 339h-200z" />
    <glyph glyph-name="uni2165" unicode="&#x2165;" horiz-adv-x="1058" 
d="M70 518l27 131h989l-27 -131h-133l-82 -387h132l-27 -131h-989l27 131h224l-42 387h-99zM694 518l-202 -387h194l82 387h-74zM326 518l29 -339l171 339h-200z" />
    <glyph glyph-name="uni2166" unicode="&#x2166;" horiz-adv-x="1333" 
d="M355 179l172 339h-201zM687 131l81 387h-74l-202 -387h195zM962 131l81 387h-118l-81 -387h118zM1225 0h-1265l27 131h224l-42 387h-99l27 131h1264l-27 -131h-134l-81 -387h133z" />
    <glyph glyph-name="uni2167" unicode="&#x2167;" horiz-adv-x="1605" 
d="M71 518l27 131h1535l-27 -131h-133l-82 -387h133l-27 -131h-1536l27 131h224l-42 387h-99zM694 518l-202 -387h195l82 387h-75zM1199 518l-82 -387h117l82 387h-117zM926 518l-82 -387h116l82 387h-116zM327 518l29 -339l171 339h-200z" />
    <glyph glyph-name="uni2168" unicode="&#x2168;" horiz-adv-x="1028" 
d="M71 518l27 131h968l-27 -131h-103l-187 -197l103 -190h104l-27 -131h-968l27 131h132l82 387h-131zM542 322l-104 196h-78l-82 -387h79zM618 518l44 -89l82 89h-126zM629 216l-80 -85h123z" />
    <glyph glyph-name="uni2169" unicode="&#x2169;" horiz-adv-x="762" 
d="M276 322l-104 196h-102l27 131h703l-27 -131h-103l-187 -197l103 -190h104l-27 -131h-703l27 131h105zM352 518l45 -89l82 89h-127zM363 216l-80 -85h123z" />
    <glyph glyph-name="uni216C" unicode="&#x216c;" horiz-adv-x="646" 
d="M98 649h389l-27 -131h-122l-82 -387h160l35 166h149l-63 -297h-576l27 131h111l82 387h-110z" />
    <glyph glyph-name="uni216D" unicode="&#x216d;" horiz-adv-x="730" 
d="M587 649h152l-54 -263h-153q-1 20 -7 40.5t-21 44.5t-47 39t-77 15q-75 0 -136.5 -60.5t-61.5 -175.5q0 -76 44.5 -120.5t116.5 -44.5q64 0 104.5 33.5t56.5 73.5l1 5h154l-50 -236h-153l11 52q-63 -68 -162 -68q-117 0 -195 82.5t-78 211.5q0 171 103.5 278.5
t247.5 107.5q140 0 189 -85z" />
    <glyph glyph-name="uni216E" unicode="&#x216e;" horiz-adv-x="750" 
d="M-39 0l27 131h119l81 387h-116l26 131h314q137 0 211.5 -69.5t74.5 -191.5q0 -178 -106 -283t-270 -105h-361zM346 518l-82 -387h51q90 0 156.5 63.5t66.5 177.5q0 71 -40.5 108.5t-109.5 37.5h-42z" />
    <glyph glyph-name="uni216F" unicode="&#x216f;" horiz-adv-x="1026" 
d="M319 131l-27 -131h-331l27 131h111l81 387h-109l27 131h316l73 -391l224 391h344l-27 -131h-110l-81 -387h108l-27 -131h-342l27 131h75l62 290l-246 -412h-110l-74 402l-58 -280h67z" />
    <glyph glyph-name="arrowleft" unicode="&#x2190;" horiz-adv-x="1080" 
d="M271 57l-285 244l285 246v-180h753v-131h-753v-179z" />
    <glyph glyph-name="arrowup" unicode="&#x2191;" horiz-adv-x="504" 
d="M273 800l243 -277h-177v-669h-131v669h-181z" />
    <glyph glyph-name="arrowright" unicode="&#x2192;" horiz-adv-x="1114" 
d="M1084 301l-314 -247v182h-749v131h749v182z" />
    <glyph glyph-name="arrowdown" unicode="&#x2193;" horiz-adv-x="492" 
d="M479 131l-245 -279l-248 279h183v668h131v-668h179z" />
    <glyph glyph-name="uni2196" unicode="&#x2196;" horiz-adv-x="877" 
d="M69 708h352l-130 -131l499 -498l-92 -92l-499 498l-130 -131v354z" />
    <glyph glyph-name="uni2197" unicode="&#x2197;" horiz-adv-x="749" 
d="M310 708h352v-354l-130 131l-499 -498l-93 92l499 499z" />
    <glyph glyph-name="uni2198" unicode="&#x2198;" horiz-adv-x="850" 
d="M763 1h-352l129 130l-498 499l92 92l499 -498l130 131v-354z" />
    <glyph glyph-name="uni2199" unicode="&#x2199;" horiz-adv-x="740" 
d="M384 1h-352v354l130 -131l499 498l92 -92l-499 -498z" />
    <glyph glyph-name="uni21A9" unicode="&#x21a9;" horiz-adv-x="874" 
d="M252 24l-284 244l284 246v-182h359q52 0 83.5 27t31.5 65q0 40 -31 65.5t-84 25.5h-204v131h210q109 0 177.5 -63t68.5 -159q0 -98 -68 -161t-178 -63h-365v-176z" />
    <glyph glyph-name="uni21B0" unicode="&#x21b0;" horiz-adv-x="819" 
d="M316 235l-284 245l284 245v-180h427v-545h-131v414h-296v-179z" />
    <glyph glyph-name="uni21B1" unicode="&#x21b1;" horiz-adv-x="764" 
d="M166 0h-131v545h432v180l284 -245l-284 -245v179h-301v-414z" />
    <glyph glyph-name="uni21B2" unicode="&#x21b2;" horiz-adv-x="777" 
d="M570 709h131v-545h-431v-180l-285 246l285 244v-179h300v414z" />
    <glyph glyph-name="uni21B3" unicode="&#x21b3;" horiz-adv-x="857" 
d="M499 474l284 -244l-284 -246v180h-432v545h131v-414h301v179z" />
    <glyph glyph-name="uni21B4" unicode="&#x21b4;" horiz-adv-x="792" 
d="M64 578v131h558v-449h180l-242 -275l-246 275h177v318h-427z" />
    <glyph glyph-name="uni21C6" unicode="&#x21c6;" horiz-adv-x="1197" 
d="M1142 158l-284 -244v179h-757v131h757v180zM353 320l-284 244l284 246v-183h756v-131h-756v-176z" />
    <glyph glyph-name="partialdiff" unicode="&#x2202;" horiz-adv-x="667" 
d="M281 580q-76 0 -148 -35l-54 123q96 52 210 52q44 0 84.5 -8.5t86 -33.5t79 -64.5t55.5 -108t22 -157.5q0 -159 -75 -261.5t-222 -102.5q-108 0 -184.5 65.5t-76.5 182.5q0 71 37.5 125t91.5 79.5t113 25.5q109 0 156 -55q-16 173 -175 173zM337 335q-61 0 -93 -30.5
t-32 -78.5q0 -46 34.5 -74t77.5 -28q67 0 99 46.5t37 116.5q-48 48 -123 48z" />
    <glyph glyph-name="Delta" unicode="&#x2206;" horiz-adv-x="673" 
d="M450 148l-136 391l-136 -391h272zM-39 0l267 709h172l267 -709h-706z" />
    <glyph glyph-name="product" unicode="&#x220f;" horiz-adv-x="685" 
d="M606 0h-159v563h-215v-563h-158v709h532v-709z" />
    <glyph glyph-name="summation" unicode="&#x2211;" horiz-adv-x="566" 
d="M27 0v145l246 208l-246 212v144h523v-147h-306l243 -209l-252 -206h315v-147h-523z" />
    <glyph glyph-name="minus" unicode="&#x2212;" horiz-adv-x="584" 
d="M36 237v124h501v-124h-501z" />
    <glyph glyph-name="uni2215" unicode="&#x2215;" horiz-adv-x="431" 
d="M385 662h140l-476 -676h-138z" />
    <glyph glyph-name="uni2219" unicode="&#x2219;" horiz-adv-x="289" 
d="M42 313q0 40 29.5 70t72.5 30q36 0 60 -23.5t24 -56.5q0 -44 -30 -74t-72 -30q-37 0 -60.5 24.5t-23.5 59.5z" />
    <glyph glyph-name="radical" unicode="&#x221a;" horiz-adv-x="687" 
d="M747 762h-138l-253 -762h-132l-190 542h140l117 -346l225 689h231v-123z" />
    <glyph glyph-name="infinity" unicode="&#x221e;" horiz-adv-x="838" 
d="M32 290q0 84 57 139.5t144 55.5q97 0 183 -95q92 95 180 95q87 0 144 -55.5t57 -139.5q0 -83 -57 -138.5t-144 -55.5q-96 0 -183 93q-87 -93 -180 -93q-87 0 -144 55t-57 139zM235 353q-29 0 -47.5 -18.5t-18.5 -45.5t18 -45t48 -18q45 0 96 61q-56 66 -96 66zM594 226
q29 0 47.5 18t18.5 45t-18.5 45.5t-47.5 18.5q-42 0 -97 -64q54 -63 97 -63z" />
    <glyph glyph-name="integral" unicode="&#x222b;" horiz-adv-x="343" 
d="M78 -9v520q0 92 53 145.5t144 53.5h59v-133h-54q-22 0 -36 -15.5t-14 -42.5v-520q0 -92 -53 -145.5t-144 -53.5h-60v133h54q22 0 36.5 15.5t14.5 42.5z" />
    <glyph glyph-name="approxequal" unicode="&#x2248;" horiz-adv-x="669" 
d="M522 479l80 -65q-28 -52 -72.5 -80.5t-98.5 -28.5q-56 0 -111 31l-48 26q-23 13 -49 13q-50 0 -85 -49l-82 65q28 52 73 80.5t99 28.5q55 0 109 -29l48 -26q24 -14 53 -14q51 0 84 48zM522 275l80 -66q-28 -52 -72.5 -80.5t-98.5 -28.5q-56 0 -111 31l-48 26
q-25 13 -50 13q-51 0 -84 -48l-82 65q27 52 72 80t99 28q56 0 110 -29l48 -26q26 -14 52 -14q52 0 85 49z" />
    <glyph glyph-name="notequal" unicode="&#x2260;" horiz-adv-x="619" 
d="M56 339v122h287l54 88h132l-54 -88h76v-122h-151l-48 -79h199v-122h-274l-59 -96h-132l59 96h-89v122h164l48 79h-212z" />
    <glyph glyph-name="lessequal" unicode="&#x2264;" horiz-adv-x="581" 
d="M65 40v124h439v-124h-439zM65 322v120l439 130v-123l-266 -65l266 -66v-126z" />
    <glyph glyph-name="greaterequal" unicode="&#x2265;" horiz-adv-x="581" 
d="M504 164v-124h-439v124h439zM504 442v-120l-439 -130v123l266 65l-266 67v125z" />
    <glyph glyph-name="dotmath" unicode="&#x22c5;" horiz-adv-x="289" 
d="M42 313q0 40 29.5 70t72.5 30q36 0 60 -23.5t24 -56.5q0 -44 -30 -74t-72 -30q-37 0 -60.5 24.5t-23.5 59.5z" />
    <glyph glyph-name="uni24C5" unicode="&#x24c5;" horiz-adv-x="804" 
d="M27 354q0 153 108.5 262t261.5 109t261.5 -109t108.5 -262t-108.5 -261.5t-261.5 -108.5q-154 0 -262 108.5t-108 261.5zM115 354q0 -121 81.5 -204.5t200.5 -83.5q118 0 199.5 83.5t81.5 204.5t-81.5 205t-199.5 84q-119 0 -200.5 -84t-81.5 -205zM390 372h38
q26 0 45 16.5t19 42.5q0 38 -44 38h-37zM440 288h-68l-28 -134h-104l85 399h152q52 0 85.5 -33.5t33.5 -81.5q0 -62 -44.5 -106t-111.5 -44z" />
    <glyph glyph-name="filledbox" unicode="&#x25a0;" horiz-adv-x="888" 
d="M90 0v709h709v-709h-709z" />
    <glyph glyph-name="H22073" unicode="&#x25a1;" horiz-adv-x="888" 
d="M799 0h-709v709h709v-709zM220 579v-450h444v450h-444z" />
    <glyph glyph-name="triagup" unicode="&#x25b2;" horiz-adv-x="813" 
d="M347 725l418 -725h-839z" />
    <glyph glyph-name="uni25B3" unicode="&#x25b3;" horiz-adv-x="812" 
d="M-74 0l420 725l418 -725h-838zM346 463l-193 -333h384z" />
    <glyph glyph-name="lozenge" unicode="&#x25ca;" horiz-adv-x="639" 
d="M319 142l123 212l-123 213l-123 -213zM407 0h-175l-210 354l210 355h175l210 -355z" />
    <glyph glyph-name="circle" unicode="&#x25cb;" horiz-adv-x="806" 
d="M773 354q0 -154 -108 -262t-262 -108t-262.5 108t-108.5 262t108.5 262.5t262.5 108.5t262 -108.5t108 -262.5zM641 354q0 99 -70 170.5t-168 71.5q-99 0 -169.5 -71.5t-70.5 -170.5t70.5 -170t169.5 -71q98 0 168 71t70 170z" />
    <glyph glyph-name="H18533" unicode="&#x25cf;" horiz-adv-x="806" 
d="M32 354q0 154 108 262.5t262 108.5t262.5 -108.5t108.5 -262.5t-108.5 -262t-262.5 -108t-262 108t-108 262z" />
    <glyph glyph-name="uni262E" unicode="&#x262e;" horiz-adv-x="804" 
d="M771 354q0 -154 -108 -262t-262 -108q-153 0 -261.5 108t-108.5 262t108.5 262.5t261.5 108.5q154 0 262 -108.5t108 -262.5zM641 354q0 83 -51 149.5t-128 87.5v-171l170 -131q9 31 9 65zM159 354q0 -36 8 -63l168 129v170q-77 -23 -126.5 -88.5t-49.5 -147.5zM462 117
q61 17 106 62l-106 86v-148zM230 181q47 -47 105 -63v146z" />
    <glyph glyph-name="uni2713" unicode="&#x2713;" horiz-adv-x="877" 
d="M913 633l-606 -649l-298 329l95 89l207 -226l510 549z" />
    <glyph glyph-name="uni2715" unicode="&#x2715;" horiz-adv-x="793" 
d="M125 -5l-90 91l268 269l-268 266l91 90l268 -265l264 265l91 -90l-264 -265l273 -270l-90 -91l-274 270z" />
    <glyph glyph-name="uni2780" unicode="&#x2780;" horiz-adv-x="804" 
d="M31 354q0 153 108.5 262t261.5 109t262 -109t109 -262t-109 -261.5t-262 -108.5t-261.5 108.5t-108.5 261.5zM120 354q0 -121 81 -204.5t200 -83.5t200.5 83.5t81.5 204.5t-81.5 205t-200.5 84t-200 -84t-81 -205zM478 172h-115v212h-94v73q48 1 75 26t33 57h101v-368z
" />
    <glyph glyph-name="uni2781" unicode="&#x2781;" horiz-adv-x="804" 
d="M401 725q153 0 262 -109t109 -262t-109 -261.5t-262 -108.5t-261.5 108.5t-108.5 261.5t108.5 262t261.5 109zM120 354q0 -121 81 -204.5t200 -83.5t200.5 83.5t81.5 204.5t-81.5 205t-200.5 84t-200 -84t-81 -205zM339 359l60 34q35 20 35 45q0 12 -9 23t-29 11
q-22 0 -34 -13t-12 -33q0 -10 3 -19h-100q-4 18 -4 27q0 54 39 91t111 37q68 0 108 -36t40 -89q0 -65 -84 -114l-69 -40q-3 -1 -3 -4h159v-95h-303v13q0 110 92 162z" />
    <glyph glyph-name="uni2782" unicode="&#x2782;" horiz-adv-x="804" 
d="M31 354q0 153 108.5 262t261.5 109t262 -109t109 -262t-109 -261.5t-262 -108.5t-261.5 108.5t-108.5 261.5zM120 354q0 -121 81 -204.5t200 -83.5t200.5 83.5t81.5 204.5t-81.5 205t-200.5 84t-200 -84t-81 -205zM244 278l103 18q1 -19 15 -33t37 -14q21 0 34 11t13 27
q0 20 -13 30t-33 10q-16 0 -29 -6l-35 74l80 47h-158v92h290v-92l-85 -52q46 -7 72 -34t26 -71q0 -54 -44 -91t-118 -37q-67 0 -109 36t-46 85z" />
    <glyph glyph-name="uni2783" unicode="&#x2783;" horiz-adv-x="804" 
d="M31 354q0 153 108.5 262t261.5 109t262 -109t109 -262t-109 -261.5t-262 -108.5t-261.5 108.5t-108.5 261.5zM120 354q0 -121 81 -204.5t200 -83.5t200.5 83.5t81.5 204.5t-81.5 205t-200.5 84t-200 -84t-81 -205zM220 248v104l165 195h121v-213h59v-86h-59v-70h-113v70
h-173zM393 334v89l-76 -89h76z" />
    <glyph glyph-name="uni2784" unicode="&#x2784;" horiz-adv-x="804" 
d="M31 354q0 153 108.5 262t261.5 109t262 -109t109 -262t-109 -261.5t-262 -108.5t-261.5 108.5t-108.5 261.5zM120 354q0 -121 81 -204.5t200 -83.5t200.5 83.5t81.5 204.5t-81.5 205t-200.5 84t-200 -84t-81 -205zM239 277l100 18q1 -21 17 -33t38 -12q21 0 33.5 10.5
t12.5 29.5q0 46 -50 46q-27 0 -47 -20l-92 26l44 189h231v-90h-165l-12 -52q26 20 71 20q60 0 95 -31.5t35 -87.5q0 -57 -41.5 -95t-114.5 -38q-63 0 -106.5 34.5t-48.5 85.5z" />
    <glyph glyph-name="uni2785" unicode="&#x2785;" horiz-adv-x="804" 
d="M31 354q0 153 108.5 262t261.5 109t262 -109t109 -262t-109 -261.5t-262 -108.5t-261.5 108.5t-108.5 261.5zM120 354q0 -121 81 -204.5t200 -83.5t200.5 83.5t81.5 204.5t-81.5 205t-200.5 84t-200 -84t-81 -205zM539 533l-19 -87q-31 11 -66 11q-92 0 -114 -71
q31 28 82 28q56 0 93 -30.5t37 -85.5q0 -60 -45 -98t-117 -38q-70 0 -117 47t-47 124q0 99 63 157t159 58q44 0 91 -15zM344 294q0 -18 13.5 -30t33.5 -12q19 0 32.5 12t13.5 30q0 19 -13.5 31t-32.5 12q-20 0 -33.5 -12t-13.5 -31z" />
    <glyph glyph-name="uni2786" unicode="&#x2786;" horiz-adv-x="804" 
d="M31 354q0 153 108.5 262t261.5 109t262 -109t109 -262t-109 -261.5t-262 -108.5t-261.5 108.5t-108.5 261.5zM120 354q0 -121 81 -204.5t200 -83.5t200.5 83.5t81.5 204.5t-81.5 205t-200.5 84t-200 -84t-81 -205zM554 529v-92q-120 -99 -136 -276h-120q3 49 17 95
t31.5 77.5t35 55.5t28.5 35l12 12h-180v93h312z" />
    <glyph glyph-name="uni2787" unicode="&#x2787;" horiz-adv-x="804" 
d="M31 354q0 153 108.5 262t261.5 109t262 -109t109 -262t-109 -261.5t-262 -108.5t-261.5 108.5t-108.5 261.5zM120 354q0 -121 81 -204.5t200 -83.5t200.5 83.5t81.5 204.5t-81.5 205t-200.5 84t-200 -84t-81 -205zM402 395q19 1 29.5 11.5t10.5 23.5q0 11 -10.5 21
t-29.5 10t-29.5 -10t-10.5 -21q0 -13 10.5 -23.5t29.5 -11.5zM402 251q25 0 37 11.5t12 27.5q0 14 -12.5 25t-36.5 11t-36.5 -11t-12.5 -25q0 -16 12 -27.5t37 -11.5zM402 164q-75 0 -118 30.5t-43 80.5q0 31 21.5 55t54.5 33q-30 9 -47.5 32t-17.5 50q0 46 39.5 75.5
t110.5 29.5q72 0 111 -29.5t39 -75.5q0 -28 -17 -50.5t-48 -31.5q32 -9 54 -32t22 -52q0 -53 -42 -84t-119 -31z" />
    <glyph glyph-name="uni2788" unicode="&#x2788;" horiz-adv-x="804" 
d="M31 354q0 153 108.5 262t261.5 109t262 -109t109 -262t-109 -261.5t-262 -108.5t-261.5 108.5t-108.5 261.5zM120 354q0 -121 81 -204.5t200 -83.5t200.5 83.5t81.5 204.5t-81.5 205t-200.5 84t-200 -84t-81 -205zM267 178l16 87q33 -11 67 -11q94 0 114 73
q-31 -28 -85 -28q-53 0 -92.5 31t-39.5 85q0 60 44 97.5t118 37.5q70 0 116.5 -47t46.5 -122q0 -102 -59.5 -160t-153.5 -58q-50 0 -92 15zM452 419q0 18 -13 30t-33 12t-33.5 -12t-13.5 -30q0 -19 13.5 -31.5t33.5 -12.5t33 12.5t13 31.5z" />
    <glyph glyph-name="uniE000" unicode="&#xe000;" horiz-adv-x="711" 
d="M223 -15l-242 275h180v449h558v-131h-427v-318h176z" />
    <glyph glyph-name="uni21B5" unicode="&#xe001;" horiz-adv-x="1125" 
d="M265 83l-233 271h164q0 154 108.5 262.5t262.5 108.5q93 0 169 -41l-60 -116q-49 27 -109 27q-99 0 -169.5 -71t-70.5 -170h170zM932 354q0 -154 -108 -262t-262 -108q-89 0 -169 41l60 115q52 -27 109 -27q98 0 167.5 71t69.5 170h-169l232 271l233 -271h-163z" />
    <glyph glyph-name="uniE002" unicode="&#xe002;" horiz-adv-x="960" 
d="M478 354l232 271l233 -271h-161q0 -154 -108 -262t-262 -108t-262.5 108t-108.5 262t108.5 262.5t262.5 108.5q76 0 145 -29l-51 -121q-43 20 -94 20q-99 0 -169.5 -71t-70.5 -170t70.5 -170t169.5 -71q98 0 167.5 71t69.5 170h-171z" />
    <glyph glyph-name="uniFB00" unicode="&#xfb00;" horiz-adv-x="711" 
d="M175 0h-153l79 369h-84l27 128h84l13 62q38 174 206 174q54 0 89 -19l-26 -124l-4 2q-4 2 -15.5 4.5t-25.5 2.5q-27 0 -48.5 -13.5t-27.5 -41.5l-10 -47h182l13 62q38 174 205 174q55 0 90 -19l-26 -124l-4 2q-4 2 -15.5 4.5t-25.5 2.5q-64 0 -76 -55l-10 -47h103
l-28 -128h-102l-77 -369h-153l78 369h-181z" />
    <glyph glyph-name="fi" unicode="&#xfb01;" horiz-adv-x="646" 
d="M252 369l-77 -369h-153l79 369h-84l27 128h84l16 71q37 165 203 165q54 0 89 -19l-26 -124l-4 2q-5 2 -17 4.5t-26 2.5q-60 0 -75 -63l-9 -39h330l-106 -497h-152l78 369h-177zM475 642q0 40 28.5 68t69.5 28q35 0 57 -22t22 -55q0 -42 -29 -69t-69 -27q-34 0 -56.5 22
t-22.5 55z" />
    <glyph glyph-name="fl" unicode="&#xfb02;" horiz-adv-x="645" 
d="M252 369l-77 -369h-153l79 369h-84l27 128h84l16 71q37 165 203 165q54 0 89 -19l-26 -124l-4 2q-5 2 -17 4.5t-26 2.5q-61 0 -75 -64l-9 -38h176l49 227h152l-154 -724h-152l78 369h-176z" />
    <glyph glyph-name="uniFB03" unicode="&#xfb03;" horiz-adv-x="976" 
d="M805 642q0 41 28 68.5t69 27.5q36 0 58 -22t22 -55q0 -42 -29 -69t-69 -27q-34 0 -56.5 22t-22.5 55zM175 0h-153l79 369h-84l27 128h84l13 62q38 174 206 174q54 0 89 -19l-26 -124l-4 2q-4 2 -15.5 4.5t-25.5 2.5q-27 0 -48.5 -13.5t-27.5 -41.5l-10 -47h182l13 62
q38 174 205 174q55 0 90 -19l-26 -124l-4 2q-4 2 -15.5 4.5t-25.5 2.5q-64 0 -76 -55l-10 -47h326l-105 -497h-152l79 369h-175l-77 -369h-153l78 369h-181z" />
    <glyph glyph-name="uniFB04" unicode="&#xfb04;" horiz-adv-x="983" 
d="M175 0h-153l79 369h-84l27 128h84l13 62q38 174 206 174q54 0 89 -19l-26 -124l-4 2q-4 2 -15.5 4.5t-25.5 2.5q-27 0 -48.5 -13.5t-27.5 -41.5l-10 -47h182l13 62q38 174 205 174q55 0 90 -19l-26 -124l-4 2q-4 2 -15.5 4.5t-25.5 2.5q-64 0 -76 -55l-10 -47h182l47 227
h153l-154 -724h-152l78 369h-181l-77 -369h-153l78 369h-181z" />
    <glyph glyph-name="uniFEFF" unicode="&#xfeff;" horiz-adv-x="0" 
 />
    <glyph glyph-name="zero.numr" horiz-adv-x="422" 
d="M42 422q0 31 6.5 62.5t21.5 63t36.5 56t55 39.5t73.5 15q80 0 120 -42t40 -107q0 -55 -18 -106.5t-63.5 -91t-111.5 -39.5q-77 0 -118.5 41.5t-41.5 108.5zM157 424q0 -58 47 -58q26 0 44.5 25.5t25.5 56.5t7 60q0 56 -49 56q-37 0 -56 -46.5t-19 -93.5z" />
    <glyph glyph-name="one.numr" horiz-adv-x="312" 
d="M202 281h-115l46 217h-93l15 73q46 1 79.5 24.5t45.5 53.5h100z" />
    <glyph glyph-name="two.numr" horiz-adv-x="392" 
d="M158 461l66 28q42 17 42 45q0 13 -9 23.5t-27 10.5q-48 0 -48 -56l-99 8q0 57 42 97.5t110 40.5q69 0 106.5 -32.5t37.5 -81.5q0 -86 -111 -132l-76 -32q-2 0 -6 -5h151l-21 -95h-284q0 127 126 181z" />
    <glyph glyph-name="three.numr" horiz-adv-x="430" 
d="M187 439l-27 70l105 49h-167l19 91h291l-22 -105l-96 -46q34 -8 55 -32.5t21 -59.5q0 -56 -45.5 -95t-117.5 -39q-70 0 -110.5 37t-40.5 88q0 2 0.5 7t0.5 7l104 6q-1 -4 -1 -8q0 -20 13 -32.5t36 -12.5q22 0 35 12t13 31q0 17 -12.5 26.5t-30.5 9.5q-11 0 -23 -4z" />
    <glyph glyph-name="four.numr" horiz-adv-x="435" 
d="M42 351l24 114l201 184h121l-44 -212h60l-19 -86h-59l-15 -71h-113l15 71h-171zM231 437l21 97l-106 -97h85z" />
    <glyph glyph-name="five.numr" horiz-adv-x="393" 
d="M42 403l100 10q0 -21 13 -33.5t34 -12.5q20 0 34 13.5t14 35.5q0 17 -12 28t-29 11q-25 0 -43 -18l-87 40l78 172h227l-19 -90h-152l-21 -47q19 14 56 14q53 0 82.5 -29t29.5 -77q0 -61 -44.5 -103.5t-114.5 -42.5q-68 0 -107 37t-39 92z" />
    <glyph glyph-name="six.numr" horiz-adv-x="393" 
d="M391 629l-37 -84q-38 18 -79 18q-35 0 -65.5 -16t-43.5 -44q28 20 69 20q54 0 84.5 -29.5t30.5 -76.5q0 -65 -46 -106t-114 -41q-65 0 -106.5 43t-41.5 112q0 104 69.5 166.5t165.5 62.5q67 0 114 -25zM202 446q-19 0 -33.5 -12.5t-14.5 -33.5q0 -17 10.5 -28t27.5 -11
q21 0 35 13t14 35q0 16 -11 26.5t-28 10.5z" />
    <glyph glyph-name="seven.numr" horiz-adv-x="357" 
d="M388 649l-19 -92q-143 -102 -195 -277h-120q13 48 37 94.5t47.5 77.5t47 56t36.5 36t15 12h-179l19 93h311z" />
    <glyph glyph-name="eight.numr" horiz-adv-x="401" 
d="M193 535q0 -12 9.5 -21t24.5 -9q19 0 30 10.5t11 24.5q0 30 -35 30q-19 0 -29.5 -11t-10.5 -24zM155 391q0 -16 12.5 -25.5t30.5 -9.5q23 0 36 12.5t13 28.5q0 34 -44 34q-22 0 -35 -12.5t-13 -27.5zM201 271q-78 0 -118.5 29t-40.5 76q0 37 27.5 63.5t67.5 33.5
q-21 9 -34.5 30t-13.5 45q0 46 41 77.5t105 31.5q72 0 108.5 -28.5t36.5 -74.5q0 -31 -23 -55t-59 -34q24 -8 41 -30t17 -48q0 -51 -43.5 -83.5t-111.5 -32.5z" />
    <glyph glyph-name="nine.numr" horiz-adv-x="412" 
d="M37 297l36 83q32 -18 81 -18q33 0 65 16.5t43 47.5q-29 -22 -69 -22q-53 0 -84 29.5t-31 75.5q0 64 46 105t114 41q65 0 106.5 -42.5t41.5 -110.5q0 -106 -69 -168.5t-165 -62.5q-66 0 -115 26zM226 479q19 0 33 13t14 34q0 17 -11 28.5t-27 11.5q-21 0 -34.5 -14
t-13.5 -36q0 -15 11 -26t28 -11z" />
    <glyph glyph-name="zero.dnom" horiz-adv-x="422" 
d="M22 141q0 31 6.5 62.5t21.5 63t36.5 56t55 39.5t73.5 15q80 0 120 -42t40 -107q0 -55 -18 -106.5t-63.5 -91t-111.5 -39.5q-77 0 -118.5 41.5t-41.5 108.5zM137 143q0 -58 47 -58q26 0 44.5 25.5t25.5 56.5t7 60q0 56 -49 56q-37 0 -56 -46.5t-19 -93.5z" />
    <glyph glyph-name="one.dnom" horiz-adv-x="312" 
d="M172 0h-115l46 217h-93l15 73q46 1 79.5 24.5t45.5 53.5h100z" />
    <glyph glyph-name="two.dnom" horiz-adv-x="385" 
d="M118 181l66 28q42 17 42 45q0 13 -9 23.5t-27 10.5q-48 0 -48 -56l-99 8q0 57 42 97.5t110 40.5q69 0 106.5 -32.5t37.5 -81.5q0 -86 -111 -132l-76 -32q-2 0 -6 -5h151l-21 -95h-284q0 127 126 181z" />
    <glyph glyph-name="three.dnom" horiz-adv-x="430" 
d="M147 159l-27 70l105 49h-167l19 91h291l-22 -105l-96 -46q34 -8 55 -32.5t21 -59.5q0 -56 -45.5 -95t-117.5 -39q-70 0 -110.5 37t-40.5 88q0 2 0.5 7t0.5 7l104 6q-1 -4 -1 -8q0 -20 13 -32.5t36 -12.5q22 0 35 12t13 31q0 17 -12.5 26.5t-30.5 9.5q-11 0 -23 -4z" />
    <glyph glyph-name="four.dnom" horiz-adv-x="435" 
d="M5 71l24 114l201 184h121l-44 -212h60l-19 -86h-59l-15 -71h-113l15 71h-171zM194 157l21 97l-106 -97h85z" />
    <glyph glyph-name="five.dnom" horiz-adv-x="393" 
d="M2 122l100 10q0 -21 13 -33.5t34 -12.5q20 0 34 13.5t14 35.5q0 17 -12 28t-29 11q-25 0 -43 -18l-87 40l78 172h227l-19 -90h-152l-21 -47q19 14 56 14q53 0 82.5 -29t29.5 -77q0 -61 -44.5 -103.5t-114.5 -42.5q-68 0 -107 37t-39 92z" />
    <glyph glyph-name="six.dnom" horiz-adv-x="392" 
d="M351 350l-37 -84q-38 18 -79 18q-35 0 -65.5 -16t-43.5 -44q28 20 69 20q54 0 84.5 -29.5t30.5 -76.5q0 -64 -46 -105.5t-114 -41.5q-65 0 -106.5 43t-41.5 112q0 104 69.5 166.5t165.5 62.5q67 0 114 -25zM162 167q-19 0 -33.5 -12.5t-14.5 -33.5q0 -17 10.5 -28
t27.5 -11q21 0 35 13t14 35q0 16 -11 26.5t-28 10.5z" />
    <glyph glyph-name="seven.dnom" horiz-adv-x="357" 
d="M343 369l-19 -92q-143 -102 -195 -277h-120q13 48 37 94.5t47.5 77.5t47 56t36.5 36t15 12h-179l19 93h311z" />
    <glyph glyph-name="eight.dnom" horiz-adv-x="401" 
d="M152 255q0 -12 9.5 -21t24.5 -9q19 0 30 10.5t11 24.5q0 30 -35 30q-19 0 -29.5 -11t-10.5 -24zM114 111q0 -16 12.5 -25.5t30.5 -9.5q23 0 36 12.5t13 28.5q0 34 -44 34q-22 0 -35 -12.5t-13 -27.5zM160 -9q-78 0 -118.5 29t-40.5 76q0 37 27.5 63.5t67.5 33.5
q-21 9 -34.5 30t-13.5 45q0 46 41 77.5t105 31.5q72 0 108.5 -28.5t36.5 -74.5q0 -31 -23 -55t-59 -34q24 -8 41 -30t17 -48q0 -51 -43.5 -83.5t-111.5 -32.5z" />
    <glyph glyph-name="nine.dnom" horiz-adv-x="412" 
d="M2 17l36 83q32 -18 81 -18q33 0 65 16.5t43 47.5q-29 -22 -69 -22q-53 0 -84 29.5t-31 75.5q0 64 46 105t114 41q65 0 106.5 -42.5t41.5 -110.5q0 -106 -69 -168.5t-165 -62.5q-66 0 -115 26zM191 199q19 0 33 13t14 34q0 17 -11 28.5t-27 11.5q-21 0 -34.5 -14
t-13.5 -36q0 -15 11 -26t28 -11z" />
    <glyph glyph-name="space.frac" horiz-adv-x="52" 
 />
    <glyph glyph-name="a.ordn" horiz-adv-x="451" 
d="M230 549q-33 0 -52 -28t-19 -64q0 -31 16 -47t40 -16q27 0 48 24t21 70q0 31 -15 46t-39 15zM322 649h114l-59 -274q-9 -41 -9 -77h-105q0 24 2 41q-24 -46 -84 -46q-61 0 -99.5 45t-38.5 113q0 91 51 148.5t125 57.5q31 0 54 -9.5t30.5 -18t10.5 -15.5z" />
    <glyph glyph-name="b.ordn" horiz-adv-x="491" 
d="M184 298h-113l106 507h116l-38 -183q27 33 84 33q65 0 101.5 -40.5t36.5 -103.5q0 -97 -53 -159t-129 -62q-39 0 -66 16t-36 34zM300 552q-35 0 -57 -28.5t-22 -63.5q0 -32 17.5 -48t43.5 -16q28 0 52 24t24 69q0 32 -16 47.5t-42 15.5z" />
    <glyph glyph-name="c.ordn" horiz-adv-x="413" 
d="M403 536l-105 -28q-3 18 -18.5 30.5t-41.5 12.5q-30 0 -55 -24.5t-25 -68.5q0 -29 17.5 -45.5t45.5 -16.5q43 0 63 38l95 -34q-18 -48 -62 -80.5t-105 -32.5q-8 0 -24 2q-64 8 -105 54t-41 112q0 91 61 148t143 57q68 0 109 -36t48 -88z" />
    <glyph glyph-name="d.ordn" horiz-adv-x="440" 
d="M468 805l-94 -442q-5 -24 -5 -58v-7h-106q-1 6 -1 13q0 15 3 28q-27 -46 -84 -46q-62 0 -100 45t-38 113q0 91 51 148.5t124 57.5q67 0 92 -37l40 185h118zM230 550q-33 0 -52 -28t-19 -65q0 -30 16 -46t40 -16q27 0 48 23.5t21 69.5q0 31 -15.5 46.5t-38.5 15.5z" />
    <glyph glyph-name="e.ordn" horiz-adv-x="386" 
d="M147 517h125v4q0 17 -14 32t-42 15q-26 0 -44.5 -14t-24.5 -37zM368 443h-231q1 -25 18.5 -42t50.5 -17q41 0 56 34l92 -39q-18 -39 -57.5 -65t-101.5 -26q-68 0 -116 47t-48 117q0 92 56 150t129 58q74 0 118 -43t44 -110q0 -34 -10 -64z" />
    <glyph glyph-name="f.ordn" horiz-adv-x="324" 
d="M323 551h-70l-53 -253h-118l54 253h-59l21 99h60l9 43q27 119 148 119q43 0 68 -14l-20 -95l-3 1q-4 1 -12.5 3t-19.5 2q-41 0 -51 -42l-3 -17h70z" />
    <glyph glyph-name="g.ordn" horiz-adv-x="468" 
d="M322 496q0 27 -15.5 41.5t-37.5 14.5q-31 0 -51.5 -22t-20.5 -56q0 -26 15.5 -40.5t40.5 -14.5q27 0 48 21.5t21 55.5zM37 293l102 18q0 -23 17.5 -38.5t47.5 -15.5q67 0 85 72l5 20q-28 -28 -73 -28q-64 0 -103 40.5t-39 103.5q0 80 50.5 136t124.5 56q42 0 66.5 -13
t32.5 -29l8 35h113l-68 -323q-16 -77 -68.5 -124.5t-129.5 -47.5q-84 0 -127.5 42t-43.5 96z" />
    <glyph glyph-name="h.ordn" horiz-adv-x="449" 
d="M381 299h-118l42 195q1 5 1 15q0 20 -11.5 32.5t-32.5 12.5q-42 0 -53 -52l-44 -203h-118l107 506h118l-38 -183q30 37 84 37q55 0 83 -32.5t28 -84.5q0 -22 -4 -39z" />
    <glyph glyph-name="i.ordn" horiz-adv-x="248" 
d="M133 744q0 30 21 51t52 21q27 0 43.5 -16t16.5 -41q0 -32 -22 -52t-52 -20q-25 0 -42 16.5t-17 40.5zM164 298h-118l75 352h117z" />
    <glyph glyph-name="j.ordn" horiz-adv-x="258" 
d="M72 291l76 359h117l-81 -384q-12 -55 -45.5 -83t-83.5 -28q-48 0 -76 21l19 91l4 -1q4 -2 13 -4.5t19 -2.5q32 0 38 32zM161 744q0 30 20.5 51t51.5 21q27 0 43.5 -16t16.5 -41q0 -32 -21.5 -52t-51.5 -20q-26 0 -42.5 16.5t-16.5 40.5z" />
    <glyph glyph-name="k.ordn" horiz-adv-x="448" 
d="M275 298l-55 118l-36 -32l-18 -86h-117l107 507h118l-55 -256l110 101h157l-176 -154l97 -198h-132z" />
    <glyph glyph-name="l.ordn" horiz-adv-x="246" 
d="M164 298h-118l107 507h119z" />
    <glyph glyph-name="m.ordn" horiz-adv-x="681" 
d="M386 298h-117l41 195q1 5 1 15q0 21 -12 33.5t-33 12.5q-42 0 -54 -53l-44 -203h-117l61 294q6 30 6 51v7h114v-4q0 -13 -1 -29q29 42 91 42q66 0 97 -50q41 50 114 50q53 0 85.5 -35t32.5 -87q0 -11 -4 -35l-44 -204h-117l42 195q1 5 1 14q0 21 -12 34t-33 13
q-43 0 -55 -54z" />
    <glyph glyph-name="n.ordn" horiz-adv-x="449" 
d="M379 298h-118l42 196q1 4 1 13q0 20 -11.5 33.5t-32.5 13.5q-41 0 -53 -52l-45 -204h-117l61 294q6 30 6 51v7h115v-9q0 -17 -1 -24q30 42 89 42q55 0 83.5 -32.5t28.5 -84.5q0 -22 -4 -39z" />
    <glyph glyph-name="o.ordn" horiz-adv-x="416" 
d="M235 552q-35 0 -55.5 -28.5t-20.5 -64.5q0 -30 16 -46.5t41 -16.5q28 0 52 24t24 69q0 61 -57 63zM408 495q0 -85 -56.5 -146t-143.5 -61q-72 0 -118.5 47t-46.5 118q0 92 59 149.5t142 57.5q73 0 118.5 -47t45.5 -118z" />
    <glyph glyph-name="p.ordn" horiz-adv-x="476" 
d="M289 554q-35 0 -56 -29.5t-21 -64.5q0 -31 17 -47.5t42 -16.5q28 0 52.5 25t24.5 70q0 30 -17 46.5t-42 16.5zM241 617q30 38 87 38q65 0 102 -40t37 -104q0 -96 -53.5 -158.5t-129.5 -62.5q-72 0 -100 40l-35 -165h-117l90 427q6 30 6 51v7h114v-11q0 -15 -1 -22z" />
    <glyph glyph-name="q.ordn" horiz-adv-x="448" 
d="M441 650l-104 -485h-118l33 152q-28 -24 -69 -24q-60 1 -97.5 46t-37.5 112q0 92 51 149t125 57q32 0 54.5 -9.5t30 -17.5t10.5 -16l8 36h114zM235 550q-33 0 -51.5 -28t-18.5 -65q0 -30 15.5 -46t39.5 -16q27 0 48 23.5t21 70.5q0 30 -15 45.5t-39 15.5z" />
    <glyph glyph-name="r.ordn" horiz-adv-x="302" 
d="M328 531q-22 8 -41 8q-69 0 -86 -82l-34 -159h-117l62 294q6 30 6 51v7h114v-9q0 -17 -1 -25q26 37 77 37q26 0 44 -9z" />
    <glyph glyph-name="s.ordn" horiz-adv-x="356" 
d="M41 405l98 15v-10q0 -39 37 -39q33 0 33 25q0 18 -22 27l-29 12q-85 35 -85 106q0 50 39.5 84.5t99.5 34.5q66 0 101 -30t35 -83l-100 -10v6q0 35 -35 35q-12 0 -21 -7t-9 -18q0 -15 16 -22l43 -17q82 -34 82 -107q0 -48 -38.5 -83.5t-103.5 -35.5q-43 0 -73.5 12
t-44 31.5t-18.5 35.5t-5 32v6z" />
    <glyph glyph-name="t.ordn" horiz-adv-x="302" 
d="M235 547l-24 -114q-1 -4 -1 -12q0 -29 35 -29q10 0 26 4l-20 -92q-22 -11 -52 -11q-51 0 -80.5 27.5t-29.5 72.5q0 15 3 31l26 123h-60l21 103h19q51 0 65 57l10 42h105l-22 -99h68l-23 -103h-66z" />
    <glyph glyph-name="u.ordn" horiz-adv-x="439" 
d="M116 649h118l-42 -196q-1 -4 -1 -13q0 -20 11.5 -33.5t32.5 -13.5q41 0 53 52l45 204h117l-61 -294q-6 -30 -6 -51v-7h-115v9q0 17 1 24q-30 -42 -89 -42q-55 0 -83.5 32.5t-28.5 84.5q0 22 4 39z" />
    <glyph glyph-name="v.ordn" horiz-adv-x="371" 
d="M413 650l-200 -352h-118l-62 352h122l24 -205l104 205h130z" />
    <glyph glyph-name="w.ordn" horiz-adv-x="592" 
d="M274 650h125l21 -193l87 193h119l-176 -352h-114l-26 217l-110 -217h-120l-33 352h116l13 -192z" />
    <glyph glyph-name="x.ordn" horiz-adv-x="417" 
d="M217 383l-73 -85h-137l162 181l-64 120l-28 51h130l20 -42l20 -42l71 84h140l-82 -90l-81 -90l93 -172h-130z" />
    <glyph glyph-name="y.ordn" horiz-adv-x="392" 
d="M153 165h-128l112 185l-69 300h123l33 -177l102 177h129z" />
    <glyph glyph-name="z.ordn" horiz-adv-x="408" 
d="M332 298h-297l21 104l174 149h-137l21 99h291l-20 -96l-185 -156h154z" />
    <glyph glyph-name="space.tf" 
 />
    <glyph glyph-name="numbersign.tf" 
d="M52 392v105h103l33 152h115l-33 -152h100l33 152h115l-33 -152h83v-105h-105l-28 -130h82v-106h-105l-33 -156h-115l33 156h-100l-33 -156h-115l33 156h-80v106h103l28 130h-81zM248 392l-28 -130h100l28 130h-100z" />
    <glyph glyph-name="dollar.tf" 
d="M148 -115l24 116q-71 23 -111 75.5t-40 119.5q0 15 1 25l143 24q-2 -14 -2 -21q0 -45 26.5 -75.5t82.5 -31.5q39 0 59.5 17t20.5 46q0 41 -43 60l-75 32q-132 56 -132 179q0 86 60.5 143t149.5 66l21 105h126l-25 -116q71 -23 104 -75.5t33 -102.5l-144 -24q0 10 -3 21.5
t-11 27.5t-28.5 26t-49.5 10q-35 0 -56 -20t-21 -48q0 -41 42 -60l69 -29q142 -59 142 -185q0 -77 -58.5 -137t-158.5 -66l-21 -102h-125z" />
    <glyph glyph-name="percent.tf" 
d="M227 527q0 20 -11.5 33.5t-31.5 13.5q-22 0 -39 -17.5t-17 -46.5q0 -20 11.5 -33.5t30.5 -13.5q23 0 40 17t17 47zM191 659q55 0 91.5 -37t36.5 -91q0 -67 -47 -110.5t-109 -43.5q-54 0 -90.5 37t-36.5 91q0 66 47 110t108 44zM548 536l-21 -101l-519 -328l21 101z
M445 143q0 19 -11.5 33t-30.5 14q-23 0 -40 -17.5t-17 -46.5q0 -20 11.5 -33.5t31.5 -13.5q23 0 39.5 17t16.5 47zM537 147q0 -67 -47 -110.5t-108 -43.5q-55 0 -91.5 37t-36.5 91q0 66 47 110t109 44q54 0 90.5 -37t36.5 -91z" />
    <glyph glyph-name="plus.tf" 
d="M341 236v-195h-128v195h-190v124h190v195h128v-195h190v-124h-190z" />
    <glyph glyph-name="comma.tf" 
d="M162 85q0 50 35 82t85 32t79.5 -33.5t29.5 -83.5q0 -113 -78 -190t-191 -84l18 80q42 4 85 35.5t53 78.5q-8 -4 -25 -4q-42 0 -66.5 24.5t-24.5 62.5z" />
    <glyph glyph-name="period.tf" 
d="M255 -8q-46 0 -74.5 30t-28.5 72q0 49 37 85t90 36q45 0 73 -29t28 -71q0 -49 -37 -86t-88 -37z" />
    <glyph glyph-name="zero.tf" 
d="M173 238q0 -114 83 -114q47 0 80.5 53t46 115t12.5 118q0 115 -83 115q-36 0 -64.5 -30.5t-43.5 -77.5t-23 -93t-8 -86zM249 -15q-82 1 -135.5 39t-74 90.5t-20.5 118.5q0 49 8 102t29.5 113t53.5 107t86 78t121 31q120 0 177 -72t57 -178q0 -50 -8.5 -103.5t-30.5 -113
t-55 -105.5t-87 -76.5t-121 -30.5z" />
    <glyph glyph-name="one.tf" 
d="M31 131h159l63 297h-146l23 104q65 1 118.5 34t72.5 83h136l-110 -518h165l-28 -131h-481z" />
    <glyph glyph-name="two.tf" 
d="M-32 0q4 4 4 28q17 95 65 161t145 108l117 51q47 20 70 44t23 59q0 31 -20 52.5t-63 21.5q-50 0 -74 -34.5t-24 -93.5l-145 15q0 110 69 181t185 71q110 0 169 -56t59 -139q0 -152 -176 -230l-135 -59q-37 -17 -57 -48h297l-28 -132h-481z" />
    <glyph glyph-name="three.tf" 
d="M208 293l-51 109l188 115h-271l26 132h471l-29 -145l-180 -113q62 -8 101.5 -54t39.5 -113q0 -96 -75 -167.5t-190 -71.5q-113 0 -178.5 64t-65.5 152q0 7 1 13l154 17q-1 -7 -1 -15q0 -42 25.5 -68.5t67.5 -26.5q46 0 74.5 27.5t28.5 71.5q0 39 -26 61t-63 22
q-27 0 -47 -10z" />
    <glyph glyph-name="four.tf" 
d="M-14 135l33 160l337 354h186l-81 -382h86l-28 -132h-86l-28 -135h-157l28 135h-290zM304 267l45 213l-198 -213h153z" />
    <glyph glyph-name="five.tf" 
d="M14 197l146 27q-1 -5 -1 -11q0 -38 26.5 -66.5t69.5 -28.5q44 0 75.5 28t31.5 78q0 39 -27.5 61.5t-67.5 22.5q-50 0 -84 -32l-128 58l132 315h375l-28 -132h-261l-47 -114q35 24 94 24q97 0 149 -50.5t52 -136.5q0 -108 -73.5 -182t-193.5 -74q-107 0 -173.5 64
t-66.5 149z" />
    <glyph glyph-name="six.tf" 
d="M599 614l-66 -120q-51 28 -126 28q-69 0 -128.5 -38t-85.5 -111q44 59 136 59q94 0 146 -50.5t52 -135.5q0 -112 -75 -186t-189 -74q-107 0 -176 70.5t-69 183.5q0 176 114 296t291 120q121 0 176 -42zM279 308q-44 0 -75 -29t-31 -74q0 -38 25 -62t66 -24
q44 0 74.5 28.5t30.5 75.5q0 38 -25 61.5t-65 23.5z" />
    <glyph glyph-name="seven.tf" 
d="M51 518l27 131h519l-26 -126q-28 -18 -68 -54t-97 -99.5t-111.5 -161.5t-87.5 -208h-167q27 97 74 189.5t98 157.5t92 107.5t70 63.5h-323z" />
    <glyph glyph-name="eight.tf" 
d="M311 387q39 0 63 23.5t24 56.5q0 27 -19.5 47t-57.5 20q-42 0 -64 -24.5t-22 -55.5q0 -27 18.5 -47t57.5 -20zM164 190q0 -34 26 -55.5t65 -21.5q45 0 72 27t27 62q0 31 -23 53.5t-69 22.5q-45 0 -71.5 -27.5t-26.5 -60.5zM505 185q0 -92 -76.5 -146t-180.5 -54
q-99 0 -168 46.5t-69 135.5q0 64 44.5 110t115.5 61q-36 17 -61 53t-25 79q0 85 69.5 139.5t175.5 54.5q107 0 167 -50t60 -127q0 -57 -36.5 -101t-98.5 -64q38 -15 60.5 -54.5t22.5 -82.5z" />
    <glyph glyph-name="nine.tf" 
d="M191 427q0 -37 24.5 -60t64.5 -23q44 0 74.5 28t30.5 73q0 39 -24.5 62.5t-66.5 23.5q-43 0 -73 -28.5t-30 -75.5zM-30 37l62 120q57 -33 125 -33q73 0 130 40t80 111q-49 -55 -128 -55q-92 0 -148.5 56t-56.5 142q0 110 76 178t189 68q107 0 176 -70t69 -184
q0 -194 -112 -309.5t-277 -115.5q-109 0 -185 52z" />
    <glyph glyph-name="colon.tf" 
d="M228 -7q-42 0 -67.5 26.5t-25.5 65.5q0 45 33.5 78t81.5 33q41 0 67 -26.5t26 -64.5q0 -45 -33.5 -78.5t-81.5 -33.5zM294 303q-42 0 -67.5 26.5t-25.5 65.5q0 45 33.5 78t81.5 33q41 0 66.5 -26.5t25.5 -64.5q0 -45 -33 -78.5t-81 -33.5z" />
    <glyph glyph-name="semicolon.tf" 
d="M139 75q0 46 31.5 75t77.5 29q45 0 72 -30.5t27 -76.5q0 -103 -70.5 -173t-173.5 -76l16 73q38 3 77.5 32.5t48.5 71.5q-8 -4 -24 -4q-37 0 -59.5 22.5t-22.5 56.5zM300 302q-42 0 -68 27t-26 66q0 45 34 78t82 33q42 0 67 -26.5t25 -65.5q0 -45 -33.5 -78.5t-80.5 -33.5
z" />
    <glyph glyph-name="less.tf" 
d="M62 244v108l439 224v-138l-289 -137l289 -139v-140z" />
    <glyph glyph-name="equal.tf" 
d="M31 339v122h495v-122h-495zM31 138v122h495v-122h-495z" />
    <glyph glyph-name="greater.tf" 
d="M501 353v-108l-439 -223v137l288 138l-288 139v140z" />
    <glyph glyph-name="cent.tf" 
d="M171 0l20 93q-62 23 -98.5 77t-36.5 125q0 108 67.5 180t165.5 85l19 89h115l-21 -97q56 -17 90.5 -58t42.5 -90l-130 -35q-6 28 -28.5 46.5t-60.5 18.5q-46 0 -82 -36.5t-36 -100.5q0 -43 26 -67.5t69 -24.5q64 0 94 58l118 -43q-25 -57 -77.5 -97.5t-125.5 -46.5
l-16 -76h-115z" />
    <glyph glyph-name="sterling.tf" horiz-adv-x="591" 
d="M47 273l23 110h65q-5 28 -5 54q0 94 60.5 159.5t168.5 65.5q103 0 151 -51.5t48 -122.5q0 -6 -0.5 -12.5t-1.5 -9.5v-4l-134 -13v3q0 3 0.5 7t0.5 8q0 32 -17 51.5t-52 19.5q-36 0 -60.5 -25.5t-24.5 -79.5q0 -16 6 -50h169l-24 -110h-134q-4 -48 -28 -87t-65 -56h137
q38 0 59 21t26 54l127 -22q-12 -81 -68 -132t-137 -51h-350l28 127q56 9 91 50.5t41 95.5h-100z" />
    <glyph glyph-name="currency.tf" 
d="M48 248q0 55 26 101l-71 72l90 90l74 -74q49 23 99 23q54 0 98 -23l74 74l91 -90l-71 -72q26 -49 26 -101q0 -56 -26 -102l71 -70l-91 -91l-73 73q-47 -22 -99 -22q-53 0 -99 23l-74 -74l-90 91l70 70q-25 47 -25 102zM173 248q0 -40 26 -65.5t67 -25.5t67 25.5t26 65.5
t-26 65.5t-67 25.5t-67 -25.5t-26 -65.5z" />
    <glyph glyph-name="yen.tf" 
d="M49 294l22 106h86l-82 249h161l64 -236l164 236h172l-189 -249h95l-22 -106h-169l-13 -63h168l-23 -106h-167l-26 -125h-146l26 125h-158l23 106h157l14 63h-157z" />
    <glyph glyph-name="section.tf" 
d="M9 4l147 9q-2 -13 -2 -23q0 -66 71 -66q27 0 46.5 18t19.5 44q0 29 -29 49l-87 60q-52 36 -80 72.5t-28 86.5q0 103 103 147q-44 47 -44 115q0 92 72 150t161 58q95 0 149.5 -50t54.5 -126q0 -17 -2 -33l-145 -9q2 20 2 25q0 31 -20 47.5t-51 16.5q-27 0 -46.5 -18
t-19.5 -44q0 -29 26 -47l90 -60q107 -74 107 -159q0 -106 -102 -148q42 -49 42 -116q0 -92 -71 -150t-160 -58q-96 0 -151 50t-55 126q0 17 2 33zM338 278l-92 64q-35 -22 -35 -58q0 -26 23 -42l92 -64q34 20 34 59q0 26 -22 41z" />
    <glyph glyph-name="logicalnot.tf" 
d="M528 129h-130v195h-369v125h499v-320z" />
    <glyph glyph-name="plusminus.tf" 
d="M350 314v-116h-128v116h-178v124h178v117h128v-117h178v-124h-178zM44 40v124h484v-124h-484z" />
    <glyph glyph-name="multiply.tf" 
d="M121 43l-90 92l163 164l-163 165l90 90l164 -165l164 165l90 -90l-164 -165l164 -164l-90 -92l-164 165z" />
    <glyph glyph-name="divide.tf" 
d="M26 237v124h505v-124h-505zM190 114q0 34 25 58.5t60 24.5t60 -24.5t25 -58.5q0 -35 -25 -60t-60 -25t-60 25t-25 60zM190 486q0 35 25 59.5t60 24.5t60 -24.5t25 -59.5t-25 -60t-60 -25t-60 25t-25 60z" />
    <glyph glyph-name="florin.tf" 
d="M141 30l69 341h-92v126h118l16 81q16 80 73 121.5t126 41.5q51 0 96 -16v-130q-32 8 -65 8q-25 0 -48.5 -15t-30.5 -53l-8 -38h110v-126h-136l-78 -384q-17 -81 -73 -122t-125 -41q-52 0 -100 15v131q34 -8 70 -8q24 0 47 15t31 53z" />
    <glyph glyph-name="uni2007.tf" 
 />
    <glyph glyph-name="uni2008.tf" 
 />
    <glyph glyph-name="perthousand.tf" 
d="M41 525q0 58 41 97t95 39q49 0 81 -32.5t32 -80.5q0 -59 -41.5 -97.5t-95.5 -38.5q-48 0 -80 32.5t-32 80.5zM239 -9q-49 0 -80.5 33t-31.5 80q0 59 41 98t95 39q46 0 80 -32q37 32 86 32t81 -32.5t32 -80.5q0 -59 -41.5 -98t-95.5 -39q-47 0 -79 32q-40 -32 -87 -32z
M564 601l-23 -107l-528 -325l23 105zM171 585q-19 0 -34 -15.5t-15 -41.5q0 -17 10 -28t27 -11q20 0 35 14.5t15 39.5q0 40 -38 42zM257 165q-19 0 -34 -15.5t-15 -41.5q0 -17 10 -28t27 -11q20 0 35 14.5t15 39.5q0 40 -38 42zM423 165q-19 0 -34 -15.5t-15 -41.5
q0 -17 10 -28t27 -11q20 0 35 14.5t15 39.5q0 40 -38 42z" />
    <glyph glyph-name="Euro.tf" 
d="M53 349l21 101h66q46 98 137.5 155.5t199.5 57.5q92 0 159 -37l-64 -125q-43 27 -106 27q-41 0 -84 -19.5t-73 -58.5h237l-50 -101h-230q-6 -30 -6 -54h211l-49 -102h-138q45 -71 154 -71q30 0 57 8l9 -131q-35 -16 -97 -16q-109 0 -186 57.5t-104 152.5h-97l21 102h64
q0 33 5 54h-57z" />
    <glyph glyph-name="minus.tf" 
d="M27 237v124h501v-124h-501z" />
    <glyph glyph-name="approxequal.tf" 
d="M465 275l80 -66q-28 -52 -72.5 -80.5t-98.5 -28.5q-56 0 -111 31l-48 26q-25 13 -50 13q-51 0 -84 -48l-82 65q27 52 72 80t99 28q56 0 110 -29l48 -26q26 -14 52 -14q52 0 85 49zM465 479l80 -65q-28 -52 -72.5 -80.5t-98.5 -28.5q-56 0 -111 31l-48 26q-23 13 -49 13
q-50 0 -85 -49l-82 65q28 52 73 80.5t99 28.5q55 0 109 -29l48 -26q24 -14 53 -14q51 0 84 48z" />
    <glyph glyph-name="notequal.tf" 
d="M30 339v122h286l54 88h132l-54 -88h77v-122h-152l-48 -79h200v-122h-275l-59 -96h-132l59 96h-88v122h163l48 79h-211z" />
    <glyph glyph-name="lessequal.tf" 
d="M66 40v124h439v-124h-439zM66 322v120l439 130v-123l-266 -65l266 -66v-126z" />
    <glyph glyph-name="greaterequal.tf" 
d="M497 164v-124h-439v124h439zM497 442v-120l-439 -130v123l266 65l-266 67v125z" />
    <glyph glyph-name="parenleft.case" horiz-adv-x="340" 
d="M26 245q0 188 87 335.5t250 248.5l69 -91q-66 -47 -112 -91.5t-87 -103t-61.5 -132t-20.5 -161.5q0 -83 29 -166.5t76 -150.5l-99 -70q-57 74 -94 173.5t-37 208.5z" />
    <glyph glyph-name="parenright.case" horiz-adv-x="342" 
d="M314 446q0 -187 -87.5 -334.5t-249.5 -248.5l-70 91q66 48 112 92t87 102.5t61.5 131.5t20.5 161q0 83 -28.5 167.5t-75.5 150.5l99 70q57 -74 94 -174t37 -209z" />
    <glyph glyph-name="hyphen.case" horiz-adv-x="368" 
d="M316 283h-299l29 137h300z" />
    <glyph glyph-name="bracketleft.case" horiz-adv-x="336" 
d="M230 -118h-249l199 942h250l-24 -113h-124l-151 -713h123z" />
    <glyph glyph-name="bracketright.case" horiz-adv-x="344" 
d="M154 -118h-248l24 116h122l152 713h-124l24 113h250z" />
    <glyph glyph-name="braceleft.case" horiz-adv-x="378" 
d="M23 293l26 124q97 0 116 88l26 122q42 197 237 197h45l-24 -113h-38q-77 0 -94 -82l-31 -147q-11 -50 -43 -85t-82 -44q72 -23 72 -102q0 -17 -3 -33l-28 -134q-3 -14 -3 -25q0 -61 67 -61h31l-24 -113h-36q-75 0 -120 41t-45 114q0 28 7 57l23 108q3 13 3 24
q0 64 -82 64z" />
    <glyph glyph-name="braceright.case" horiz-adv-x="379" 
d="M356 416l-26 -124q-98 0 -117 -88l-26 -122q-22 -105 -82 -151t-155 -46h-45l25 113h37q76 0 94 82l31 147q10 50 42 85t83 44q-72 22 -72 101q0 18 4 34l27 134q3 15 3 26q0 60 -67 60h-31l24 113h36q75 0 120 -41.5t45 -114.5q0 -26 -6 -56l-23 -108q-3 -14 -3 -25
q0 -63 82 -63z" />
    <glyph glyph-name="exclamdown.case" horiz-adv-x="311" 
d="M239 487l-68 -487h-183l139 487h112zM294 641q0 -39 -28 -67t-67 -28q-35 0 -56 22.5t-21 54.5q0 39 28.5 67t64.5 28q35 0 57 -22t22 -55z" />
    <glyph glyph-name="guillemotleft.case" horiz-adv-x="542" 
d="M237 152h-135l-100 199l179 196h147l-189 -204zM470 152h-135l-100 199l179 196h147l-189 -204z" />
    <glyph glyph-name="uni00AD.case" horiz-adv-x="368" 
d="M317 285h-299l29 137h300z" />
    <glyph glyph-name="guillemotright.case" horiz-adv-x="531" 
d="M44 547h133l102 -199l-179 -196h-148l189 204zM274 547h133l102 -199l-179 -196h-148l189 204z" />
    <glyph glyph-name="questiondown.case" horiz-adv-x="506" 
d="M234 489h116q0 -27 -3.5 -47.5t-12.5 -47.5t-31 -51t-56 -42l-58 -32q-51 -29 -51 -82q0 -28 20 -48t59 -20q47 0 73.5 33.5t26.5 81.5l138 -14q-1 -99 -70 -167t-177 -68t-167 54t-59 127q0 131 136 209l43 25q37 21 53 39.5t20 49.5zM392 641q0 -39 -28.5 -67
t-66.5 -28q-35 0 -56.5 22.5t-21.5 54.5q0 39 28.5 67t65.5 28q35 0 57 -22t22 -55z" />
    <glyph glyph-name="endash.case" horiz-adv-x="624" 
d="M553 286h-517l27 132h518z" />
    <glyph glyph-name="emdash.case" horiz-adv-x="1060" 
d="M979 286h-933l27 132h934z" />
    <glyph glyph-name="guilsinglleft.case" horiz-adv-x="309" 
d="M237 152h-135l-100 199l179 196h147l-189 -204z" />
    <glyph glyph-name="guilsinglright.case" horiz-adv-x="300" 
d="M44 547h133l102 -199l-179 -196h-148l189 204z" />
    <glyph glyph-name="G.ss01" horiz-adv-x="754" 
d="M417 724q137 0 215 -66.5t92 -153.5l-155 -48q-10 48 -49 82t-114 34q-84 0 -148.5 -69t-64.5 -186q0 -80 46 -131t128 -51q70 0 114 33t58 76h-226l29 135h378q0 -170 -96.5 -282.5t-269.5 -112.5q-138 0 -230.5 93t-92.5 231q0 95 32 174.5t86 131.5t123.5 81t144.5 29
z" />
    <glyph glyph-name="r.ss03" horiz-adv-x="437" 
d="M326 309q-40 0 -65 26t-25 63q0 44 32.5 76t78.5 32q40 0 65 -26t25 -62q0 -44 -32.5 -76.5t-78.5 -32.5zM244 450l-96 -450h-152l89 423q9 41 9 74h154q0 -27 -4 -47z" />
    <glyph glyph-name="ampersand.ss04" horiz-adv-x="682" 
d="M639 225h-61q-19 -105 -99 -172.5t-197 -67.5q-128 0 -197 60t-69 147q0 89 57.5 143t127.5 64q-37 16 -60 51.5t-23 78.5q0 87 71 141.5t161 54.5q115 0 171.5 -54.5t56.5 -131.5q0 -16 -3 -37h-149q3 15 3 22q0 75 -79 75q-32 0 -58.5 -22t-26.5 -57q0 -34 22 -51
t54 -17l-27 -127h-8q-49 0 -89 -27t-40 -89q0 -38 29.5 -65.5t83.5 -27.5q49 0 86.5 29t47.5 80h-78l26 126h293z" />
    <glyph glyph-name="one.ss05" horiz-adv-x="467" 
d="M5 131h129l63 297h-135l22 104q64 1 113 33.5t69 83.5h135l-110 -518h153l-28 -131h-439z" />
    <glyph glyph-name="registered.ss06" horiz-adv-x="394" 
d="M33 526q0 80 56.5 136t135.5 56t135.5 -56t56.5 -136t-56.5 -136t-135.5 -56t-135.5 56t-56.5 136zM87 526q0 -58 40 -98.5t98 -40.5t97.5 40t39.5 99t-39.5 99t-97.5 40t-98 -40.5t-40 -98.5zM233 431l-13 65h-12l-14 -65h-57l42 196h82q26 0 42.5 -15.5t16.5 -40.5
q0 -50 -48 -67l20 -73h-59zM218 543h16q27 0 27 22q0 15 -18 15h-16z" />
    <glyph glyph-name="caron.alt" horiz-adv-x="190" 
d="M202 709l-120 -207h-103l73 207h150z" />
    <glyph glyph-name="commaaccent" horiz-adv-x="186" 
d="M-9 548l12 52q14 -2 22 -2q58 0 74 38q-12 -4 -23 -4q-32 0 -49.5 17.5t-17.5 42.5q0 31 23.5 53t59.5 22q39 0 60.5 -23t21.5 -58q0 -66 -42.5 -103.5t-105.5 -37.5q-17 0 -35 3z" />
    <glyph glyph-name="commaturn" horiz-adv-x="166" 
d="M156 622q0 -31 -23.5 -53.5t-58.5 -22.5q-38 0 -60.5 24.5t-22.5 59.5q0 63 45 102t106 39q17 0 32 -3l-11 -53q-15 3 -24 3q-28 0 -48 -12t-27 -28q15 6 27 6q33 0 49 -18t16 -44z" />
    <glyph glyph-name="dieresis.narrow" horiz-adv-x="325" 
d="M-12 624q0 32 25.5 57t59.5 25q29 0 47.5 -19.5t18.5 -47.5q0 -35 -25.5 -58.5t-57.5 -23.5q-30 0 -49 19.5t-19 47.5zM170 624q0 33 25 57.5t59 24.5q29 0 47.5 -19.5t18.5 -47.5q0 -35 -25.5 -58.5t-56.5 -23.5t-49.5 19t-18.5 48z" />
    <glyph glyph-name="dieresis.uc.narrow" horiz-adv-x="348" 
d="M-11 817q0 33 25 59t60 26q30 0 49.5 -20t19.5 -49q0 -36 -25 -60t-59 -24q-31 0 -50.5 19t-19.5 49zM189 817q0 33 25 59t60 26q30 0 49.5 -20t19.5 -49q0 -36 -25 -60t-59 -24q-31 0 -50.5 19t-19.5 49z" />
    <glyph glyph-name="grave.uc" horiz-adv-x="274" 
d="M118 759l-120 132h174l76 -132h-130z" />
    <glyph glyph-name="dieresis.uc" horiz-adv-x="436" 
d="M-6 817q0 33 25.5 60t61.5 27q31 0 51.5 -21t20.5 -50q0 -36 -26 -61t-60 -25q-33 0 -53 20t-20 50zM267 817q0 33 26 60t62 27q31 0 51 -21t20 -50q0 -37 -25.5 -61.5t-60.5 -24.5q-33 0 -53 20t-20 50z" />
    <glyph glyph-name="macron.uc" horiz-adv-x="307" 
d="M290 771h-310l22 109h311z" />
    <glyph glyph-name="acute.uc" horiz-adv-x="274" 
d="M294 891l-177 -132h-143l132 132h188z" />
    <glyph glyph-name="circumflex.uc" horiz-adv-x="389" 
d="M114 759h-139l150 132h146l95 -132h-135l-44 65z" />
    <glyph glyph-name="caron.uc" horiz-adv-x="389" 
d="M259 891h145l-152 -132h-146l-95 132h132l43 -65z" />
    <glyph glyph-name="breve.uc" horiz-adv-x="340" 
d="M160 753q-65 0 -106.5 31t-41.5 88q0 10 2 19h104q-1 -5 -1 -9q0 -40 49 -40q25 0 42.5 14t22.5 35h116q-13 -55 -62.5 -96.5t-124.5 -41.5z" />
    <glyph glyph-name="dotaccent.uc" horiz-adv-x="175" 
d="M-10 834q0 36 29 65t69 29q34 0 57 -22.5t23 -54.5q0 -41 -28.5 -69.5t-68.5 -28.5q-35 0 -58 23.5t-23 57.5z" />
    <glyph glyph-name="ring.uc" horiz-adv-x="278" 
d="M135 927q-22 0 -37.5 -15t-15.5 -38q0 -18 12.5 -29.5t32.5 -11.5t36.5 15t16.5 38q0 19 -13 30t-32 11zM-10 868q0 60 45.5 104t107.5 44q54 0 92 -35t38 -87q0 -64 -47 -106.5t-107 -42.5q-55 0 -92 35t-37 88z" />
    <glyph glyph-name="tilde.uc" horiz-adv-x="344" 
d="M370 895q-10 -74 -44 -109t-84 -35q-34 0 -76 25q-36 23 -51 23q-29 0 -35 -42h-93q8 73 45 106.5t88 33.5q36 0 74 -23q4 -2 12.5 -8t12.5 -8t10.5 -4.5t11.5 -2.5q29 0 36 44h93z" />
    <glyph glyph-name="hungarumlaut.uc" horiz-adv-x="364" 
d="M189 891l-121 -132h-96l76 132h141zM375 891l-138 -132h-98l92 132h144z" />
    <glyph glyph-name="caron.alt.uc" horiz-adv-x="190" 
d="M209 709l-125 -217h-107l77 217h155z" />
    <glyph glyph-name="undercommaaccent" horiz-adv-x="166" 
d="M-8 -120q0 31 24 53t59 22q39 0 61 -23.5t22 -58.5q0 -66 -43.5 -103.5t-104.5 -37.5q-15 0 -35 4l11 51q7 -1 21 -1q60 0 76 38q-10 -4 -24 -4q-32 0 -49.5 17.5t-17.5 42.5z" />
    </font>
</defs>
</svg>
