<?xml version="1.0" standalone="no"?>
<!DOCTYPE svg PUBLIC "-//W3C//DTD SVG 1.1//EN" "http://www.w3.org/Graphics/SVG/1.1/DTD/svg11.dtd" >
<svg xmlns="http://www.w3.org/2000/svg" xmlns:xlink="http://www.w3.org/1999/xlink" version="1.1">
<metadata>
Created by FontForge 20170731 at Thu Apr 11 17:37:05 2013
 By Aleksey,,,
Generated in 2013 by FontLab Studio. Copyright info pending.
</metadata>
<defs>
<font id="CircularStd-BoldItalic" horiz-adv-x="578" >
  <font-face 
    font-family="Circular Std Bold Italic"
    font-weight="700"
    font-style="italic"
    font-stretch="normal"
    units-per-em="1000"
    panose-1="2 11 8 4 2 1 1 1 1 2"
    ascent="809"
    descent="-191"
    x-height="492"
    cap-height="709"
    bbox="-136 -250 1603 996"
    underline-thickness="80"
    underline-position="-355"
    slope="-12"
    unicode-range="U+000D-FEFF"
  />
<missing-glyph horiz-adv-x="580" 
d="M-1 0v709h582v-709h-582zM108 109h364v491h-364v-491z" />
    <glyph glyph-name="f_f" unicode="ff" horiz-adv-x="680" 
d="M159 0h-134l80 379h-83l24 113h84l15 74q35 165 194 165q53 0 81 -17l-23 -109l-5 2q-4 2 -14.5 4.5t-23.5 2.5q-65 0 -79 -62l-12 -60h184l15 74q35 165 195 165q52 0 80 -17l-23 -109l-4 2q-5 2 -15.5 4.5t-23.5 2.5q-65 0 -79 -62l-12 -60h105l-25 -113h-104l-80 -379
h-134l80 379h-183z" />
    <glyph glyph-name="f_f_i" unicode="ffi" horiz-adv-x="940" 
d="M782 648q0 37 26.5 63t63.5 26q32 0 53 -20.5t21 -51.5q0 -38 -27.5 -63.5t-63.5 -25.5q-31 0 -52 20.5t-21 51.5zM159 0h-134l80 379h-83l24 113h84l15 74q35 165 194 165q53 0 81 -17l-23 -109l-5 2q-4 2 -14.5 4.5t-23.5 2.5q-65 0 -79 -62l-12 -60h184l15 74
q35 165 195 165q52 0 80 -17l-23 -109l-4 2q-5 2 -15.5 4.5t-23.5 2.5q-65 0 -79 -62l-12 -60h317l-105 -492h-132l81 379h-185l-80 -379h-134l80 379h-183z" />
    <glyph glyph-name="f_f_l" unicode="ffl" horiz-adv-x="946" 
d="M159 0h-134l80 379h-83l24 113h84l15 74q35 165 194 165q53 0 81 -17l-23 -109l-5 2q-4 2 -14.5 4.5t-23.5 2.5q-65 0 -79 -62l-12 -60h184l15 74q35 165 195 165q52 0 80 -17l-23 -109l-4 2q-5 2 -15.5 4.5t-23.5 2.5q-65 0 -79 -62l-12 -60h191l49 232h133l-154 -724
h-132l80 379h-191l-80 -379h-134l80 379h-183z" />
    <glyph glyph-name="f_i" unicode="fi" horiz-adv-x="627" 
d="M239 379l-80 -379h-134l80 379h-83l24 113h84l17 80q34 159 192 159q53 0 81 -17l-23 -109l-5 2q-5 2 -16 4.5t-24 2.5q-63 0 -78 -68l-11 -54h321l-105 -492h-132l81 379h-189zM469 648q0 37 26.5 63t63.5 26q33 0 53.5 -20.5t20.5 -51.5q0 -38 -27.5 -63.5t-63.5 -25.5
q-31 0 -52 20.5t-21 51.5z" />
    <glyph glyph-name="f_l" unicode="fl" horiz-adv-x="626" 
d="M239 379l-80 -379h-134l80 379h-83l24 113h84l17 80q34 159 192 159q53 0 81 -17l-23 -109l-5 2q-5 2 -16 4.5t-24 2.5q-63 0 -78 -68l-11 -54h188l49 232h133l-154 -724h-132l80 379h-188z" />
    <glyph glyph-name=".notdef" horiz-adv-x="580" 
d="M-1 0v709h582v-709h-582zM108 109h364v491h-364v-491z" />
    <glyph glyph-name=".null" horiz-adv-x="0" 
 />
    <glyph glyph-name=".null" horiz-adv-x="0" 
 />
    <glyph glyph-name="uni000D" unicode="&#xd;" horiz-adv-x="261" 
 />
    <glyph glyph-name="space" unicode=" " horiz-adv-x="261" 
 />
    <glyph glyph-name="exclam" unicode="!" horiz-adv-x="317" 
d="M76 216l72 493h161l-136 -493h-97zM19 63q0 36 25.5 62t62.5 26q31 0 51 -21t20 -50q0 -36 -26 -62t-60 -26q-32 0 -52.5 20.5t-20.5 50.5z" />
    <glyph glyph-name="quotedbl" unicode="&#x22;" horiz-adv-x="423" 
d="M130 375h-47l-6 154q0 10 -0.5 22.5t-1 19t-0.5 7.5q0 36 22.5 59t58.5 23q31 0 50.5 -18.5t19.5 -47.5q0 -26 -15 -52zM318 375h-47l-6 154q0 10 -0.5 22.5t-1 19t-0.5 7.5q0 36 22.5 59t58.5 23q31 0 50.5 -18.5t19.5 -47.5q0 -26 -15 -52z" />
    <glyph glyph-name="numbersign" unicode="#" horiz-adv-x="728" 
d="M82 396v96h143l34 156h105l-34 -156h131l34 156h104l-34 -156h127v-96h-147l-30 -140h127v-95h-148l-34 -161h-104l34 161h-131l-34 -161h-105l34 161h-122v95h143l30 140h-123zM310 396l-30 -140h131l30 140h-131z" />
    <glyph glyph-name="dollar" unicode="$" horiz-adv-x="575" 
d="M144 -116l24 113q-78 22 -117 80t-39 121q0 11 2 21l124 21q-1 -8 -1 -19q0 -50 30.5 -85.5t90.5 -36.5q44 0 70 21t27 56q0 44 -54 72q-3 1 -36.5 16.5t-41.5 18.5q-127 57 -127 175q0 85 61 141.5t152 62.5l21 104h109l-24 -115q72 -22 105.5 -74t33.5 -103l-126 -22
q0 13 -3.5 26.5t-13.5 31t-33 28.5t-57 11q-39 0 -64.5 -23.5t-25.5 -55.5q0 -48 50 -71l74 -34q137 -63 137 -180q0 -78 -59.5 -137t-158.5 -63l-21 -101h-109z" />
    <glyph glyph-name="percent" unicode="%" horiz-adv-x="791" 
d="M197 428q29 0 51 22t22 58q0 27 -15.5 43t-42.5 16q-28 0 -50 -22.5t-22 -57.5q0 -26 15.5 -42.5t41.5 -16.5zM189 334q-64 0 -106 42.5t-42 104.5q0 76 54 128t126 52q63 0 105.5 -43t42.5 -105q0 -76 -55 -127.5t-125 -51.5zM580 84q29 0 51 22t22 58q0 27 -15.5 43
t-42.5 16q-28 0 -50 -22.5t-22 -57.5q0 -26 15.5 -42.5t41.5 -16.5zM572 -10q-64 0 -106 42.5t-42 104.5q0 76 54 128t126 52q63 0 105.5 -43t42.5 -105q0 -76 -55 -127.5t-125 -51.5zM752 649l-593 -649h-121l593 649h121z" />
    <glyph glyph-name="ampersand" unicode="&#x26;" horiz-adv-x="679" 
d="M605 0h-151l-51 74l-13 -11q-84 -71 -182 -71q-91 0 -145.5 53.5t-54.5 126.5q0 74 41.5 122t120.5 92l11 6l-8 12q-49 70 -49 130q0 90 62.5 140t145.5 50q81 0 132 -47t51 -115q0 -64 -38.5 -107t-101.5 -77l-25 -14l84 -120l215 182l-37 -174l-115 -98zM141 184
q0 -32 23 -54t59 -22q49 0 108 49l9 7l-98 140l-26 -14q-39 -21 -57 -45t-18 -61zM290 451l31 17q68 36 68 87q0 26 -19 42.5t-48 16.5q-27 0 -50 -19t-23 -56q0 -30 24 -64z" />
    <glyph glyph-name="quotesingle" unicode="'" horiz-adv-x="231" 
d="M130 375h-47l-6 154q0 10 -0.5 22.5t-1 19t-0.5 7.5q0 36 22.5 59t58.5 23q31 0 50.5 -18.5t19.5 -47.5q0 -26 -15 -52z" />
    <glyph glyph-name="parenleft" unicode="(" horiz-adv-x="322" 
d="M28 206q0 393 326 611l60 -80q-273 -197 -273 -523q0 -175 98 -321l-90 -59q-120 172 -121 372z" />
    <glyph glyph-name="parenright" unicode=")" horiz-adv-x="324" 
d="M291 439q0 -374 -327 -607l-61 79q276 211 276 527q0 175 -98 316l90 59q120 -173 120 -374z" />
    <glyph glyph-name="asterisk" unicode="*" horiz-adv-x="453" 
d="M345 709l-25 -127l123 38l15 -100l-125 -37l58 -98l-90 -60l-60 104l-96 -105l-74 62l98 103l-111 38l46 94l109 -39l22 127h110z" />
    <glyph glyph-name="plus" unicode="+" horiz-adv-x="583" 
d="M341 240v-196h-112v196h-189v109h189v195h112v-195h189v-109h-189z" />
    <glyph glyph-name="comma" unicode="," horiz-adv-x="289" 
d="M-2 69q0 41 28.5 67.5t70.5 26.5q41 0 66.5 -27.5t25.5 -69.5q0 -95 -66 -162.5t-162 -73.5l14 68q38 4 75.5 33t46.5 69q-8 -4 -23 -4q-34 0 -55 21t-21 52z" />
    <glyph glyph-name="hyphen" unicode="-" horiz-adv-x="365" 
d="M301 238h-290l25 118h291z" />
    <glyph glyph-name="period" unicode="." horiz-adv-x="281" 
d="M79 -6q-37 0 -60 23.5t-23 57.5q0 41 30 70.5t72 29.5q37 0 60 -23.5t23 -57.5q0 -41 -30 -70.5t-72 -29.5z" />
    <glyph glyph-name="slash" unicode="/" horiz-adv-x="470" 
d="M559 724l-517 -739h-126l515 739h128z" />
    <glyph glyph-name="zero" unicode="0" horiz-adv-x="610" 
d="M164 238q0 -131 107 -131q44 0 78.5 32t53 81t28 98.5t9.5 93.5q0 129 -107 129q-36 0 -65.5 -21t-48.5 -53.5t-31.5 -74t-18 -80.5t-5.5 -74zM264 -15q-62 0 -109 21t-74 57.5t-40.5 80t-13.5 92.5q0 52 9.5 107t33.5 113.5t58.5 104t90 74.5t122.5 29q82 0 137 -37.5
t77 -92t22 -121.5q0 -53 -10 -108.5t-34 -113.5t-59 -103.5t-89.5 -74t-120.5 -28.5z" />
    <glyph glyph-name="one" unicode="1" horiz-adv-x="369" 
d="M208 0h-138l94 441h-138l20 91q62 2 111 34t69 83h119z" />
    <glyph glyph-name="two" unicode="2" horiz-adv-x="547" 
d="M-33 0q0 2 2 14t2 14q17 92 65.5 157t142.5 107l119 53q101 45 101 115q0 35 -22.5 59t-69.5 24q-56 0 -84.5 -38t-28.5 -104l-128 14q0 108 67 178.5t182 70.5q108 0 164.5 -54t56.5 -135q0 -149 -173 -227l-138 -62q-48 -21 -73 -67h316l-25 -119h-476z" />
    <glyph glyph-name="three" unicode="3" horiz-adv-x="543" 
d="M205 299l-46 103l202 129h-286l23 118h460l-27 -135l-193 -124q63 -7 104.5 -53t41.5 -116q0 -95 -72.5 -165.5t-185.5 -70.5q-110 0 -173.5 62.5t-63.5 148.5q0 10 2 18l134 15q-1 -7 -1 -19q0 -46 28 -76t75 -30q52 0 85 31t33 81q0 44 -28.5 67t-70.5 23q-22 0 -41 -7
z" />
    <glyph glyph-name="four" unicode="4" horiz-adv-x="595" 
d="M-14 139l30 145l355 365h166l-84 -392h111l-25 -118h-111l-28 -139h-136l28 139h-306zM317 257l53 244l-237 -244h184z" />
    <glyph glyph-name="five" unicode="5" horiz-adv-x="540" 
d="M-5 194v4l130 25q-1 -2 -1 -13q0 -44 28 -76t78 -32q49 0 84 32t35 88q0 45 -29 70.5t-74 25.5q-54 0 -91 -34l-115 57l135 308h365l-25 -119h-265l-58 -129q39 24 95 24q95 0 148 -50.5t53 -137.5q0 -107 -72 -180t-188 -73q-103 0 -168 62t-65 148z" />
    <glyph glyph-name="six" unicode="6" horiz-adv-x="572" 
d="M585 620l-55 -106q-51 27 -123 27q-79 0 -142 -44t-88 -124q52 58 141 58q93 0 146.5 -51.5t53.5 -136.5q0 -112 -75.5 -184.5t-186.5 -72.5q-103 0 -170 68t-67 181q0 177 111 300t287 123q113 0 168 -38zM276 320q-50 0 -85 -33t-35 -85q0 -44 28.5 -71.5t74.5 -27.5
q49 0 84 33t35 87q0 44 -27.5 70.5t-74.5 26.5z" />
    <glyph glyph-name="seven" unicode="7" horiz-adv-x="524" 
d="M558 649l-24 -115q-24 -16 -52 -39t-75.5 -72t-89.5 -105.5t-85.5 -141t-70.5 -176.5h-145q24 89 65.5 173.5t82 141.5t86.5 107.5t71.5 72.5t45.5 37h-325l25 117h491z" />
    <glyph glyph-name="eight" unicode="8" horiz-adv-x="558" 
d="M294 381q45 0 73.5 27t28.5 66q0 31 -22 53.5t-63 22.5q-49 0 -77 -27.5t-28 -65.5q0 -31 22.5 -53.5t65.5 -22.5zM134 182q0 -38 29 -61.5t74 -23.5q50 0 82 29.5t32 70.5q0 36 -26 60.5t-77 24.5t-82.5 -29.5t-31.5 -70.5zM484 186q0 -92 -75 -146.5t-180 -54.5
q-100 0 -165 48t-65 132q0 63 44 110t116 62q-35 16 -60 52t-25 79q0 87 69 141.5t173 54.5q103 0 161 -49.5t58 -123.5q0 -58 -37.5 -103t-101.5 -64q40 -15 64 -54.5t24 -83.5z" />
    <glyph glyph-name="nine" unicode="9" horiz-adv-x="564" 
d="M179 428q0 -44 28 -70t74 -26q50 0 83.5 32.5t33.5 83.5q0 44 -28 71t-73 27q-48 0 -83 -32t-35 -86zM-23 37l54 106q59 -36 130 -36q82 0 142.5 47.5t79.5 127.5q-49 -60 -137 -60q-90 0 -147 55t-57 141q0 111 75.5 178.5t184.5 67.5q105 0 171 -67t66 -182
q0 -194 -106 -312t-273 -118q-111 0 -183 52z" />
    <glyph glyph-name="colon" unicode=":" horiz-adv-x="297" 
d="M83 -6q-37 0 -59.5 23t-22.5 57q0 40 29 69t71 29q36 0 59 -23t23 -57q0 -40 -29.5 -69t-70.5 -29zM153 321q-37 0 -59.5 23t-22.5 57q0 40 29 69t71 29q36 0 59 -23t23 -57q0 -40 -29.5 -69t-70.5 -29z" />
    <glyph glyph-name="semicolon" unicode=";" horiz-adv-x="297" 
d="M-3 66q0 39 27.5 64.5t67.5 25.5q39 0 63 -26.5t24 -66.5q0 -91 -63 -155.5t-154 -69.5l13 65q36 3 72 31t45 66q-8 -4 -22 -4q-32 0 -52.5 20t-20.5 50zM153 321q-37 0 -59.5 23t-22.5 57q0 40 29 69t71 29q36 0 59 -23t23 -57q0 -40 -29.5 -69t-70.5 -29z" />
    <glyph glyph-name="less" unicode="&#x3c;" horiz-adv-x="498" 
d="M22 244v101l430 217v-123l-296 -143l296 -143v-125z" />
    <glyph glyph-name="equal" unicode="=" horiz-adv-x="619" 
d="M59 341v107h485v-107h-485zM59 142v108h485v-108h-485z" />
    <glyph glyph-name="greater" unicode="&#x3e;" horiz-adv-x="498" 
d="M464 345v-100l-430 -217v123l296 143l-296 143v125z" />
    <glyph glyph-name="question" unicode="?" horiz-adv-x="507" 
d="M259 214h-106q2 129 108 189l56 32q60 34 60 93q0 32 -22 54.5t-66 22.5q-55 0 -84.5 -37.5t-29.5 -91.5l-124 14q2 101 70.5 167.5t177.5 66.5q103 0 159.5 -52.5t56.5 -124.5q0 -130 -138 -208l-46 -27q-65 -38 -72 -98zM112 63q0 36 25.5 62t62.5 26q31 0 51 -21
t20 -50q0 -36 -26 -62t-60 -26q-32 0 -52.5 20.5t-20.5 50.5z" />
    <glyph glyph-name="at" unicode="@" horiz-adv-x="805" 
d="M428 -48q-177 0 -289.5 105t-112.5 274q0 172 114.5 283t278.5 111q154 0 257 -94t103 -235q0 -111 -61.5 -184t-143.5 -73q-37 0 -62 17t-33 43q-18 -29 -50 -45.5t-66 -16.5q-66 0 -109 48.5t-43 124.5q0 97 58 161t139 64q31 0 58.5 -14t38.5 -41l8 42h95l-52 -245
q-3 -12 -3 -19q0 -13 8.5 -22.5t23.5 -9.5q38 0 68.5 49t30.5 120q0 106 -73.5 172.5t-190.5 66.5q-127 0 -210 -83.5t-83 -217.5q0 -128 81 -210t220 -82q105 0 184 59l48 -68q-40 -36 -105.5 -58t-126.5 -22zM483 366q0 37 -17.5 58t-50.5 21q-44 0 -72.5 -37t-28.5 -89
q0 -92 71 -92q41 0 68.5 39.5t29.5 99.5z" />
    <glyph glyph-name="A" unicode="A" horiz-adv-x="680" 
d="M470 0l-23 162h-274l-91 -162h-155l415 709h158l113 -709h-143zM392 554l-148 -266h185z" />
    <glyph glyph-name="B" unicode="B" horiz-adv-x="611" 
d="M156 709h235q91 0 140 -46t49 -121q0 -62 -39 -114.5t-98 -68.5q39 -12 67.5 -50.5t28.5 -90.5q0 -95 -69 -156.5t-177 -61.5h-287zM229 416h93q53 0 86 28.5t33 75.5q0 34 -23 53.5t-68 19.5h-83zM166 115h108q56 0 92 30t36 79q0 36 -23.5 57t-70.5 21h-103z" />
    <glyph glyph-name="C" unicode="C" horiz-adv-x="718" 
d="M418 724q69 0 124 -20t89.5 -54t55 -73t28.5 -82l-134 -40q-11 56 -54 97t-119 41q-98 0 -166.5 -78.5t-68.5 -200.5q0 -88 50 -142.5t134 -54.5q129 0 187 133l124 -50q-37 -90 -118.5 -153t-204.5 -63q-139 0 -226 91t-87 231q0 128 56.5 225t143 144.5t186.5 48.5z
" />
    <glyph glyph-name="D" unicode="D" horiz-adv-x="705" 
d="M169 130h129q92 0 163 75t71 196q0 85 -45.5 132.5t-133.5 47.5h-88zM293 0h-287l149 709h210q143 0 225.5 -80.5t82.5 -214.5q0 -97 -32 -177t-85.5 -131t-121 -78.5t-141.5 -27.5z" />
    <glyph glyph-name="E" unicode="E" horiz-adv-x="580" 
d="M448 0h-442l150 709h442l-28 -130h-303l-35 -162h275l-26 -123h-275l-35 -164h304z" />
    <glyph glyph-name="F" unicode="F" horiz-adv-x="563" 
d="M144 0h-138l150 709h446l-28 -131h-308l-37 -175h274l-26 -127h-274z" />
    <glyph glyph-name="G" unicode="G" horiz-adv-x="756" 
d="M407 594q-97 0 -165.5 -77.5t-68.5 -202.5q0 -92 48.5 -147t134.5 -55q74 0 125.5 37.5t70.5 99.5h-220l25 120h348l-77 -369h-106l3 73q-68 -86 -191 -86q-134 0 -218 88t-84 231q0 97 32.5 177t86.5 132t123 80.5t144 28.5q69 0 124.5 -19.5t90.5 -52t56.5 -70.5
t28.5 -81l-135 -40q-11 55 -54.5 94t-121.5 39z" />
    <glyph glyph-name="H" unicode="H" horiz-adv-x="724" 
d="M568 0h-139l62 294h-285l-62 -294h-138l150 709h138l-60 -285h285l60 285h139z" />
    <glyph glyph-name="I" unicode="I" horiz-adv-x="302" 
d="M146 0h-140l150 709h140z" />
    <glyph glyph-name="J" unicode="J" horiz-adv-x="554" 
d="M418 709h140l-109 -512q-21 -97 -85.5 -154.5t-156.5 -57.5q-97 0 -152.5 54.5t-55.5 141.5q0 38 6 64l6 26l135 19l-11 -55q-4 -22 -4 -33q0 -38 21 -62.5t62 -24.5q38 0 63.5 26t34.5 71z" />
    <glyph glyph-name="K" unicode="K" horiz-adv-x="689" 
d="M441 0l-152 294l-103 -93l-42 -201h-138l150 709h138l-63 -299l332 299h190l-355 -318l205 -391h-162z" />
    <glyph glyph-name="L" unicode="L" horiz-adv-x="552" 
d="M452 0h-446l150 709h138l-122 -577h308z" />
    <glyph glyph-name="M" unicode="M" horiz-adv-x="945" 
d="M789 0h-136l104 494l-301 -494h-109l-105 488l-104 -488h-132l150 709h169l112 -509l305 509h197z" />
    <glyph glyph-name="N" unicode="N" horiz-adv-x="748" 
d="M592 0h-138l-205 501l-106 -501h-137l150 709h159l188 -473l101 473h138z" />
    <glyph glyph-name="O" unicode="O" horiz-adv-x="758" 
d="M32 302q0 98 32.5 179t86 133.5t121.5 81t141 28.5q141 0 227 -87.5t86 -229.5q0 -98 -32.5 -179t-86 -133.5t-121 -81t-140.5 -28.5q-141 0 -227.5 88t-86.5 229zM584 399q0 89 -48 141.5t-131 52.5q-98 0 -165 -82t-67 -199q0 -89 49 -141.5t130 -52.5q97 0 164 79
t68 202z" />
    <glyph glyph-name="P" unicode="P" horiz-adv-x="591" 
d="M156 709h231q95 0 154 -54.5t59 -141.5q0 -112 -76 -177.5t-198 -66.5h-125l-57 -269h-138zM355 589h-85l-44 -201h99q59 0 96 30t37 85q0 40 -26 63t-77 23z" />
    <glyph glyph-name="Q" unicode="Q" horiz-adv-x="759" 
d="M32 302q0 98 32.5 179t86 133.5t121.5 81t141 28.5q141 0 227 -87.5t86 -229.5q0 -200 -128 -321l71 -101l-104 -67l-70 99q-72 -32 -149 -32q-141 0 -227.5 88t-86.5 229zM317 270l105 68l96 -138q66 85 66 199q0 89 -48 141.5t-131 52.5q-98 0 -165 -82t-67 -199
q0 -89 49 -141.5t130 -52.5q35 0 65 10z" />
    <glyph glyph-name="R" unicode="R" horiz-adv-x="628" 
d="M391 0l-99 274h-90l-58 -274h-138l150 709h247q96 0 149.5 -50.5t53.5 -131.5q0 -87 -49 -149t-129 -86l110 -292h-147zM227 394h106q60 0 96 31.5t36 83.5q0 37 -23.5 58.5t-69.5 21.5h-103z" />
    <glyph glyph-name="S" unicode="S" horiz-adv-x="584" 
d="M264 105q50 0 79.5 24t30.5 63q0 53 -60 79l-86 38q-137 61 -137 190q0 98 73 161t178 63q66 0 116 -21t75.5 -54t37.5 -66t12 -64l-129 -22q0 14 -4 29t-15 34t-36.5 31.5t-62.5 12.5q-46 0 -76 -27t-30 -63q0 -53 56 -78l82 -36q148 -65 148 -196q0 -88 -68.5 -153
t-181.5 -65q-70 0 -124 22t-83.5 57.5t-44.5 74t-15 78.5q0 14 2 21l129 22q-1 -9 -1 -21q0 -55 34 -94t101 -40z" />
    <glyph glyph-name="T" unicode="T" horiz-adv-x="593" 
d="M624 578h-206l-122 -578h-138l122 578h-215l28 131h559z" />
    <glyph glyph-name="U" unicode="U" horiz-adv-x="676" 
d="M540 709h140l-103 -485q-24 -115 -100 -177t-182 -62q-113 0 -181 61.5t-68 165.5q0 31 8 69l90 428h138l-91 -434q-5 -27 -5 -45q0 -52 29.5 -81.5t90.5 -29.5q110 0 137 128z" />
    <glyph glyph-name="V" unicode="V" horiz-adv-x="661" 
d="M217 709l70 -529l288 529h155l-407 -709h-141l-107 709h142z" />
    <glyph glyph-name="W" unicode="W" horiz-adv-x="996" 
d="M496 709h143l54 -492l222 492h147l-336 -709h-139l-55 505l-256 -505h-145l-47 709h138l27 -490z" />
    <glyph glyph-name="X" unicode="X" horiz-adv-x="659" 
d="M305 233l-196 -233h-173l311 358l-161 351h157l104 -235l198 235h172l-312 -360l162 -349h-159z" />
    <glyph glyph-name="Y" unicode="Y" horiz-adv-x="626" 
d="M237 299l-157 410h146l101 -278l197 278h166l-315 -412l-63 -297h-138z" />
    <glyph glyph-name="Z" unicode="Z" horiz-adv-x="633" 
d="M514 0h-544l28 133l448 445h-344l28 131h530l-27 -128l-455 -450h364z" />
    <glyph glyph-name="bracketleft" unicode="[" horiz-adv-x="320" 
d="M204 -164h-230l206 974h231l-21 -101h-122l-163 -770h121z" />
    <glyph glyph-name="backslash" unicode="\" horiz-adv-x="446" 
d="M270 -15l-214 739h114l214 -739h-114z" />
    <glyph glyph-name="bracketright" unicode="]" horiz-adv-x="325" 
d="M125 -164h-230l22 103h121l163 770h-121l21 101h231z" />
    <glyph glyph-name="asciicircum" unicode="^" horiz-adv-x="565" 
d="M244 709h102l198 -358h-125l-123 231l-123 -231h-127z" />
    <glyph glyph-name="underscore" unicode="_" horiz-adv-x="513" 
d="M-69 -109v109h511v-109h-511z" />
    <glyph glyph-name="grave" unicode="`" horiz-adv-x="278" 
d="M106 551l-103 150h148l58 -150h-103z" />
    <glyph glyph-name="a" unicode="a" horiz-adv-x="580" 
d="M269 385q-60 0 -95 -52t-35 -118q0 -51 26 -80t70 -29q53 0 90.5 47.5t37.5 126.5q0 49 -25 77t-69 28zM413 492h129l-81 -384q-9 -43 -9 -89q0 -10 1 -19h-123q-1 8 -1 23q0 13 2 37q-47 -69 -132 -69q-88 0 -140 62.5t-52 156.5q0 125 72 209.5t179 84.5q61 0 95.5 -21
t47.5 -47z" />
    <glyph glyph-name="b" unicode="b" horiz-adv-x="596" 
d="M122 0h-129l152 724h131l-57 -272q46 51 132 51q92 0 142 -58t50 -148q0 -135 -73.5 -222t-184.5 -87q-54 0 -94 24t-54 57zM305 386q-56 0 -94.5 -48t-38.5 -119q0 -52 28 -82.5t72 -30.5q52 0 94.5 45.5t42.5 124.5q0 53 -28.5 81.5t-75.5 28.5z" />
    <glyph glyph-name="c" unicode="c" horiz-adv-x="522" 
d="M495 342l-120 -36q-7 34 -32.5 57t-69.5 23q-54 0 -95 -44.5t-41 -122.5q0 -53 30 -83t79 -30q74 0 111 72l110 -43q-29 -64 -87.5 -107t-141.5 -43q-102 0 -167.5 64t-65.5 167q0 128 82 209.5t195 81.5q93 0 146.5 -48.5t66.5 -116.5z" />
    <glyph glyph-name="d" unicode="d" horiz-adv-x="583" 
d="M591 724l-130 -616q-9 -40 -11 -87q0 -17 1 -21h-121q-1 9 -1 25q0 13 2 35q-47 -69 -132 -69q-88 1 -140 63t-52 156q0 125 72 209.5t179 84.5q103 0 140 -64l60 284h133zM269 385q-60 0 -95 -52t-35 -118q0 -51 26 -80t70 -29q53 0 90.5 47.5t37.5 126.5q0 49 -25 77
t-69 28z" />
    <glyph glyph-name="e" unicode="e" horiz-adv-x="539" 
d="M145 302h216q1 7 1 12q0 33 -23 59t-70 26q-48 0 -79.5 -27t-44.5 -70zM473 211l-342 -1q0 -50 29 -82t81 -32q76 0 110 64l102 -51q-27 -53 -83 -88.5t-137 -35.5q-95 0 -160.5 62.5t-65.5 164.5q0 131 79.5 213t184.5 82q101 0 158.5 -57.5t57.5 -149.5q0 -44 -14 -89z
" />
    <glyph glyph-name="f" unicode="f" horiz-adv-x="363" 
d="M343 379h-104l-80 -379h-134l80 379h-83l24 113h84l17 80q34 159 192 159q53 0 81 -17l-23 -109l-5 2q-5 2 -16 4.5t-24 2.5q-63 0 -78 -68l-11 -54h104z" />
    <glyph glyph-name="g" unicode="g" horiz-adv-x="579" 
d="M365 288q0 42 -26 69.5t-70 27.5q-55 0 -91 -40t-36 -105q0 -46 26.5 -73.5t72.5 -27.5q53 0 88.5 40.5t35.5 108.5zM-51 -18l119 24q0 -41 27 -68.5t79 -27.5q109 0 142 134l8 33q-37 -49 -116 -49q-91 0 -145 57.5t-54 146.5q0 113 71 191.5t177 78.5q55 0 92 -19
t53 -47l12 56h130l-94 -449q-23 -109 -92 -178.5t-185 -69.5q-107 0 -165.5 56.5t-58.5 130.5z" />
    <glyph glyph-name="h" unicode="h" horiz-adv-x="580" 
d="M441 0h-133l61 285q3 15 3 29q0 34 -19.5 53.5t-55.5 19.5q-41 0 -67.5 -29t-36.5 -73l-62 -285h-132l153 724h133l-57 -272q46 53 129 53q72 0 113 -43t41 -112q0 -25 -6 -52z" />
    <glyph glyph-name="i" unicode="i" horiz-adv-x="277" 
d="M119 648q0 37 26.5 63t63.5 26q33 0 53.5 -20.5t20.5 -51.5q0 -38 -27.5 -63.5t-63.5 -25.5q-31 0 -52 20.5t-21 51.5zM129 0h-132l105 492h132z" />
    <glyph glyph-name="j" unicode="j" horiz-adv-x="275" 
d="M-9 -32l113 524h132l-118 -554q-15 -70 -58.5 -106.5t-106.5 -36.5q-56 0 -89 22l22 104l2 -1q3 -1 7 -2.5t9.5 -2.5t13 -2t14.5 -1q49 2 59 56zM121 648q0 37 26.5 63t63.5 26q33 0 53.5 -20.5t20.5 -51.5q0 -38 -27.5 -63.5t-63.5 -25.5q-31 0 -52 20.5t-21 51.5z" />
    <glyph glyph-name="k" unicode="k" horiz-adv-x="561" 
d="M326 0l-92 197l-75 -64l-28 -133h-132l153 724h133l-86 -404l196 172h185l-245 -209l140 -283h-149z" />
    <glyph glyph-name="l" unicode="l" horiz-adv-x="275" 
d="M128 0h-132l153 724h133z" />
    <glyph glyph-name="m" unicode="m" horiz-adv-x="874" 
d="M433 0h-132l61 289q3 13 3 27q0 32 -19 52t-54 20q-39 0 -64 -26.5t-34 -72.5l-63 -289h-132l86 408q10 46 10 84h129q0 -28 -3 -48q48 61 134 61q93 0 130 -74q58 74 161 74q70 0 114 -43t44 -114q0 -20 -5 -47l-65 -301h-132l62 289q3 13 3 26q0 33 -19 53t-55 20
q-38 0 -63.5 -27t-34.5 -71z" />
    <glyph glyph-name="n" unicode="n" horiz-adv-x="580" 
d="M441 0h-133l61 285q3 15 3 29q0 34 -19.5 53.5t-55.5 19.5q-41 0 -67.5 -29t-36.5 -73l-62 -285h-132l86 408q10 46 10 84h129q0 -30 -3 -50q45 63 138 63q72 0 112 -43t40 -112q0 -25 -6 -52z" />
    <glyph glyph-name="o" unicode="o" horiz-adv-x="559" 
d="M273 386q-57 0 -95 -47.5t-38 -118.5q0 -52 28 -83t73 -31q52 0 92.5 44.5t40.5 122.5q0 53 -27.5 83t-73.5 30zM507 278q0 -121 -78 -207t-197 -86q-101 0 -163 65.5t-62 163.5q0 128 80 210.5t196 82.5q102 0 163 -65t61 -164z" />
    <glyph glyph-name="p" unicode="p" horiz-adv-x="594" 
d="M305 386q-57 0 -95.5 -48t-38.5 -119q0 -54 28 -83.5t73 -29.5q52 0 93.5 45.5t41.5 124.5q0 53 -28 81.5t-74 28.5zM213 441q21 28 58 44.5t80 16.5q91 0 140.5 -57t49.5 -148q0 -135 -72.5 -222t-183.5 -87q-53 0 -93 20t-58 51l-52 -249h-132l127 598q10 46 10 84h129
q0 -32 -3 -51z" />
    <glyph glyph-name="q" unicode="q" horiz-adv-x="582" 
d="M541 492l-145 -683h-132l48 227q-45 -45 -113 -45q-88 1 -141 63.5t-53 155.5q0 125 72 209.5t179 84.5q106 0 144 -67l12 55h129zM267 384q-59 0 -94.5 -51.5t-35.5 -117.5q0 -50 26.5 -79.5t72.5 -29.5q53 0 90 47t37 125q0 50 -25 78t-71 28z" />
    <glyph glyph-name="r" unicode="r" horiz-adv-x="399" 
d="M370 357q-28 7 -48 7q-113 0 -142 -137l-49 -227h-132l86 408q11 51 11 84h129q0 -37 -6 -61q45 64 137 64q20 0 42 -4z" />
    <glyph glyph-name="s" unicode="s" horiz-adv-x="444" 
d="M-15 151l113 20q-1 -4 -1 -9q0 -32 21.5 -54.5t56.5 -22.5q30 0 45.5 14.5t15.5 34.5q0 31 -37 48l-55 24q-105 45 -105 138q0 67 52.5 115t135.5 48q52 0 89.5 -15t56.5 -40t27.5 -48.5t9.5 -47.5l-115 -18q0 28 -17 49t-55 21q-26 0 -42.5 -14t-16.5 -35q0 -29 31 -42
l63 -27q109 -47 109 -144q0 -63 -50 -112t-140 -49q-58 0 -98.5 17.5t-59.5 46t-26.5 53t-7.5 49.5z" />
    <glyph glyph-name="t" unicode="t" horiz-adv-x="374" 
d="M193 -6q-64 0 -101 34t-37 93q0 20 4 39l46 214h-87l25 118h20q78 0 96 80l15 67h120l-32 -147h96l-25 -118h-96l-43 -205q-3 -11 -3 -20q0 -42 53 -42q19 0 35 4l-23 -106q-26 -11 -63 -11z" />
    <glyph glyph-name="u" unicode="u" horiz-adv-x="567" 
d="M90 492h132l-57 -266q-7 -31 -7 -47q0 -34 18.5 -54t55.5 -20q39 0 64.5 28t35.5 73l62 286h132l-82 -392q-11 -49 -11 -89v-11h-127q-1 6 -1 21t1 30q-19 -30 -53.5 -46.5t-69.5 -16.5q-76 0 -118.5 45t-42.5 116q0 28 10 73z" />
    <glyph glyph-name="v" unicode="v" horiz-adv-x="514" 
d="M535 492l-285 -492h-132l-87 492h137l43 -329l176 329h148z" />
    <glyph glyph-name="w" unicode="w" horiz-adv-x="804" 
d="M353 492h140l38 -315l151 315h138l-253 -492h-131l-42 335l-174 -335h-136l-48 492h129l25 -314z" />
    <glyph glyph-name="x" unicode="x" horiz-adv-x="516" 
d="M217 148l-131 -148h-160l233 252l-128 240h145l71 -144l126 144h162l-230 -248q9 -16 66 -122t66 -122h-146z" />
    <glyph glyph-name="y" unicode="y" horiz-adv-x="524" 
d="M109 -190h-147l170 268l-108 414h140l66 -276l166 276h149z" />
    <glyph glyph-name="z" unicode="z" horiz-adv-x="491" 
d="M375 0h-408l25 118l283 259h-220l24 115h395l-24 -112l-292 -265h241z" />
    <glyph glyph-name="braceleft" unicode="{" horiz-adv-x="369" 
d="M21 270l23 112q46 0 79 22.5t43 69.5l30 144q22 105 76 148.5t148 43.5h41l-21 -101h-30q-43 0 -68.5 -20.5t-35.5 -68.5l-36 -168q-24 -109 -126 -127q74 -22 74 -102q0 -15 -3 -31l-33 -153q-3 -16 -3 -31q0 -65 73 -65h25l-21 -101h-29q-76 0 -118 38t-42 108
q0 28 7 57l29 134q3 14 3 26q0 65 -85 65z" />
    <glyph glyph-name="bar" unicode="|" horiz-adv-x="281" 
d="M85 -158h-111l205 968h112z" />
    <glyph glyph-name="braceright" unicode="}" horiz-adv-x="371" 
d="M338 381l-24 -112q-102 0 -121 -91l-31 -143q-43 -193 -230 -193h-35l22 101h28q86 0 106 93l36 168q10 48 42.5 81t83.5 43q-36 10 -55.5 36t-19.5 62q0 15 3 30l34 162q3 18 3 31q0 60 -71 60h-27l21 101h32q73 0 115 -36.5t42 -105.5q0 -26 -6 -56l-31 -138
q-3 -14 -3 -26q0 -67 86 -67z" />
    <glyph glyph-name="asciitilde" unicode="~" horiz-adv-x="653" 
d="M504 367l73 -59q-28 -50 -70.5 -77t-93.5 -27q-55 0 -107 29l-47 26q-25 13 -51 13q-52 0 -88 -52l-74 59q59 105 164 105q54 0 106 -28l47 -26q25 -14 50 -14q56 0 91 51z" />
    <glyph glyph-name="uni00A0" unicode="&#xa0;" horiz-adv-x="261" 
 />
    <glyph glyph-name="exclamdown" unicode="&#xa1;" horiz-adv-x="255" 
d="M167 283l-72 -493h-161l136 493h97zM224 436q0 -36 -25.5 -62t-61.5 -26q-32 0 -52 20.5t-20 50.5q0 36 26 62t60 26q32 0 52.5 -20.5t20.5 -50.5z" />
    <glyph glyph-name="cent" unicode="&#xa2;" horiz-adv-x="553" 
d="M152 0l19 91q-64 22 -101 76t-37 126q0 111 69 185.5t169 84.5l18 86h102l-20 -94q57 -16 90.5 -56t42.5 -89l-116 -33q-6 31 -30.5 52.5t-66.5 21.5q-53 0 -92.5 -41t-39.5 -114q0 -49 29 -77t76 -28q73 0 108 67l105 -40q-26 -58 -79.5 -97.5t-127.5 -43.5l-16 -77
h-102z" />
    <glyph glyph-name="sterling" unicode="&#xa3;" horiz-adv-x="596" 
d="M52 273l22 102h67q-7 35 -7 65q0 94 60 158t163 64q97 0 145 -48.5t48 -120.5q0 -19 -3 -28l-120 -13q2 8 2 23q0 33 -19.5 54.5t-56.5 21.5q-41 0 -67.5 -28t-26.5 -83q0 -21 8 -65h177l-22 -102h-144q-4 -52 -32 -94.5t-75 -62.5h161q41 0 65.5 24t30.5 62l115 -21
q-14 -82 -69.5 -131.5t-135.5 -49.5h-347l25 120q60 11 95.5 54.5t40.5 98.5h-100z" />
    <glyph glyph-name="currency" unicode="&#xa4;" horiz-adv-x="616" 
d="M75 245q0 59 29 108l-72 73l80 80l74 -75q49 27 105 27t103 -26l73 74l81 -80l-71 -71q31 -50 31 -110q0 -61 -31 -109l71 -71l-80 -80l-73 73q-47 -26 -104 -26q-58 0 -106 27l-73 -74l-80 80l72 73q-29 47 -29 107zM186 245q0 -46 30 -75.5t75 -29.5q46 0 75.5 29.5
t29.5 75.5t-29.5 75.5t-75.5 29.5q-45 0 -75 -29.5t-30 -75.5z" />
    <glyph glyph-name="yen" unicode="&#xa5;" horiz-adv-x="619" 
d="M62 298l20 94h108l-97 257h144l83 -245l182 245h150l-205 -257h115l-20 -94h-178l-15 -69h179l-21 -94h-178l-28 -135h-130l28 135h-172l21 94h171l15 69h-172z" />
    <glyph glyph-name="brokenbar" unicode="&#xa6;" horiz-adv-x="281" 
d="M206 412h-111l84 398h112zM85 -158h-111l84 398h112z" />
    <glyph glyph-name="section" unicode="&#xa7;" horiz-adv-x="572" 
d="M-5 -1l129 9q-4 -15 -4 -30q0 -36 22 -55.5t59 -19.5q33 0 57 21t24 55q0 35 -30 56l-91 63q-50 35 -78.5 72t-28.5 86q0 103 108 145q-50 49 -50 121q0 89 69.5 145.5t156.5 56.5q94 0 147 -49t53 -123q0 -17 -3 -35l-129 -9q3 9 3 30q0 35 -21.5 54.5t-58.5 19.5
q-34 0 -58 -21.5t-24 -54.5q0 -34 31 -56l90 -63q52 -37 79.5 -72t27.5 -84q0 -56 -31 -93t-76 -54q50 -50 50 -117q0 -92 -69 -149t-158 -57q-93 0 -146 49t-53 123q0 17 3 36zM318 287l-90 64q-46 -25 -46 -70q0 -33 30 -53l89 -64q47 25 47 70q0 32 -30 53z" />
    <glyph glyph-name="dieresis" unicode="&#xa8;" horiz-adv-x="387" 
d="M-13 621q0 31 23 54.5t55 23.5q28 0 46 -19t18 -46q0 -32 -24.5 -54t-54.5 -22q-27 0 -45 18.5t-18 44.5zM197 621q0 31 23 54.5t55 23.5q28 0 46 -19t18 -46q0 -32 -24.5 -54t-54.5 -22q-27 0 -45 18.5t-18 44.5z" />
    <glyph glyph-name="copyright" unicode="&#xa9;" horiz-adv-x="812" 
d="M31 354q0 153 107.5 262t260.5 109t261.5 -109t108.5 -262q0 -152 -108.5 -261t-261.5 -109t-260.5 108.5t-107.5 261.5zM116 354q0 -122 82 -206.5t201 -84.5t201 84.5t82 206.5q0 123 -82 207.5t-201 84.5t-201 -84.5t-82 -207.5zM583 427l-90 -27q-14 62 -79 62
q-41 0 -72.5 -34t-31.5 -94q0 -41 23 -64t61 -23q58 0 86 55l81 -33q-22 -48 -66.5 -81t-106.5 -33q-78 0 -127.5 50.5t-49.5 125.5q0 98 62 159.5t148 61.5q71 0 111.5 -36.5t50.5 -88.5z" />
    <glyph glyph-name="ordfeminine" unicode="&#xaa;" horiz-adv-x="455" 
d="M234 565q-39 0 -61 -33t-22 -76q0 -34 17.5 -53t45.5 -19q33 0 57.5 30t24.5 82q0 33 -17 51t-45 18zM332 648h99l-59 -274q-7 -28 -7 -56q0 -8 1 -16h-93q-1 6 -1 15q0 13 3 26q-34 -47 -91 -47q-61 0 -98 44.5t-37 110.5q0 89 51 147.5t125 58.5q30 0 52.5 -9t31.5 -18
t14 -19z" />
    <glyph glyph-name="guillemotleft" unicode="&#xab;" horiz-adv-x="520" 
d="M226 101h-120l-100 197l176 194h133l-185 -202zM445 101h-120l-100 197l176 194h133l-185 -202z" />
    <glyph glyph-name="logicalnot" unicode="&#xac;" horiz-adv-x="626" 
d="M540 136h-114v195h-375v110h489v-305z" />
    <glyph glyph-name="uni00AD" unicode="&#xad;" horiz-adv-x="365" 
d="M301 238h-290l25 118h291z" />
    <glyph glyph-name="registered" unicode="&#xae;" horiz-adv-x="812" 
d="M31 354q0 153 107.5 262t260.5 109t261.5 -109t108.5 -262q0 -152 -108.5 -261t-261.5 -109t-260.5 108.5t-107.5 261.5zM116 354q0 -122 82 -206.5t201 -84.5t201 84.5t82 206.5q0 123 -82 207.5t-201 84.5t-201 -84.5t-82 -207.5zM377 370h43q31 0 51.5 17.5t20.5 47.5
q0 42 -50 42h-41zM435 157l-44 137h-30l-29 -139h-94l85 399h145q52 0 85 -33t33 -80q0 -49 -29 -86.5t-77 -51.5l52 -146h-97z" />
    <glyph glyph-name="macron" unicode="&#xaf;" horiz-adv-x="317" 
d="M259 577h-282l21 97h281z" />
    <glyph glyph-name="degree" unicode="&#xb0;" horiz-adv-x="390" 
d="M202 431q29 0 51 22t22 58q0 27 -15.5 43t-42.5 16q-28 0 -50 -22.5t-22 -57.5q0 -26 15.5 -42.5t41.5 -16.5zM194 337q-64 0 -106 42.5t-42 104.5q0 76 54 128t126 52q63 0 105.5 -43t42.5 -105q0 -76 -55 -127.5t-125 -51.5z" />
    <glyph glyph-name="plusminus" unicode="&#xb1;" horiz-adv-x="614" 
d="M355 313v-123h-112v123h-178v108h178v123h112v-123h178v-108h-178zM65 44v109h468v-109h-468z" />
    <glyph glyph-name="twosuperior" unicode="&#xb2;" horiz-adv-x="383" 
d="M167 517l65 28q47 20 47 51q0 15 -10 27t-30 12q-54 0 -54 -63l-92 6q0 60 41 99t108 39t103 -32t36 -80q0 -84 -106 -129l-76 -32q-15 -7 -18 -17h161l-18 -85h-281q5 125 124 176z" />
    <glyph glyph-name="threesuperior" unicode="&#xb3;" horiz-adv-x="428" 
d="M197 504l-26 66l108 56h-165l18 83h280l-19 -95l-102 -53q35 -7 56.5 -33.5t21.5 -63.5q0 -53 -44.5 -92t-113.5 -39q-65 0 -105 35.5t-40 85.5q0 11 1 17l93 5q-1 -4 -1 -8q0 -22 14.5 -37t39.5 -15t40 14t15 37q0 19 -13.5 30t-33.5 11q-12 0 -24 -4z" />
    <glyph glyph-name="acute" unicode="&#xb4;" horiz-adv-x="277" 
d="M251 701l-168 -150h-114l120 150h162z" />
    <glyph glyph-name="mu" unicode="&#xb5;" horiz-adv-x="599" 
d="M53 -190v682h133v-284q0 -44 23 -71.5t67 -27.5q43 0 68 26.5t25 70.5v286h133v-403q0 -44 5 -89h-127q-4 20 -4 53q-18 -33 -56 -49.5t-80 -16.5q-27 0 -54 10v-187h-133z" />
    <glyph glyph-name="paragraph" unicode="&#xb6;" horiz-adv-x="669" 
d="M402 607l-170 -801h-105l106 495h-9q-74 0 -123.5 48.5t-49.5 120.5q0 75 42.5 131t105.5 82t135 26h389l-22 -102h-97l-170 -801h-106l170 801h-96z" />
    <glyph glyph-name="periodcentered" unicode="&#xb7;" horiz-adv-x="283" 
d="M46 301q0 37 28 65t66 28q34 0 55.5 -22t21.5 -53q0 -40 -27.5 -67t-65.5 -27q-35 0 -56.5 22t-21.5 54z" />
    <glyph glyph-name="cedilla" unicode="&#xb8;" horiz-adv-x="280" 
d="M107 13h92l-69 -66q35 -4 55.5 -25.5t20.5 -50.5q0 -40 -32.5 -70t-92.5 -30q-50 0 -85.5 23.5t-45.5 44.5l55 46q28 -45 73 -45q17 0 29 7.5t12 21.5q0 29 -40 29q-7 0 -17 -2l-24 50z" />
    <glyph glyph-name="onesuperior" unicode="&#xb9;" horiz-adv-x="304" 
d="M201 342h-102l49 228h-89l14 66q42 1 73.5 22t43.5 51h89z" />
    <glyph glyph-name="ordmasculine" unicode="&#xba;" horiz-adv-x="430" 
d="M237 567q-37 0 -61.5 -32t-24.5 -77q0 -34 18.5 -53.5t46.5 -19.5q34 0 60.5 28t26.5 80q0 35 -17.5 54t-48.5 20zM405 497q0 -85 -55.5 -145t-140.5 -60q-71 0 -115.5 46t-44.5 116q0 90 57 147.5t139 57.5q72 0 116 -46t44 -116z" />
    <glyph glyph-name="guillemotright" unicode="&#xbb;" horiz-adv-x="518" 
d="M44 492h120l101 -198l-177 -193h-132l184 202zM267 492h120l101 -198l-177 -193h-132l184 202z" />
    <glyph glyph-name="onequarter" unicode="&#xbc;" horiz-adv-x="812" 
d="M196 282h-102l49 228h-89l14 66q42 1 73.5 22t43.5 51h89zM383 73l21 104l203 191h111l-46 -217h61l-17 -78h-61q0 -1 -15 -73h-101l16 73h-172zM571 151l25 111l-117 -111h92zM726 649l-593 -649h-121l593 649h121z" />
    <glyph glyph-name="onehalf" unicode="&#xbd;" horiz-adv-x="841" 
d="M197 282h-102l49 228h-89l14 66q42 1 73.5 22t43.5 51h89zM726 649l-593 -649h-121l593 649h121zM559 176l65 28q47 20 47 51q0 15 -10 27t-30 12q-54 0 -54 -63l-92 6q0 60 41 99t108 39t103 -32t36 -80q0 -84 -106 -129l-76 -32q-15 -7 -18 -17h161l-18 -85h-281
q5 125 124 176z" />
    <glyph glyph-name="threequarters" unicode="&#xbe;" horiz-adv-x="917" 
d="M177 444l-26 66l108 56h-165l18 83h280l-19 -95l-102 -53q35 -7 56.5 -33.5t21.5 -63.5q0 -53 -44.5 -92t-113.5 -39q-65 0 -105 35.5t-40 85.5q0 11 1 17l93 5q-1 -4 -1 -8q0 -22 14.5 -37t39.5 -15t40 14t15 37q0 19 -13.5 30t-33.5 11q-12 0 -24 -4zM488 73l21 104
l203 191h111l-46 -217h61l-17 -78h-61q0 -1 -15 -73h-101l16 73h-172zM676 151l25 111l-117 -111h92zM831 649l-593 -649h-121l593 649h121z" />
    <glyph glyph-name="questiondown" unicode="&#xbf;" horiz-adv-x="447" 
d="M179 284h107q-2 -128 -109 -188l-56 -32q-58 -33 -58 -93q0 -32 22 -55t65 -23q55 0 85 38t30 92l124 -14q-2 -101 -70.5 -167.5t-177.5 -66.5q-102 0 -159 52.5t-57 124.5q0 131 136 208l47 27q65 37 71 97zM327 436q0 -36 -26 -62t-62 -26q-32 0 -51.5 20.5t-19.5 50.5
q0 36 26 62t60 26q32 0 52.5 -20.5t20.5 -50.5z" />
    <glyph glyph-name="Agrave" unicode="&#xc0;" horiz-adv-x="680" 
d="M470 0l-23 162h-274l-91 -162h-155l415 709h158l113 -709h-143zM392 554l-148 -266h185zM369 759l-116 127h155l76 -127h-115z" />
    <glyph glyph-name="Aacute" unicode="&#xc1;" horiz-adv-x="680" 
d="M470 0l-23 162h-274l-91 -162h-155l415 709h158l113 -709h-143zM392 554l-148 -266h185zM655 886l-169 -127h-128l128 127h169z" />
    <glyph glyph-name="Acircumflex" unicode="&#xc2;" horiz-adv-x="680" 
d="M470 0l-23 162h-274l-91 -162h-155l415 709h158l113 -709h-143zM392 554l-148 -266h185zM358 759h-125l146 127h137l94 -127h-116l-54 65z" />
    <glyph glyph-name="Atilde" unicode="&#xc3;" horiz-adv-x="680" 
d="M470 0l-23 162h-274l-91 -162h-155l415 709h158l113 -709h-143zM392 554l-148 -266h185zM614 890q-20 -137 -123 -137q-35 0 -73 24l-5 3q-34 20 -47 20q-29 0 -36 -43h-85q7 71 42 103.5t84 32.5q34 0 74 -25l3 -2q28 -19 44 -19q30 0 37 43h85z" />
    <glyph glyph-name="Adieresis" unicode="&#xc4;" horiz-adv-x="680" 
d="M200 815q0 31 23.5 55.5t56.5 24.5q29 0 47 -18.5t18 -45.5q0 -34 -23.5 -57t-55.5 -23q-29 0 -47.5 18t-18.5 46zM519 815q0 31 23.5 55.5t56.5 24.5q29 0 47 -18.5t18 -45.5q0 -34 -23.5 -57t-55.5 -23q-29 0 -47.5 18t-18.5 46zM470 0l-23 162h-274l-91 -162h-155
l415 709h158l113 -709h-143zM392 554l-148 -266h185z" />
    <glyph glyph-name="Aring" unicode="&#xc5;" horiz-adv-x="680" 
d="M392 552l-148 -264h185zM429 807q-21 0 -37.5 -16t-16.5 -39q0 -19 13 -31t33 -12q22 0 38.5 15t16.5 39q0 19 -13.5 31.5t-33.5 12.5zM290 744q0 60 44 102.5t104 42.5q53 0 89.5 -34t36.5 -85q0 -68 -56 -112l105 -658h-143l-23 162h-274l-91 -162h-155l391 668
q-28 31 -28 76z" />
    <glyph glyph-name="AE" unicode="&#xc6;" horiz-adv-x="1056" 
d="M648 130h304l-28 -130h-442l35 165h-275l-140 -165h-176l619 709h529l-27 -130h-304l-34 -162h275l-26 -123h-275zM341 281h201l67 314z" />
    <glyph glyph-name="Ccedilla" unicode="&#xc7;" horiz-adv-x="718" 
d="M243 -54l44 43q-115 18 -185 105t-70 212q0 128 56.5 225t143 144.5t186.5 48.5q69 0 124 -20t89.5 -54t55 -73t28.5 -82l-134 -40q-11 56 -54 97t-119 41q-98 0 -166.5 -78.5t-68.5 -200.5q0 -88 50 -142.5t134 -54.5q129 0 187 133l124 -50q-35 -85 -109 -146t-184 -69
l-40 -38q35 -4 55.5 -25.5t20.5 -50.5q0 -40 -32.5 -70t-92.5 -30q-50 0 -85.5 23.5t-45.5 44.5l55 46q28 -45 73 -45q17 0 29 7.5t12 21.5q0 29 -40 29q-7 0 -17 -2z" />
    <glyph glyph-name="Egrave" unicode="&#xc8;" horiz-adv-x="580" 
d="M348 759l-116 127h155l76 -127h-115zM448 0h-442l150 709h442l-28 -130h-303l-35 -162h275l-26 -123h-275l-35 -164h304z" />
    <glyph glyph-name="Eacute" unicode="&#xc9;" horiz-adv-x="580" 
d="M597 886l-169 -127h-128l128 127h169zM448 0h-442l150 709h442l-28 -130h-303l-35 -162h275l-26 -123h-275l-35 -164h304z" />
    <glyph glyph-name="Ecircumflex" unicode="&#xca;" horiz-adv-x="580" 
d="M320 759h-125l146 127h137l94 -127h-116l-54 65zM448 0h-442l150 709h442l-28 -130h-303l-35 -162h275l-26 -123h-275l-35 -164h304z" />
    <glyph glyph-name="Edieresis" unicode="&#xcb;" horiz-adv-x="580" 
d="M214 815q0 32 23.5 55.5t56.5 23.5q28 0 46 -18t18 -45q0 -34 -23.5 -56.5t-55.5 -22.5q-29 0 -47 17.5t-18 45.5zM429 815q0 32 23.5 55.5t56.5 23.5q28 0 46 -18t18 -45q0 -34 -23.5 -56.5t-55.5 -22.5q-29 0 -47 17.5t-18 45.5zM448 0h-442l150 709h442l-28 -130h-303
l-35 -162h275l-26 -123h-275l-35 -164h304z" />
    <glyph glyph-name="Igrave" unicode="&#xcc;" horiz-adv-x="302" 
d="M146 0h-140l150 709h140zM184 759l-116 127h155l76 -127h-115z" />
    <glyph glyph-name="Iacute" unicode="&#xcd;" horiz-adv-x="302" 
d="M146 0h-140l150 709h140zM466 886l-169 -127h-128l128 127h169z" />
    <glyph glyph-name="Icircumflex" unicode="&#xce;" horiz-adv-x="302" 
d="M146 0h-140l150 709h140zM170 759h-125l146 127h137l94 -127h-116l-54 65z" />
    <glyph glyph-name="Idieresis" unicode="&#xcf;" horiz-adv-x="302" 
d="M146 0h-140l150 709h140zM81 815q0 31 22.5 54t54.5 23q26 0 43.5 -18t17.5 -43q0 -33 -22.5 -54.5t-53.5 -21.5q-27 0 -44.5 17t-17.5 43zM266 815q0 31 22.5 54t54.5 23q26 0 43.5 -18t17.5 -43q0 -33 -22.5 -54.5t-53.5 -21.5q-27 0 -44.5 17t-17.5 43z" />
    <glyph glyph-name="Eth" unicode="&#xd0;" horiz-adv-x="727" 
d="M9 313l21 102h85l62 294h210q143 0 225.5 -80.5t82.5 -214.5q0 -97 -32 -177t-85.5 -131t-121 -78.5t-141.5 -27.5h-287l66 313h-85zM191 130h129q92 0 163 75t71 196q0 85 -45.5 132.5t-133.5 47.5h-88l-35 -166h149l-21 -102h-150z" />
    <glyph glyph-name="Ntilde" unicode="&#xd1;" horiz-adv-x="748" 
d="M655 890q-20 -137 -123 -137q-35 0 -73 24l-5 3q-34 20 -47 20q-29 0 -36 -43h-85q7 71 42 103.5t84 32.5q34 0 74 -25l3 -2q29 -19 44 -19q30 0 37 43h85zM592 0h-138l-205 501l-106 -501h-137l150 709h159l188 -473l101 473h138z" />
    <glyph glyph-name="Ograve" unicode="&#xd2;" horiz-adv-x="758" 
d="M393 759l-116 127h155l76 -127h-115zM32 302q0 98 32.5 179t86 133.5t121.5 81t141 28.5q141 0 227 -87.5t86 -229.5q0 -98 -32.5 -179t-86 -133.5t-121 -81t-140.5 -28.5q-141 0 -227.5 88t-86.5 229zM584 399q0 89 -48 141.5t-131 52.5q-98 0 -165 -82t-67 -199
q0 -89 49 -141.5t130 -52.5q97 0 164 79t68 202z" />
    <glyph glyph-name="Oacute" unicode="&#xd3;" horiz-adv-x="758" 
d="M666 886l-169 -127h-128l128 127h169zM32 302q0 98 32.5 179t86 133.5t121.5 81t141 28.5q141 0 227 -87.5t86 -229.5q0 -98 -32.5 -179t-86 -133.5t-121 -81t-140.5 -28.5q-141 0 -227.5 88t-86.5 229zM584 399q0 89 -48 141.5t-131 52.5q-98 0 -165 -82t-67 -199
q0 -89 49 -141.5t130 -52.5q97 0 164 79t68 202z" />
    <glyph glyph-name="Ocircumflex" unicode="&#xd4;" horiz-adv-x="758" 
d="M377 759h-125l146 127h137l94 -127h-116l-54 65zM32 302q0 98 32.5 179t86 133.5t121.5 81t141 28.5q141 0 227 -87.5t86 -229.5q0 -98 -32.5 -179t-86 -133.5t-121 -81t-140.5 -28.5q-141 0 -227.5 88t-86.5 229zM584 399q0 89 -48 141.5t-131 52.5q-98 0 -165 -82
t-67 -199q0 -89 49 -141.5t130 -52.5q97 0 164 79t68 202z" />
    <glyph glyph-name="Otilde" unicode="&#xd5;" horiz-adv-x="758" 
d="M644 890q-20 -137 -123 -137q-35 0 -73 24l-5 3q-34 20 -47 20q-29 0 -36 -43h-85q7 71 42 103.5t84 32.5q34 0 74 -25l3 -2q28 -19 44 -19q30 0 37 43h85zM32 302q0 98 32.5 179t86 133.5t121.5 81t141 28.5q141 0 227 -87.5t86 -229.5q0 -98 -32.5 -179t-86 -133.5
t-121 -81t-140.5 -28.5q-141 0 -227.5 88t-86.5 229zM584 399q0 89 -48 141.5t-131 52.5q-98 0 -165 -82t-67 -199q0 -89 49 -141.5t130 -52.5q97 0 164 79t68 202z" />
    <glyph glyph-name="Odieresis" unicode="&#xd6;" horiz-adv-x="758" 
d="M203 815q0 31 23.5 55.5t56.5 24.5q29 0 47 -18.5t18 -45.5q0 -34 -23.5 -57t-55.5 -23q-29 0 -47.5 18t-18.5 46zM562 815q0 31 23.5 55.5t56.5 24.5q29 0 47 -18.5t18 -45.5q0 -34 -23.5 -57t-55.5 -23q-29 0 -47.5 18t-18.5 46zM32 302q0 98 32.5 179t86 133.5
t121.5 81t141 28.5q141 0 227 -87.5t86 -229.5q0 -98 -32.5 -179t-86 -133.5t-121 -81t-140.5 -28.5q-141 0 -227.5 88t-86.5 229zM584 399q0 89 -48 141.5t-131 52.5q-98 0 -165 -82t-67 -199q0 -89 49 -141.5t130 -52.5q97 0 164 79t68 202z" />
    <glyph glyph-name="multiply" unicode="&#xd7;" horiz-adv-x="573" 
d="M121 48l-79 79l165 168l-165 168l80 79l164 -167l165 167l80 -78l-166 -169l166 -168l-79 -80l-166 168z" />
    <glyph glyph-name="Oslash" unicode="&#xd8;" horiz-adv-x="758" 
d="M32 302q0 98 32.5 179t86 133.5t121.5 81t141 28.5q104 0 181 -50l75 84l80 -70l-78 -88q55 -78 55 -193q0 -98 -32.5 -179t-86 -133.5t-121 -81t-140.5 -28.5q-102 0 -178 48l-72 -81l-82 70l76 85q-58 82 -58 195zM173 312q0 -52 17 -92l311 349q-43 24 -96 24
q-98 0 -165 -82t-67 -199zM584 399q0 49 -15 86l-307 -346q38 -21 90 -21q97 0 164 79t68 202z" />
    <glyph glyph-name="Ugrave" unicode="&#xd9;" horiz-adv-x="676" 
d="M379 759l-116 127h155l76 -127h-115zM540 709h140l-103 -485q-24 -115 -100 -177t-182 -62q-113 0 -181 61.5t-68 165.5q0 31 8 69l90 428h138l-91 -434q-5 -27 -5 -45q0 -52 29.5 -81.5t90.5 -29.5q110 0 137 128z" />
    <glyph glyph-name="Uacute" unicode="&#xda;" horiz-adv-x="676" 
d="M628 886l-169 -127h-128l128 127h169zM540 709h140l-103 -485q-24 -115 -100 -177t-182 -62q-113 0 -181 61.5t-68 165.5q0 31 8 69l90 428h138l-91 -434q-5 -27 -5 -45q0 -52 29.5 -81.5t90.5 -29.5q110 0 137 128z" />
    <glyph glyph-name="Ucircumflex" unicode="&#xdb;" horiz-adv-x="676" 
d="M353 759h-125l146 127h137l94 -127h-116l-54 65zM540 709h140l-103 -485q-24 -115 -100 -177t-182 -62q-113 0 -181 61.5t-68 165.5q0 31 8 69l90 428h138l-91 -434q-5 -27 -5 -45q0 -52 29.5 -81.5t90.5 -29.5q110 0 137 128z" />
    <glyph glyph-name="Udieresis" unicode="&#xdc;" horiz-adv-x="676" 
d="M234 815q0 31 23.5 55.5t56.5 24.5q29 0 47 -18.5t18 -45.5q0 -34 -23.5 -57t-55.5 -23q-29 0 -47.5 18t-18.5 46zM473 815q0 31 23.5 55.5t56.5 24.5q29 0 47 -18.5t18 -45.5q0 -34 -23.5 -57t-55.5 -23q-29 0 -47.5 18t-18.5 46zM540 709h140l-103 -485
q-24 -115 -100 -177t-182 -62q-113 0 -181 61.5t-68 165.5q0 31 8 69l90 428h138l-91 -434q-5 -27 -5 -45q0 -52 29.5 -81.5t90.5 -29.5q110 0 137 128z" />
    <glyph glyph-name="Yacute" unicode="&#xdd;" horiz-adv-x="626" 
d="M237 299l-157 410h146l101 -278l197 278h166l-315 -412l-63 -297h-138zM600 886l-169 -127h-128l128 127h169z" />
    <glyph glyph-name="Thorn" unicode="&#xde;" horiz-adv-x="585" 
d="M331 460h-87l-44 -201h101q60 0 96 29.5t37 85.5q0 86 -103 86zM145 0h-139l150 709h139l-27 -129h94q96 0 155 -54t59 -141q0 -112 -76 -178.5t-198 -66.5h-127z" />
    <glyph glyph-name="germandbls" unicode="&#xdf;" horiz-adv-x="599" 
d="M394 331q0 -16 28 -35l26 -17q79 -53 79 -133q0 -58 -47 -110t-136 -52q-76 0 -118 40.5t-42 97.5q0 8 2 24l110 9q-2 -5 -2 -14q0 -56 55 -56q25 0 38.5 14t13.5 33q0 28 -35 50l-25 16q-80 50 -80 118q0 88 90 133l22 11q33 17 48.5 35t15.5 45q0 26 -23.5 46.5
t-68.5 20.5q-94 0 -118 -117l-103 -490h-131l107 513q22 106 91.5 158.5t160.5 52.5q100 0 158 -51t58 -121q0 -120 -120 -175l-22 -10q-32 -15 -32 -36z" />
    <glyph glyph-name="agrave" unicode="&#xe0;" horiz-adv-x="580" 
d="M269 385q-60 0 -95 -52t-35 -118q0 -51 26 -80t70 -29q53 0 90.5 47.5t37.5 126.5q0 49 -25 77t-69 28zM413 492h129l-81 -384q-9 -43 -9 -89q0 -10 1 -19h-123q-1 8 -1 23q0 13 2 37q-47 -69 -132 -69q-88 0 -140 62.5t-52 156.5q0 125 72 209.5t179 84.5q61 0 95.5 -21
t47.5 -47zM250 551l-103 150h148l58 -150h-103z" />
    <glyph glyph-name="aacute" unicode="&#xe1;" horiz-adv-x="580" 
d="M269 385q-60 0 -95 -52t-35 -118q0 -51 26 -80t70 -29q53 0 90.5 47.5t37.5 126.5q0 49 -25 77t-69 28zM413 492h129l-81 -384q-9 -43 -9 -89q0 -10 1 -19h-123q-1 8 -1 23q0 13 2 37q-47 -69 -132 -69q-88 0 -140 62.5t-52 156.5q0 125 72 209.5t179 84.5q61 0 95.5 -21
t47.5 -47zM515 701l-168 -150h-114l120 150h162z" />
    <glyph glyph-name="acircumflex" unicode="&#xe2;" horiz-adv-x="580" 
d="M241 552h-114l144 147h132l80 -147h-104l-53 75zM269 385q-60 0 -95 -52t-35 -118q0 -51 26 -80t70 -29q53 0 90.5 47.5t37.5 126.5q0 49 -25 77t-69 28zM413 492h129l-81 -384q-9 -43 -9 -89q0 -10 1 -19h-123q-1 8 -1 23q0 13 2 37q-47 -69 -132 -69q-88 0 -140 62.5
t-52 156.5q0 125 72 209.5t179 84.5q61 0 95.5 -21t47.5 -47z" />
    <glyph glyph-name="atilde" unicode="&#xe3;" horiz-adv-x="580" 
d="M269 385q-60 0 -95 -52t-35 -118q0 -51 26 -80t70 -29q53 0 90.5 47.5t37.5 126.5q0 49 -25 77t-69 28zM413 492h129l-81 -384q-9 -43 -9 -89q0 -10 1 -19h-123q-1 8 -1 23q0 13 2 37q-47 -69 -132 -69q-88 0 -140 62.5t-52 156.5q0 125 72 209.5t179 84.5q61 0 95.5 -21
t47.5 -47zM218 556h-86q8 72 44.5 107t86.5 35q37 0 72 -23l5 -3q28 -19 45 -19q33 0 41 44h86q-11 -73 -45 -108t-82 -35q-37 0 -73 23l-8 5q-29 17 -44 17q-34 0 -42 -43z" />
    <glyph glyph-name="adieresis" unicode="&#xe4;" horiz-adv-x="580" 
d="M146 621q0 31 23 54.5t55 23.5q28 0 46 -19t18 -46q0 -32 -24.5 -54t-54.5 -22q-27 0 -45 18.5t-18 44.5zM356 621q0 31 23 54.5t55 23.5q28 0 46 -19t18 -46q0 -32 -24.5 -54t-54.5 -22q-27 0 -45 18.5t-18 44.5zM269 385q-60 0 -95 -52t-35 -118q0 -51 26 -80t70 -29
q53 0 90.5 47.5t37.5 126.5q0 49 -25 77t-69 28zM413 492h129l-81 -384q-9 -43 -9 -89q0 -10 1 -19h-123q-1 8 -1 23q0 13 2 37q-47 -69 -132 -69q-88 0 -140 62.5t-52 156.5q0 125 72 209.5t179 84.5q61 0 95.5 -21t47.5 -47z" />
    <glyph glyph-name="aring" unicode="&#xe5;" horiz-adv-x="580" 
d="M269 385q-60 0 -95 -52t-35 -118q0 -51 26 -80t70 -29q53 0 90.5 47.5t37.5 126.5q0 49 -25 77t-69 28zM413 492h129l-81 -384q-9 -43 -9 -89q0 -10 1 -19h-123q-1 8 -1 23q0 13 2 37q-47 -69 -132 -69q-88 0 -140 62.5t-52 156.5q0 125 72 209.5t179 84.5q61 0 95.5 -21
t47.5 -47zM331 764q45 0 75.5 -28t30.5 -72q0 -51 -37.5 -86t-86.5 -35q-44 0 -74.5 28.5t-30.5 71.5q0 52 37.5 86.5t85.5 34.5zM280 649q0 -16 10.5 -26t27.5 -10q18 0 31 12.5t13 31.5q0 16 -10.5 26t-26.5 10q-18 0 -31.5 -12.5t-13.5 -31.5z" />
    <glyph glyph-name="ae" unicode="&#xe6;" horiz-adv-x="843" 
d="M292 294q45 2 45 44q0 25 -22.5 43.5t-64.5 18.5q-37 0 -63 -20t-35 -50l-110 36q18 58 76 99.5t140 41.5q110 0 160 -60q68 60 158 60q101 0 158 -57.5t57 -149.5q0 -49 -14 -89h-339q-1 -3 -1 -7q1 -47 30.5 -77.5t79.5 -30.5q38 0 66.5 18t42.5 46l101 -51
q-27 -53 -83 -88.5t-136 -35.5q-120 0 -180 91q-68 -89 -183 -89q-87 0 -135.5 41t-48.5 101q0 71 47.5 114t123.5 46zM122 139q0 -25 18.5 -39.5t47.5 -14.5q40 0 76.5 28.5t45.5 84.5l2 13l-118 -5q-30 -2 -51 -19t-21 -48zM574 399q-48 0 -79 -27t-44 -70h214q1 2 1 12
q0 33 -22.5 59t-69.5 26z" />
    <glyph glyph-name="ccedilla" unicode="&#xe7;" horiz-adv-x="522" 
d="M126 -54l48 47q-78 18 -123.5 78.5t-45.5 144.5q0 128 82 209.5t195 81.5q93 0 146.5 -48.5t66.5 -116.5l-120 -36q-7 34 -32.5 57t-69.5 23q-54 0 -95 -44.5t-41 -122.5q0 -53 30 -83t79 -30q74 0 111 72l110 -43q-27 -61 -81 -103t-129 -47l-39 -38q35 -4 55.5 -25.5
t20.5 -50.5q0 -40 -32.5 -70t-92.5 -30q-50 0 -85.5 23.5t-45.5 44.5l55 46q28 -45 73 -45q17 0 29 7.5t12 21.5q0 29 -40 29q-7 0 -17 -2z" />
    <glyph glyph-name="egrave" unicode="&#xe8;" horiz-adv-x="539" 
d="M145 302h216q1 7 1 12q0 33 -23 59t-70 26q-48 0 -79.5 -27t-44.5 -70zM473 211l-342 -1q0 -50 29 -82t81 -32q76 0 110 64l102 -51q-27 -53 -83 -88.5t-137 -35.5q-95 0 -160.5 62.5t-65.5 164.5q0 131 79.5 213t184.5 82q101 0 158.5 -57.5t57.5 -149.5q0 -44 -14 -89z
M255 551l-103 150h148l58 -150h-103z" />
    <glyph glyph-name="eacute" unicode="&#xe9;" horiz-adv-x="539" 
d="M508 701l-168 -150h-114l120 150h162zM145 302h216q1 7 1 12q0 33 -23 59t-70 26q-48 0 -79.5 -27t-44.5 -70zM473 211l-342 -1q0 -50 29 -82t81 -32q76 0 110 64l102 -51q-27 -53 -83 -88.5t-137 -35.5q-95 0 -160.5 62.5t-65.5 164.5q0 131 79.5 213t184.5 82
q101 0 158.5 -57.5t57.5 -149.5q0 -44 -14 -89z" />
    <glyph glyph-name="ecircumflex" unicode="&#xea;" horiz-adv-x="539" 
d="M231 552h-114l144 147h132l80 -147h-104l-53 75zM145 302h216q1 7 1 12q0 33 -23 59t-70 26q-48 0 -79.5 -27t-44.5 -70zM473 211l-342 -1q0 -50 29 -82t81 -32q76 0 110 64l102 -51q-27 -53 -83 -88.5t-137 -35.5q-95 0 -160.5 62.5t-65.5 164.5q0 131 79.5 213
t184.5 82q101 0 158.5 -57.5t57.5 -149.5q0 -44 -14 -89z" />
    <glyph glyph-name="edieresis" unicode="&#xeb;" horiz-adv-x="539" 
d="M133 621q0 31 23 54.5t55 23.5q28 0 46 -19t18 -46q0 -32 -24.5 -54t-54.5 -22q-27 0 -45 18.5t-18 44.5zM343 621q0 31 23 54.5t55 23.5q28 0 46 -19t18 -46q0 -32 -24.5 -54t-54.5 -22q-27 0 -45 18.5t-18 44.5zM145 302h216q1 7 1 12q0 33 -23 59t-70 26
q-48 0 -79.5 -27t-44.5 -70zM473 211l-342 -1q0 -50 29 -82t81 -32q76 0 110 64l102 -51q-27 -53 -83 -88.5t-137 -35.5q-95 0 -160.5 62.5t-65.5 164.5q0 131 79.5 213t184.5 82q101 0 158.5 -57.5t57.5 -149.5q0 -44 -14 -89z" />
    <glyph glyph-name="igrave" unicode="&#xec;" horiz-adv-x="277" 
d="M129 0h-133l105 492h133zM127 551l-103 150h148l58 -150h-103z" />
    <glyph glyph-name="iacute" unicode="&#xed;" horiz-adv-x="277" 
d="M402 701l-168 -150h-114l120 150h162zM129 0h-133l105 492h133z" />
    <glyph glyph-name="icircumflex" unicode="&#xee;" horiz-adv-x="277" 
d="M110 552h-114l144 147h132l80 -147h-104l-53 75zM129 0h-133l105 492h133z" />
    <glyph glyph-name="idieresis" unicode="&#xef;" horiz-adv-x="277" 
d="M129 0h-133l105 492h133zM42 621q0 29 22 51.5t53 22.5q27 0 44 -17.5t17 -42.5q0 -31 -23 -52.5t-52 -21.5q-28 0 -44.5 17t-16.5 43zM210 621q0 29 22 51.5t53 22.5q27 0 44 -17.5t17 -42.5q0 -31 -23 -52.5t-52 -21.5q-28 0 -44.5 17t-16.5 43z" />
    <glyph glyph-name="eth" unicode="&#xf0;" horiz-adv-x="557" 
d="M527 622l-83 -36q73 -94 73 -230q0 -168 -80.5 -269.5t-208.5 -101.5q-106 0 -167 63.5t-61 155.5q0 109 71 180.5t177 71.5q101 0 142 -60q-9 82 -63 139l-134 -59l-32 77l88 38q-49 24 -109 30l38 106q113 -8 202 -77l114 50zM364 244q0 47 -29 75t-76 28
q-53 0 -90 -38t-37 -103q0 -44 27.5 -75t75.5 -31q52 0 90.5 39.5t38.5 104.5z" />
    <glyph glyph-name="ntilde" unicode="&#xf1;" horiz-adv-x="580" 
d="M230 556h-86q8 72 44.5 107t86.5 35q37 0 72 -23l5 -3q28 -19 45 -19q33 0 41 44h86q-11 -73 -45 -108t-82 -35q-37 0 -73 23l-8 5q-29 17 -44 17q-34 0 -42 -43zM441 0h-133l61 285q3 15 3 29q0 34 -19.5 53.5t-55.5 19.5q-41 0 -67.5 -29t-36.5 -73l-62 -285h-132
l86 408q10 46 10 84h129q0 -30 -3 -50q45 63 138 63q72 0 112 -43t40 -112q0 -25 -6 -52z" />
    <glyph glyph-name="ograve" unicode="&#xf2;" horiz-adv-x="559" 
d="M257 551l-103 150h148l58 -150h-103zM273 386q-57 0 -95 -47.5t-38 -118.5q0 -52 28 -83t73 -31q52 0 92.5 44.5t40.5 122.5q0 53 -27.5 83t-73.5 30zM507 278q0 -121 -78 -207t-197 -86q-101 0 -163 65.5t-62 163.5q0 128 80 210.5t196 82.5q102 0 163 -65t61 -164z" />
    <glyph glyph-name="oacute" unicode="&#xf3;" horiz-adv-x="559" 
d="M515 701l-168 -150h-114l120 150h162zM273 386q-57 0 -95 -47.5t-38 -118.5q0 -52 28 -83t73 -31q52 0 92.5 44.5t40.5 122.5q0 53 -27.5 83t-73.5 30zM507 278q0 -121 -78 -207t-197 -86q-101 0 -163 65.5t-62 163.5q0 128 80 210.5t196 82.5q102 0 163 -65t61 -164z
" />
    <glyph glyph-name="ocircumflex" unicode="&#xf4;" horiz-adv-x="559" 
d="M238 552h-114l144 147h132l80 -147h-104l-53 75zM273 386q-57 0 -95 -47.5t-38 -118.5q0 -52 28 -83t73 -31q52 0 92.5 44.5t40.5 122.5q0 53 -27.5 83t-73.5 30zM507 278q0 -121 -78 -207t-197 -86q-101 0 -163 65.5t-62 163.5q0 128 80 210.5t196 82.5q102 0 163 -65
t61 -164z" />
    <glyph glyph-name="otilde" unicode="&#xf5;" horiz-adv-x="559" 
d="M273 386q-57 0 -95 -47.5t-38 -118.5q0 -52 28 -83t73 -31q52 0 92.5 44.5t40.5 122.5q0 53 -27.5 83t-73.5 30zM507 278q0 -121 -78 -207t-197 -86q-101 0 -163 65.5t-62 163.5q0 128 80 210.5t196 82.5q102 0 163 -65t61 -164zM203 556h-86q8 72 44.5 107t86.5 35
q38 0 72 -23l5 -3q28 -19 45 -19q33 0 41 44h86q-11 -73 -45 -108t-82 -35q-37 0 -73 23l-8 5q-29 17 -44 17q-34 0 -42 -43z" />
    <glyph glyph-name="odieresis" unicode="&#xf6;" horiz-adv-x="559" 
d="M138 621q0 31 23 54.5t55 23.5q28 0 46 -19t18 -46q0 -32 -24.5 -54t-54.5 -22q-27 0 -45 18.5t-18 44.5zM348 621q0 31 23 54.5t55 23.5q28 0 46 -19t18 -46q0 -32 -24.5 -54t-54.5 -22q-27 0 -45 18.5t-18 44.5zM273 386q-57 0 -95 -47.5t-38 -118.5q0 -52 28 -83
t73 -31q52 0 92.5 44.5t40.5 122.5q0 53 -27.5 83t-73.5 30zM507 278q0 -121 -78 -207t-197 -86q-101 0 -163 65.5t-62 163.5q0 128 80 210.5t196 82.5q102 0 163 -65t61 -164z" />
    <glyph glyph-name="divide" unicode="&#xf7;" horiz-adv-x="581" 
d="M199 479q0 32 23 54.5t55 22.5t55 -22.5t23 -54.5t-23 -55t-55 -23t-55 23t-23 55zM199 112q0 32 23 55t55 23t55 -23t23 -55t-23 -55t-55 -23t-55 23t-23 55zM35 240v111h489v-111h-489z" />
    <glyph glyph-name="oslash" unicode="&#xf8;" horiz-adv-x="559" 
d="M21 -34l-55 56l72 69q-31 56 -31 123q0 128 80 210.5t196 82.5q83 0 142 -46l69 67l55 -57l-73 -70q31 -54 31 -123q0 -121 -78 -207t-197 -86q-84 0 -142 47zM374 273q0 10 -2 28l-188 -179q23 -16 57 -16q52 0 92.5 44.5t40.5 122.5zM273 386q-57 0 -95 -47.5
t-38 -118.5q0 -17 3 -29l187 179q-23 16 -57 16z" />
    <glyph glyph-name="ugrave" unicode="&#xf9;" horiz-adv-x="567" 
d="M90 492h132l-57 -266q-7 -31 -7 -47q0 -34 18.5 -54t55.5 -20q39 0 64.5 28t35.5 73l62 286h132l-82 -392q-11 -49 -11 -89v-11h-127q-1 6 -1 21t1 30q-19 -30 -53.5 -46.5t-69.5 -16.5q-76 0 -118.5 45t-42.5 116q0 28 10 73zM271 551l-103 150h148l58 -150h-103z" />
    <glyph glyph-name="uacute" unicode="&#xfa;" horiz-adv-x="567" 
d="M516 701l-168 -150h-114l120 150h162zM90 492h132l-57 -266q-7 -31 -7 -47q0 -34 18.5 -54t55.5 -20q39 0 64.5 28t35.5 73l62 286h132l-82 -392q-11 -49 -11 -89v-11h-127q-1 6 -1 21t1 30q-19 -30 -53.5 -46.5t-69.5 -16.5q-76 0 -118.5 45t-42.5 116q0 28 10 73z" />
    <glyph glyph-name="ucircumflex" unicode="&#xfb;" horiz-adv-x="567" 
d="M252 552h-114l144 147h132l80 -147h-104l-53 75zM90 492h132l-57 -266q-7 -31 -7 -47q0 -34 18.5 -54t55.5 -20q39 0 64.5 28t35.5 73l62 286h132l-82 -392q-11 -49 -11 -89v-11h-127q-1 6 -1 21t1 30q-19 -30 -53.5 -46.5t-69.5 -16.5q-76 0 -118.5 45t-42.5 116
q0 28 10 73z" />
    <glyph glyph-name="udieresis" unicode="&#xfc;" horiz-adv-x="567" 
d="M155 621q0 31 23 54.5t55 23.5q28 0 46 -19t18 -46q0 -32 -24.5 -54t-54.5 -22q-27 0 -45 18.5t-18 44.5zM365 621q0 31 23 54.5t55 23.5q28 0 46 -19t18 -46q0 -32 -24.5 -54t-54.5 -22q-27 0 -45 18.5t-18 44.5zM90 492h132l-57 -266q-7 -31 -7 -47q0 -34 18.5 -54
t55.5 -20q39 0 64.5 28t35.5 73l62 286h132l-82 -392q-11 -49 -11 -89v-11h-127q-1 6 -1 21t1 30q-19 -30 -53.5 -46.5t-69.5 -16.5q-76 0 -118.5 45t-42.5 116q0 28 10 73z" />
    <glyph glyph-name="yacute" unicode="&#xfd;" horiz-adv-x="524" 
d="M109 -190h-147l170 268l-108 414h140l66 -276l166 276h149zM487 701l-168 -150h-114l120 150h162z" />
    <glyph glyph-name="thorn" unicode="&#xfe;" horiz-adv-x="603" 
d="M-41 -190l194 914h133l-58 -276q49 54 132 54q91 0 140.5 -57t49.5 -148q0 -135 -72.5 -222t-183.5 -87q-53 0 -93 20t-58 51l-52 -249h-132zM314 386q-57 0 -95.5 -48t-38.5 -119q0 -54 28 -83.5t73 -29.5q52 0 93.5 45.5t41.5 124.5q0 53 -28 81.5t-74 28.5z" />
    <glyph glyph-name="ydieresis" unicode="&#xff;" horiz-adv-x="524" 
d="M121 621q0 31 23 54.5t55 23.5q28 0 46 -19t18 -46q0 -32 -24.5 -54t-54.5 -22q-27 0 -45 18.5t-18 44.5zM331 621q0 31 23 54.5t55 23.5q28 0 46 -19t18 -46q0 -32 -24.5 -54t-54.5 -22q-27 0 -45 18.5t-18 44.5zM109 -190h-147l170 268l-108 414h140l66 -276l166 276
h149z" />
    <glyph glyph-name="dotlessi" unicode="&#x131;" horiz-adv-x="277" 
d="M129 0h-133l105 492h133z" />
    <glyph glyph-name="Lslash" unicode="&#x141;" horiz-adv-x="570" 
d="M470 0h-446l60 283l-102 -42l24 111l101 41l67 316h138l-54 -254l152 63l-23 -110l-152 -63l-45 -213h308z" />
    <glyph glyph-name="lslash" unicode="&#x142;" horiz-adv-x="316" 
d="M138 0h-132l61 287l-93 -38l24 111l92 37l69 327h133l-57 -267l103 42l-24 -110l-102 -42z" />
    <glyph glyph-name="OE" unicode="&#x152;" horiz-adv-x="1081" 
d="M949 0h-442l11 54q-78 -69 -183 -69q-135 0 -219 88.5t-84 228.5q0 98 32.5 179t86 133.5t121.5 81t141 28.5q168 0 223 -111l21 96h442l-28 -130h-303l-35 -162h275l-26 -123h-275l-35 -164h304zM584 399q0 89 -48 141.5t-131 52.5q-101 0 -166.5 -83t-65.5 -198
q0 -89 49 -141.5t130 -52.5q97 0 164 79t68 202z" />
    <glyph glyph-name="oe" unicode="&#x153;" horiz-adv-x="903" 
d="M598 -15q-112 0 -177 82q-77 -82 -189 -82q-101 0 -163 65.5t-62 163.5q0 128 80 210.5t196 82.5q114 0 171 -80q77 80 181 80q101 0 158.5 -57.5t57.5 -149.5q0 -49 -14 -89h-341q-1 -3 -1 -7q1 -47 31 -77.5t79 -30.5q76 0 110 64l102 -51q-27 -53 -83 -88.5
t-136 -35.5zM509 302h216q1 2 1 12q0 33 -23 59t-70 26t-78.5 -27t-45.5 -70zM374 273q0 53 -27.5 83t-73.5 30q-57 0 -95 -47.5t-38 -118.5q0 -52 28 -83t73 -31q52 0 92.5 44.5t40.5 122.5z" />
    <glyph glyph-name="Scaron" unicode="&#x160;" horiz-adv-x="584" 
d="M463 886h128l-148 -127h-137l-92 127h115l53 -64zM264 105q50 0 79.5 24t30.5 63q0 53 -60 79l-86 38q-137 61 -137 190q0 98 73 161t178 63q66 0 116 -21t75.5 -54t37.5 -66t12 -64l-129 -22q0 14 -4 29t-15 34t-36.5 31.5t-62.5 12.5q-46 0 -76 -27t-30 -63
q0 -53 56 -78l82 -36q148 -65 148 -196q0 -88 -68.5 -153t-181.5 -65q-70 0 -124 22t-83.5 57.5t-44.5 74t-15 78.5q0 14 2 21l129 22q-1 -9 -1 -21q0 -55 34 -94t101 -40z" />
    <glyph glyph-name="scaron" unicode="&#x161;" horiz-adv-x="444" 
d="M351 700h115l-142 -148h-133l-79 148h103l54 -75zM-15 151l113 20q-1 -4 -1 -9q0 -32 21.5 -54.5t56.5 -22.5q30 0 45.5 14.5t15.5 34.5q0 31 -37 48l-55 24q-105 45 -105 138q0 67 52.5 115t135.5 48q52 0 89.5 -15t56.5 -40t27.5 -48.5t9.5 -47.5l-115 -18q0 28 -17 49
t-55 21q-26 0 -42.5 -14t-16.5 -35q0 -29 31 -42l63 -27q109 -47 109 -144q0 -63 -50 -112t-140 -49q-58 0 -98.5 17.5t-59.5 46t-26.5 53t-7.5 49.5z" />
    <glyph glyph-name="Ydieresis" unicode="&#x178;" horiz-adv-x="626" 
d="M198 815q0 31 23.5 55.5t56.5 24.5q29 0 47 -18.5t18 -45.5q0 -34 -23.5 -57t-55.5 -23q-29 0 -47.5 18t-18.5 46zM427 815q0 31 23.5 55.5t56.5 24.5q29 0 47 -18.5t18 -45.5q0 -34 -23.5 -57t-55.5 -23q-29 0 -47.5 18t-18.5 46zM237 299l-157 410h146l101 -278
l197 278h166l-315 -412l-63 -297h-138z" />
    <glyph glyph-name="Zcaron" unicode="&#x17d;" horiz-adv-x="633" 
d="M490 886h128l-148 -127h-137l-92 127h115l53 -64zM514 0h-544l28 133l448 445h-344l28 131h530l-27 -128l-455 -450h364z" />
    <glyph glyph-name="zcaron" unicode="&#x17e;" horiz-adv-x="491" 
d="M372 700h115l-142 -148h-133l-79 148h103l54 -75zM375 0h-408l25 118l283 259h-220l24 115h395l-24 -112l-292 -265h241z" />
    <glyph glyph-name="florin" unicode="&#x192;" horiz-adv-x="495" 
d="M94 27l71 352h-98v112h121l19 92q15 78 68 117.5t119 39.5q49 0 89 -13v-115q-31 7 -60 7q-71 0 -86 -75l-11 -53h117v-112h-140l-79 -392q-16 -78 -68.5 -117.5t-118.5 -39.5q-50 0 -92 14v114q32 -7 65 -7q69 0 84 76z" />
    <glyph glyph-name="circumflex" unicode="&#x2c6;" horiz-adv-x="386" 
d="M82 552h-114l144 147h132l80 -147h-104l-53 75z" />
    <glyph glyph-name="caron" unicode="&#x2c7;" horiz-adv-x="386" 
d="M241 700h115l-142 -148h-133l-79 148h103l54 -75z" />
    <glyph glyph-name="uni02C9" unicode="&#x2c9;" horiz-adv-x="317" 
d="M259 577h-282l21 97h281z" />
    <glyph glyph-name="breve" unicode="&#x2d8;" horiz-adv-x="356" 
d="M217 549q-66 0 -102.5 36.5t-36.5 90.5q0 9 2 25h87q-1 -4 -1 -8q0 -22 14 -37t44 -15q62 0 80 60h98q-15 -65 -62 -108.5t-123 -43.5z" />
    <glyph glyph-name="dotaccent" unicode="&#x2d9;" horiz-adv-x="184" 
d="M-19 619q0 35 25.5 61.5t62.5 26.5q31 0 51.5 -20.5t20.5 -49.5q0 -38 -25.5 -64t-61.5 -26q-32 0 -52.5 21t-20.5 51z" />
    <glyph glyph-name="ring" unicode="&#x2da;" horiz-adv-x="264" 
d="M111 759q45 0 75.5 -28t30.5 -72q0 -51 -37.5 -86t-86.5 -35q-44 0 -74.5 28.5t-30.5 71.5q0 52 37.5 86.5t85.5 34.5zM60 644q0 -16 10.5 -26t27.5 -10q18 0 31 12.5t13 31.5q0 16 -10.5 26t-26.5 10q-18 0 -31.5 -12.5t-13.5 -31.5z" />
    <glyph glyph-name="ogonek" unicode="&#x2db;" horiz-adv-x="206" 
d="M80 -223q-47 0 -78.5 27t-31.5 71q0 59 39.5 95.5t91.5 54.5l68 -25q-40 -15 -70 -41t-30 -58q0 -39 47 -41q16 0 24 2l-16 -79q-18 -6 -44 -6z" />
    <glyph glyph-name="tilde" unicode="&#x2dc;" horiz-adv-x="373" 
d="M133 556h-86q8 72 44.5 107t86.5 35q38 0 72 -23l5 -3q29 -19 45 -19q33 0 41 44h86q-11 -73 -45 -108t-82 -35q-37 0 -73 23l-8 5q-29 17 -44 17q-34 0 -42 -43z" />
    <glyph glyph-name="hungarumlaut" unicode="&#x2dd;" horiz-adv-x="378" 
d="M184 701l-130 -150h-88l84 150h134zM352 701l-145 -150h-89l99 150h135z" />
    <glyph glyph-name="uni0394" unicode="&#x394;" horiz-adv-x="668" 
d="M466 128l-155 431l-154 -431h309zM-34 0l270 709h150l271 -709h-691z" />
    <glyph glyph-name="uni03A9" unicode="&#x3a9;" horiz-adv-x="790" 
d="M392 595q-82 0 -142.5 -54t-60.5 -147q0 -80 48.5 -134.5t117.5 -69.5v-190h-302v126h174q-78 31 -129.5 104.5t-51.5 172.5q0 144 101.5 233t244.5 89t244.5 -89t101.5 -233q0 -99 -52 -172.5t-130 -104.5h174v-126h-302v190q69 15 118 69.5t49 134.5q0 93 -60.5 147
t-142.5 54z" />
    <glyph glyph-name="uni03BC" unicode="&#x3bc;" horiz-adv-x="599" 
d="M53 -190v682h133v-284q0 -44 23 -71.5t67 -27.5q43 0 68 26.5t25 70.5v286h133v-403q0 -44 5 -89h-127q-4 20 -4 53q-18 -33 -56 -49.5t-80 -16.5q-27 0 -54 10v-187h-133z" />
    <glyph glyph-name="pi" unicode="&#x3c0;" horiz-adv-x="648" 
d="M517 378v-225q0 -47 49 -47q1 0 31 3v-104q-30 -13 -70 -13q-70 0 -106 39t-36 104v243h-133v-378h-133v378h-83v114h559v-114h-78z" />
    <glyph glyph-name="uni2007" unicode="&#x2007;" horiz-adv-x="610" 
 />
    <glyph glyph-name="uni2008" unicode="&#x2008;" horiz-adv-x="281" 
 />
    <glyph glyph-name="uni200B" unicode="&#x200b;" horiz-adv-x="0" 
 />
    <glyph glyph-name="endash" unicode="&#x2013;" horiz-adv-x="629" 
d="M547 239h-516l24 115h516z" />
    <glyph glyph-name="emdash" unicode="&#x2014;" horiz-adv-x="1073" 
d="M981 239h-940l24 115h940z" />
    <glyph glyph-name="quoteleft" unicode="&#x2018;" horiz-adv-x="217" 
d="M222 513q0 -35 -24.5 -59t-61.5 -24t-58.5 24t-21.5 61q0 78 59.5 137.5t140.5 63.5l-13 -62q-36 -4 -66.5 -27.5t-39.5 -56.5q4 4 21 4q29 0 46.5 -18t17.5 -43z" />
    <glyph glyph-name="quoteright" unicode="&#x2019;" horiz-adv-x="211" 
d="M84 633q0 35 24.5 59t61.5 24t58.5 -24.5t21.5 -60.5q0 -79 -59.5 -138.5t-140.5 -62.5l13 61q34 3 66 27t40 57q-4 -4 -21 -4q-30 0 -47 18t-17 44z" />
    <glyph glyph-name="quotesinglbase" unicode="&#x201a;" horiz-adv-x="222" 
d="M-30 58q0 35 24.5 59t61.5 24t58.5 -24t21.5 -61q0 -79 -59.5 -138.5t-140.5 -62.5l13 61q34 4 66 28t40 56q-4 -4 -21 -4q-30 0 -47 18t-17 44z" />
    <glyph glyph-name="quotedblleft" unicode="&#x201c;" horiz-adv-x="413" 
d="M418 516q0 -35 -24 -58.5t-61 -23.5q-36 0 -57.5 24t-21.5 60q0 77 58.5 135t139.5 63l-13 -61q-35 -4 -65.5 -27.5t-39.5 -54.5q3 3 21 3q29 0 46 -17.5t17 -42.5zM220 516q0 -35 -24 -58.5t-61 -23.5q-36 0 -57.5 24t-21.5 60q0 77 58.5 135t138.5 63l-13 -61
q-34 -4 -64.5 -27.5t-39.5 -54.5q3 3 20 3q30 0 47 -17.5t17 -42.5z" />
    <glyph glyph-name="quotedblright" unicode="&#x201d;" horiz-adv-x="409" 
d="M83 633q0 34 24.5 57.5t61.5 23.5q36 0 57 -24t21 -59q0 -78 -58.5 -136.5t-138.5 -61.5l13 60q33 4 64.5 27.5t40.5 55.5q-4 -4 -21 -4q-29 0 -46.5 17.5t-17.5 43.5zM284 633q0 34 24.5 57.5t60.5 23.5t57.5 -24t21.5 -59q0 -78 -59 -136.5t-139 -61.5l13 60
q33 4 64.5 27.5t40.5 55.5q-4 -4 -21 -4q-29 0 -46 17.5t-17 43.5z" />
    <glyph glyph-name="quotedblbase" unicode="&#x201e;" horiz-adv-x="415" 
d="M-31 57q0 35 24.5 58.5t61.5 23.5q36 0 57 -24t21 -60q0 -77 -58.5 -135.5t-138.5 -62.5l13 61q32 3 64 26.5t41 55.5q-3 -3 -21 -3q-29 0 -46.5 17.5t-17.5 42.5zM165 57q0 35 24 58.5t61 23.5q36 0 57.5 -24t21.5 -60q0 -77 -58.5 -135.5t-138.5 -62.5l13 61
q33 3 64.5 26.5t39.5 55.5q-3 -3 -20 -3q-30 0 -47 17.5t-17 42.5z" />
    <glyph glyph-name="dagger" unicode="&#x2020;" horiz-adv-x="421" 
d="M226 709h112l-31 -142h123l-22 -104h-123l-64 -300h-111l64 300h-123l22 104h123z" />
    <glyph glyph-name="daggerdbl" unicode="&#x2021;" horiz-adv-x="438" 
d="M194 0h-111l30 144h-122l21 103h123l46 215h-123l22 103h123l30 144h112l-31 -144h123l-22 -103h-123l-46 -215h123l-22 -103h-122z" />
    <glyph glyph-name="bullet" unicode="&#x2022;" horiz-adv-x="543" 
d="M51 299q0 86 61 147.5t147 61.5t147 -61.5t61 -147.5t-61 -147.5t-147 -61.5q-85 0 -146.5 61.5t-61.5 147.5z" />
    <glyph glyph-name="ellipsis" unicode="&#x2026;" horiz-adv-x="869" 
d="M74 -11q-33 0 -53.5 21t-20.5 52q0 36 27 62.5t64 26.5q33 0 53.5 -21t20.5 -52q0 -36 -27 -62.5t-64 -26.5zM371 -11q-33 0 -54 21t-21 52q0 36 27 62.5t64 26.5q34 0 54.5 -21t20.5 -52q0 -36 -27 -62.5t-64 -26.5zM668 -11q-33 0 -53.5 21t-20.5 52q0 36 27 62.5
t64 26.5q33 0 53.5 -21t20.5 -52q0 -36 -27 -62.5t-64 -26.5z" />
    <glyph glyph-name="perthousand" unicode="&#x2030;" horiz-adv-x="1022" 
d="M197 428q29 0 51 22t22 58q0 27 -15.5 43t-42.5 16q-28 0 -50 -22.5t-22 -57.5q0 -26 15.5 -42.5t41.5 -16.5zM189 334q-64 0 -106 42.5t-42 104.5q0 76 54 128t126 52q63 0 105.5 -43t42.5 -105q0 -76 -55 -127.5t-125 -51.5zM581 86q29 0 51 22t22 58q0 27 -15.5 43
t-42.5 16q-28 0 -50 -22.5t-22 -57.5q0 -26 15.5 -42.5t41.5 -16.5zM809 86q29 0 51 22t22 58q0 27 -15.5 43t-42.5 16q-28 0 -50 -22.5t-22 -57.5q0 -26 15.5 -42.5t41.5 -16.5zM751 649l-593 -649h-121l593 649h121zM801 -8q-68 0 -109 46q-52 -46 -119 -46
q-64 0 -106 42.5t-42 104.5q0 76 54 128t126 52q65 0 108 -46q52 46 120 46q63 0 105.5 -43t42.5 -105q0 -76 -55 -127.5t-125 -51.5z" />
    <glyph glyph-name="guilsinglleft" unicode="&#x2039;" horiz-adv-x="301" 
d="M226 101h-120l-100 197l176 194h133l-185 -202z" />
    <glyph glyph-name="guilsinglright" unicode="&#x203a;" horiz-adv-x="295" 
d="M44 492h120l101 -198l-177 -193h-132l184 202z" />
    <glyph glyph-name="uni2042" unicode="&#x2042;" horiz-adv-x="813" 
d="M516 708l-21 -110l107 33l13 -87l-109 -32l51 -86l-79 -52l-52 91l-84 -92l-64 54l85 90l-96 33l40 82l94 -34l20 110h95zM246 321l-21 -110l107 33l13 -87l-109 -32l51 -86l-79 -52l-52 91l-84 -92l-64 54l85 90l-96 33l40 82l94 -34l20 110h95zM655 321l-21 -110
l107 33l13 -87l-109 -32l51 -86l-79 -52l-52 91l-84 -92l-64 54l85 90l-96 33l40 82l94 -34l20 110h95z" />
    <glyph glyph-name="fraction" unicode="&#x2044;" horiz-adv-x="536" 
d="M625 649l-593 -649h-121l593 649h121z" />
    <glyph glyph-name="uni2051" unicode="&#x2051;" horiz-adv-x="428" 
d="M335 708l-21 -110l107 33l13 -87l-109 -32l51 -86l-79 -52l-52 91l-84 -92l-64 54l85 90l-96 33l40 82l94 -34l20 110h95zM247 324l-21 -110l107 33l13 -87l-109 -32l51 -86l-79 -52l-52 91l-84 -92l-64 54l85 90l-96 33l40 82l94 -34l20 110h95z" />
    <glyph glyph-name="uni2070" unicode="&#x2070;" horiz-adv-x="418" 
d="M51 479q0 55 18 107t63 91.5t109 39.5q74 0 112.5 -41t38.5 -104q0 -42 -11 -83t-33 -76.5t-59.5 -57.5t-85.5 -22q-68 0 -110 39.5t-42 106.5zM151 481q0 -62 55 -62q42 0 64 49t22 103q0 61 -55 61q-30 0 -50.5 -29t-28 -61.5t-7.5 -60.5z" />
    <glyph glyph-name="uni2074" unicode="&#x2074;" horiz-adv-x="438" 
d="M53 414l21 104l203 191h111l-46 -217h61l-17 -78h-61l-15 -73h-101l16 73h-172zM241 492l25 111l-117 -111h92z" />
    <glyph glyph-name="uni2075" unicode="&#x2075;" horiz-adv-x="397" 
d="M49 460l92 9q0 -25 16 -37.5t36 -12.5q22 0 38 14.5t16 39.5q0 20 -13.5 32t-33.5 12q-24 0 -45 -17l-79 38l76 171h222l-17 -83h-154l-24 -55q22 13 52 13q53 0 84.5 -28.5t31.5 -76.5q0 -61 -44 -102.5t-112 -41.5q-62 0 -102 34t-40 91z" />
    <glyph glyph-name="uni2076" unicode="&#x2076;" horiz-adv-x="391" 
d="M390 690l-33 -75q-36 18 -77 18q-36 0 -68.5 -18.5t-46.5 -50.5q26 22 72 22q54 0 84.5 -30t30.5 -78q0 -65 -46 -105.5t-112 -40.5q-62 0 -103 41.5t-41 110.5q0 102 67 166.5t164 64.5q66 0 109 -25zM207 513q-22 0 -39 -14.5t-17 -38.5q0 -21 13 -33.5t34 -12.5
q22 0 38.5 15t16.5 41q0 19 -12.5 31t-33.5 12z" />
    <glyph glyph-name="uni2077" unicode="&#x2077;" horiz-adv-x="361" 
d="M395 709l-18 -83q-151 -106 -205 -285h-106q12 49 36 95.5t47.5 78t49.5 58t39 37.5t19 15h-183l17 84h304z" />
    <glyph glyph-name="uni2078" unicode="&#x2078;" horiz-adv-x="399" 
d="M197 597q0 -14 10.5 -24t27.5 -10q21 0 34.5 11.5t13.5 30.5q0 13 -10 23t-30 10q-21 0 -33.5 -12t-12.5 -29zM157 448q0 -17 14 -27.5t34 -10.5q25 0 40.5 13.5t15.5 32.5q0 15 -12.5 26.5t-36.5 11.5q-25 0 -40 -14t-15 -32zM205 332q-72 0 -110.5 29t-38.5 75
q0 35 26.5 62t67.5 35q-21 9 -34.5 29.5t-13.5 42.5q0 47 40.5 79t104.5 32q65 0 100.5 -27.5t35.5 -71.5q0 -31 -22 -56t-59 -35q24 -8 40.5 -29.5t16.5 -46.5q0 -52 -43.5 -85t-110.5 -33z" />
    <glyph glyph-name="uni2079" unicode="&#x2079;" horiz-adv-x="411" 
d="M44 362l34 74q33 -20 82 -20q35 0 67 19t43 53q-26 -24 -69 -24q-54 0 -86.5 30t-32.5 77q0 64 45.5 104.5t111.5 40.5q63 0 103.5 -40.5t40.5 -108.5q0 -106 -64 -170t-161 -64q-66 0 -114 29zM226 534q22 0 38.5 16t16.5 40q0 19 -13 32t-32 13q-23 0 -39 -16t-16 -41
q0 -19 13 -31.5t32 -12.5z" />
    <glyph glyph-name="uni2080" unicode="&#x2080;" horiz-adv-x="418" 
d="M16 64q0 55 18 107t63 91.5t109 39.5q74 0 112.5 -41t38.5 -104q0 -42 -11 -83t-33 -76.5t-59.5 -57.5t-85.5 -22q-68 0 -110 39.5t-42 106.5zM116 66q0 -62 55 -62q42 0 64 49t22 103q0 61 -55 61q-30 0 -50.5 -29t-28 -61.5t-7.5 -60.5z" />
    <glyph glyph-name="uni2081" unicode="&#x2081;" horiz-adv-x="304" 
d="M148 -104h-102l49 228h-89l14 66q42 1 73.5 22t43.5 51h89z" />
    <glyph glyph-name="uni2082" unicode="&#x2082;" horiz-adv-x="383" 
d="M104 72l65 28q47 20 47 51q0 15 -10 27t-30 12q-54 0 -54 -63l-92 6q0 60 41 99t108 39t103 -32t36 -80q0 -84 -106 -129l-76 -32q-15 -7 -18 -17h161l-18 -85h-281q5 125 124 176z" />
    <glyph glyph-name="uni2083" unicode="&#x2083;" horiz-adv-x="428" 
d="M137 60l-26 66l108 56h-165l18 83h280l-19 -95l-102 -53q35 -7 56.5 -33.5t21.5 -63.5q0 -53 -44.5 -92t-113.5 -39q-65 0 -105 35.5t-40 85.5q0 11 1 17l93 5q-1 -4 -1 -8q0 -22 14.5 -37t39.5 -15t40 14t15 37q0 19 -13.5 30t-33.5 11q-12 0 -24 -4z" />
    <glyph glyph-name="uni2084" unicode="&#x2084;" horiz-adv-x="432" 
d="M-16 -31l21 104l203 191h111l-46 -217h61l-17 -78h-61q0 -1 -15 -73h-101l16 73h-172zM172 47l25 111l-117 -111h92z" />
    <glyph glyph-name="uni2085" unicode="&#x2085;" horiz-adv-x="397" 
d="M-16 15l92 9q0 -25 16 -37.5t36 -12.5q22 0 38 14t16 40q0 20 -13.5 32t-33.5 12q-24 0 -45 -17l-79 38l76 171h222l-17 -83h-154l-24 -55q22 13 52 13q53 0 84.5 -28.5t31.5 -76.5q0 -61 -44 -102.5t-112 -41.5q-62 0 -102 34t-40 91z" />
    <glyph glyph-name="uni2086" unicode="&#x2086;" horiz-adv-x="391" 
d="M324 246l-33 -75q-36 18 -77 18q-36 0 -68.5 -18.5t-46.5 -50.5q26 22 72 22q54 0 84.5 -30t30.5 -78q0 -65 -46 -105.5t-112 -40.5q-62 0 -103 41.5t-41 110.5q0 102 67 166.5t164 64.5q66 0 109 -25zM141 69q-22 0 -39 -14.5t-17 -38.5q0 -21 13 -33.5t34 -12.5
q22 0 38.5 15t16.5 41q0 19 -12.5 31t-33.5 12z" />
    <glyph glyph-name="uni2087" unicode="&#x2087;" horiz-adv-x="361" 
d="M333 263l-18 -83q-151 -106 -205 -285h-106q12 49 36 95.5t47.5 78t49.5 58t39 37.5t19 15h-183l17 84h304z" />
    <glyph glyph-name="uni2088" unicode="&#x2088;" horiz-adv-x="399" 
d="M135 152q0 -14 10.5 -24t27.5 -10q21 0 34.5 11.5t13.5 30.5q0 13 -10 23t-30 10q-21 0 -33.5 -12t-12.5 -29zM95 3q0 -17 14 -27.5t34 -10.5q25 0 40.5 13.5t15.5 32.5q0 15 -12.5 26.5t-36.5 11.5q-25 0 -40 -14t-15 -32zM143 -113q-72 0 -110.5 29t-38.5 75
q0 35 26.5 62t67.5 35q-21 9 -34.5 29.5t-13.5 42.5q0 47 40.5 79t104.5 32q65 0 100.5 -27.5t35.5 -71.5q0 -31 -22 -56t-59 -35q24 -8 40.5 -29.5t16.5 -46.5q0 -52 -43.5 -85t-110.5 -33z" />
    <glyph glyph-name="uni2089" unicode="&#x2089;" horiz-adv-x="411" 
d="M-6 -82l34 74q33 -20 82 -20q35 0 67 19t43 53q-26 -24 -69 -24q-54 0 -86.5 30t-32.5 77q0 64 45.5 104.5t111.5 40.5q63 0 103.5 -40.5t40.5 -108.5q0 -106 -64 -170t-161 -64q-66 0 -114 29zM176 90q22 0 38.5 16t16.5 40q0 19 -13 32t-32 13q-23 0 -39 -16t-16 -41
q0 -19 13 -31.5t32 -12.5z" />
    <glyph glyph-name="Euro" unicode="&#x20ac;" horiz-adv-x="673" 
d="M49 355l20 92h81q46 102 139.5 159.5t199.5 57.5q123 0 198 -66l-72 -98q-49 46 -137 46q-52 0 -101.5 -25t-82.5 -74h284l-60 -92h-261q-6 -30 -6 -66h229l-59 -92h-152q43 -93 168 -93q65 0 112 30l40 -103q-74 -46 -170 -46q-108 0 -187.5 57.5t-104.5 154.5h-112
l20 92h82q0 35 6 66h-74z" />
    <glyph glyph-name="uni2113" unicode="&#x2113;" horiz-adv-x="486" 
d="M102 135q0 10 7 66q-32 -7 -73 -10l24 116q35 5 73 15l44 208q16 73 61 112.5t105 39.5q65 0 101 -35.5t36 -95.5q0 -84 -67 -170t-175 -138l-8 -37q-5 -25 -5 -37q0 -63 78 -63q28 0 71 17l-24 -111q-30 -21 -83 -21q-79 0 -122 39t-43 105zM299 524l-29 -133
q45 34 68 79q21 35 21 71q0 27 -24 27q-27 0 -36 -44z" />
    <glyph glyph-name="trademark" unicode="&#x2122;" horiz-adv-x="876" 
d="M358 625h-102l-59 -281h-94l60 281h-104l17 84h300zM780 344h-90l46 225l-133 -225h-67l-46 225l-48 -225h-91l77 365h122l45 -214l128 214h134z" />
    <glyph glyph-name="Omega" unicode="&#x2126;" horiz-adv-x="790" 
d="M392 595q-82 0 -142.5 -54t-60.5 -147q0 -80 48.5 -134.5t117.5 -69.5v-190h-302v126h174q-78 31 -129.5 104.5t-51.5 172.5q0 144 101.5 233t244.5 89t244.5 -89t101.5 -233q0 -99 -52 -172.5t-130 -104.5h174v-126h-302v190q69 15 118 69.5t49 134.5q0 93 -60.5 147
t-142.5 54z" />
    <glyph glyph-name="uni2160" unicode="&#x2160;" horiz-adv-x="484" 
d="M102 649h406l-24 -117h-135l-88 -415h134l-24 -117h-405l24 117h134l88 415h-134z" />
    <glyph glyph-name="uni2161" unicode="&#x2161;" horiz-adv-x="772" 
d="M102 649h694l-24 -117h-137l-88 -415h136l-24 -117h-693l24 117h136l88 415h-136zM263 117h147l88 415h-147z" />
    <glyph glyph-name="uni2162" unicode="&#x2162;" horiz-adv-x="1046" 
d="M685 117l87 415h-142l-87 -415h142zM406 117l87 415h-142l-87 -415h142zM-34 0l24 117h137l87 415h-136l24 117h968l-24 -117h-137l-87 -415h135l-24 -117h-967z" />
    <glyph glyph-name="uni2163" unicode="&#x2163;" horiz-adv-x="1029" 
d="M78 532l24 117h961l-24 -117h-108l-222 -415h242l-24 -117h-961l24 117h131l88 415h-131zM346 532l-88 -415h214l-48 415h-78zM563 532l34 -366l189 366h-223z" />
    <glyph glyph-name="uni2164" unicode="&#x2164;" horiz-adv-x="778" 
d="M-14 117h237l-49 415h-102l24 117h716l-24 -117h-106l-222 -415h238l-24 -117h-712zM314 532l34 -366l189 366h-223z" />
    <glyph glyph-name="uni2165" unicode="&#x2165;" horiz-adv-x="1032" 
d="M74 532l24 117h958l-24 -117h-132l-88 -415h132l-24 -117h-958l24 117h241l-49 415h-104zM686 532l-222 -415h211l88 415h-77zM318 532l34 -366l189 366h-223z" />
    <glyph glyph-name="uni2166" unicode="&#x2166;" horiz-adv-x="1312" 
d="M352 166l190 366h-225zM676 117l87 415h-77l-222 -415h212zM951 117l87 415h-138l-87 -415h138zM1199 0h-1237l24 117h240l-47 415h-105l24 117h1237l-24 -117h-136l-87 -415h135z" />
    <glyph glyph-name="uni2167" unicode="&#x2167;" horiz-adv-x="1579" 
d="M78 532l24 117h1501l-24 -117h-134l-88 -415h134l-24 -117h-1501l24 117h239l-47 415h-104zM686 532l-220 -415h210l88 415h-78zM901 532l-88 -415h135l88 415h-135zM1173 532l-88 -415h135l88 415h-135zM321 532l33 -366l188 366h-221z" />
    <glyph glyph-name="uni2168" unicode="&#x2168;" horiz-adv-x="1002" 
d="M78 532l24 117h934l-24 -117h-103l-199 -213l106 -202h108l-24 -117h-934l24 117h131l88 415h-131zM536 321l-110 211h-80l-88 -415h84zM584 532l56 -115l105 115h-161zM606 225l-100 -108h153z" />
    <glyph glyph-name="uni2169" unicode="&#x2169;" horiz-adv-x="752" 
d="M286 321l-110 211h-102l24 117h688l-24 -117h-103l-199 -213l106 -202h108l-24 -117h-688l24 117h107zM333 532l56 -115l106 115h-162zM356 225l-100 -108h153z" />
    <glyph glyph-name="uni216C" unicode="&#x216c;" horiz-adv-x="638" 
d="M102 649h382l-24 -117h-128l-88 -415h177l37 175h131l-61 -292h-562l24 117h117l88 415h-117z" />
    <glyph glyph-name="uni216D" unicode="&#x216d;" horiz-adv-x="724" 
d="M513 226l2 9h134l-49 -235h-134l11 53q-62 -69 -164 -69q-117 0 -197 82t-80 210q0 88 30 162.5t79.5 123t112.5 75.5t130 27q72 0 122 -26t72 -64l16 75h134l-53 -250h-134q-2 53 -42.5 97.5t-120.5 44.5q-38 0 -74.5 -15.5t-68.5 -45t-51.5 -80.5t-19.5 -116
q0 -82 48.5 -129.5t124.5 -47.5q72 0 114.5 36.5t57.5 82.5z" />
    <glyph glyph-name="uni216E" unicode="&#x216e;" horiz-adv-x="745" 
d="M-34 0l24 117h124l87 415h-122l23 117h315q126 0 199 -69t73 -190q0 -179 -106.5 -284.5t-262.5 -105.5h-354zM339 532l-89 -415h62q96 0 167.5 69t71.5 193q0 74 -42.5 113.5t-113.5 39.5h-56z" />
    <glyph glyph-name="uni216F" unicode="&#x216f;" horiz-adv-x="1029" 
d="M315 117l-24 -117h-325l24 117h113l87 415h-112l24 117h296l81 -433l257 433h317l-24 -117h-114l-87 -415h112l-24 -117h-333l24 117h84l70 334l-272 -445h-99l-85 439l-69 -328h79z" />
    <glyph glyph-name="arrowleft" unicode="&#x2190;" horiz-adv-x="1062" 
d="M254 72l-263 225l263 225v-168h747v-115h-747v-167z" />
    <glyph glyph-name="arrowup" unicode="&#x2191;" horiz-adv-x="486" 
d="M262 800l229 -267h-172v-680h-114v680h-174z" />
    <glyph glyph-name="arrowright" unicode="&#x2192;" horiz-adv-x="1085" 
d="M1050 297l-294 -235v177h-731v115h731v179z" />
    <glyph glyph-name="arrowdown" unicode="&#x2193;" horiz-adv-x="478" 
d="M460 117l-234 -269l-235 269h178v677h114v-677h177z" />
    <glyph glyph-name="uni2196" unicode="&#x2196;" horiz-adv-x="876" 
d="M64 708h332l-125 -126l514 -513l-81 -81l-514 513l-126 -127v334z" />
    <glyph glyph-name="uni2197" unicode="&#x2197;" horiz-adv-x="757" 
d="M334 708h332v-334l-127 127l-513 -513l-81 81l513 513z" />
    <glyph glyph-name="uni2198" unicode="&#x2198;" horiz-adv-x="858" 
d="M767 1h-332l124 125l-513 514l81 81l513 -514l127 128v-334z" />
    <glyph glyph-name="uni2199" unicode="&#x2199;" horiz-adv-x="748" 
d="M368 1h-332v334l126 -128l514 514l81 -81l-514 -514z" />
    <glyph glyph-name="uni21A9" unicode="&#x21a9;" horiz-adv-x="861" 
d="M241 50l-263 224l263 226v-169h361q54 0 89 29.5t35 73.5q0 47 -35 75t-92 28h-195v115h201q105 0 172 -62t67 -156t-66.5 -156.5t-172.5 -62.5h-364v-165z" />
    <glyph glyph-name="uni21B0" unicode="&#x21b0;" horiz-adv-x="804" 
d="M301 274l-263 225l263 226v-168h422v-557h-114v442h-308v-168z" />
    <glyph glyph-name="uni21B1" unicode="&#x21b1;" horiz-adv-x="749" 
d="M150 0h-115v557h442v168l263 -226l-263 -225v168h-327v-442z" />
    <glyph glyph-name="uni21B2" unicode="&#x21b2;" horiz-adv-x="851" 
d="M73 210l263 225v-168h327v442h115v-557h-442v-168z" />
    <glyph glyph-name="uni21B3" unicode="&#x21b3;" horiz-adv-x="851" 
d="M515 435l263 -225l-263 -226v168h-442v557h115v-442h327v168z" />
    <glyph glyph-name="uni21B4" unicode="&#x21b4;" horiz-adv-x="799" 
d="M61 594v115h565v-467h168l-223 -257l-225 257h165v352h-450z" />
    <glyph glyph-name="uni21C6" unicode="&#x21c6;" horiz-adv-x="1167" 
d="M1112 162l-263 -224v167h-757v115h757v168zM327 332l-263 224l263 226v-170h756v-115h-756v-165z" />
    <glyph glyph-name="partialdiff" unicode="&#x2202;" horiz-adv-x="662" 
d="M277 600q-72 0 -145 -34l-46 106q88 49 199 49q42 0 82.5 -8.5t85 -33.5t77.5 -65t54.5 -108.5t21.5 -157.5q0 -163 -74 -263.5t-216 -100.5q-105 0 -180 64.5t-75 179.5q0 105 73.5 168t170.5 63q111 0 161 -56q-5 101 -57 149t-132 48zM335 346q-68 0 -103.5 -34.5
t-35.5 -89.5q0 -52 37.5 -83.5t87.5 -31.5q75 0 111 56t37 127q-48 56 -134 56z" />
    <glyph glyph-name="Delta" unicode="&#x2206;" horiz-adv-x="668" 
d="M466 128l-155 431l-154 -431h309zM-34 0l270 709h150l271 -709h-691z" />
    <glyph glyph-name="product" unicode="&#x220f;" horiz-adv-x="686" 
d="M602 0h-138v582h-248v-582h-138v709h524v-709z" />
    <glyph glyph-name="summation" unicode="&#x2211;" horiz-adv-x="566" 
d="M31 0v125l256 229l-256 230v125h514v-128h-325l252 -227l-261 -226h334v-128h-514z" />
    <glyph glyph-name="minus" unicode="&#x2212;" horiz-adv-x="567" 
d="M38 241v109h475v-109h-475z" />
    <glyph glyph-name="uni2215" unicode="&#x2215;" horiz-adv-x="416" 
d="M381 658h124l-466 -668h-123z" />
    <glyph glyph-name="uni2219" unicode="&#x2219;" horiz-adv-x="283" 
d="M46 301q0 37 28 65t66 28q34 0 55.5 -22t21.5 -53q0 -40 -27.5 -67t-65.5 -27q-35 0 -56.5 22t-21.5 54z" />
    <glyph glyph-name="radical" unicode="&#x221a;" horiz-adv-x="679" 
d="M735 768h-131l-258 -768h-118l-190 537h130l120 -354l228 696h219v-111z" />
    <glyph glyph-name="infinity" unicode="&#x221e;" horiz-adv-x="829" 
d="M36 290q0 80 54.5 133t137.5 53q98 0 183 -99q91 99 180 99q83 0 137.5 -53t54.5 -133t-54.5 -132.5t-137.5 -52.5q-98 0 -183 97q-89 -97 -180 -97q-83 0 -137.5 52.5t-54.5 132.5zM230 362q-34 0 -54.5 -21t-20.5 -52t20.5 -51.5t54.5 -20.5q49 0 107 70
q-31 37 -55.5 56t-51.5 19zM589 217q34 0 54.5 20.5t20.5 51.5t-20.5 52t-54.5 21q-27 0 -51.5 -18t-55.5 -54q59 -73 107 -73z" />
    <glyph glyph-name="integral" unicode="&#x222b;" horiz-adv-x="332" 
d="M82 -17v542q0 85 49.5 135t135.5 50h51v-118h-45q-27 0 -42.5 -17t-15.5 -48v-542q0 -85 -49 -135t-134 -50h-54v117h46q26 0 42 17.5t16 48.5z" />
    <glyph glyph-name="approxequal" unicode="&#x2248;" horiz-adv-x="664" 
d="M519 463l70 -59q-57 -100 -163 -100q-53 0 -107 30l-47 26q-27 15 -54 15q-50 0 -87 -48l-72 59q28 48 70 74.5t91 26.5q52 0 108 -30l48 -26q30 -16 57 -16q51 0 86 48zM519 261l70 -58q-57 -100 -163 -100q-53 0 -107 30l-47 26q-25 14 -54 14q-51 0 -87 -47l-72 59
q28 49 70 75t92 26q51 0 107 -30l48 -26q28 -16 57 -16q52 0 86 47z" />
    <glyph glyph-name="notequal" unicode="&#x2260;" horiz-adv-x="619" 
d="M59 341v107h290l60 92h120l-60 -92h75v-107h-145l-59 -91h204v-108h-275l-63 -97h-120l63 97h-90v108h161l59 91h-220z" />
    <glyph glyph-name="lessequal" unicode="&#x2264;" horiz-adv-x="576" 
d="M65 44v109h430v-109h-430zM65 316v108l430 136v-110l-279 -78l279 -79v-112z" />
    <glyph glyph-name="greaterequal" unicode="&#x2265;" horiz-adv-x="576" 
d="M495 153v-109h-430v109h430zM495 424v-108l-430 -135v110l279 78l-279 79v112z" />
    <glyph glyph-name="dotmath" unicode="&#x22c5;" horiz-adv-x="283" 
d="M46 301q0 37 28 65t66 28q34 0 55.5 -22t21.5 -53q0 -40 -27.5 -67t-65.5 -27q-35 0 -56.5 22t-21.5 54z" />
    <glyph glyph-name="uni24C5" unicode="&#x24c5;" horiz-adv-x="812" 
d="M31 354q0 153 107.5 262t260.5 109t261.5 -109t108.5 -262q0 -152 -108.5 -261t-261.5 -109t-260.5 108.5t-107.5 261.5zM116 354q0 -122 82 -206.5t201 -84.5t201 84.5t82 206.5q0 123 -82 207.5t-201 84.5t-201 -84.5t-82 -207.5zM385 370h42q32 0 52 17.5t20 47.5
q0 42 -49 42h-42zM441 293h-73l-29 -138h-93l85 399h145q51 0 84.5 -33t33.5 -80q0 -62 -43.5 -105t-109.5 -43z" />
    <glyph glyph-name="filledbox" unicode="&#x25a0;" horiz-adv-x="885" 
d="M88 0v709h709v-709h-709z" />
    <glyph glyph-name="H22073" unicode="&#x25a1;" horiz-adv-x="885" 
d="M797 0h-709v709h709v-709zM202 597v-486h478v486h-478z" />
    <glyph glyph-name="triagup" unicode="&#x25b2;" horiz-adv-x="824" 
d="M352 725l417 -725h-838z" />
    <glyph glyph-name="uni25B3" unicode="&#x25b3;" horiz-adv-x="824" 
d="M-69 0l419 725l419 -725h-838zM350 496l-222 -384h444z" />
    <glyph glyph-name="lozenge" unicode="&#x25ca;" horiz-adv-x="611" 
d="M306 132l128 222l-128 223l-129 -223zM378 0h-145l-207 354l207 355h145l207 -355z" />
    <glyph glyph-name="circle" unicode="&#x25cb;" horiz-adv-x="819" 
d="M779 354q0 -154 -108 -262t-262 -108t-262.5 108t-108.5 262t108.5 262.5t262.5 108.5t262 -108.5t108 -262.5zM663 354q0 107 -74.5 182.5t-179.5 75.5q-106 0 -181.5 -75.5t-75.5 -182.5t75.5 -182.5t181.5 -75.5q105 0 179.5 75.5t74.5 182.5z" />
    <glyph glyph-name="H18533" unicode="&#x25cf;" horiz-adv-x="819" 
d="M38 354q0 154 108 262.5t262 108.5t262.5 -108.5t108.5 -262.5t-108.5 -262t-262.5 -108t-262 108t-108 262z" />
    <glyph glyph-name="uni262E" unicode="&#x262e;" horiz-adv-x="811" 
d="M771 354q0 -153 -108 -261.5t-261 -108.5t-260.5 108.5t-107.5 261.5q0 154 107.5 262.5t260.5 108.5t261 -108.5t108 -262.5zM658 354q0 94 -57 165.5t-145 90.5v-195l185 -156q17 46 17 95zM145 354q0 -47 16 -93l183 154v194q-86 -20 -142.5 -91t-56.5 -164zM456 98
q72 15 124 67l-124 108v-175zM222 167q51 -52 122 -69v174z" />
    <glyph glyph-name="uni2713" unicode="&#x2713;" horiz-adv-x="845" 
d="M899 645l-617 -661l-293 324l83 78l214 -233l531 573z" />
    <glyph glyph-name="uni2715" unicode="&#x2715;" horiz-adv-x="787" 
d="M115 -5l-80 80l277 280l-277 277l80 80l276 -277l275 277l80 -80l-274 -277l280 -280l-80 -80l-280 279z" />
    <glyph glyph-name="uni2780" unicode="&#x2780;" horiz-adv-x="812" 
d="M34 354q0 153 107.5 262t260.5 109t261.5 -109t108.5 -262q0 -152 -108.5 -261t-261.5 -109t-260.5 108.5t-107.5 261.5zM119 354q0 -122 82 -206.5t201 -84.5t201 84.5t82 206.5q0 123 -82 207.5t-201 84.5t-201 -84.5t-82 -207.5zM469 172h-102v223h-92v67
q44 0 70.5 23t32.5 54h91v-367z" />
    <glyph glyph-name="uni2781" unicode="&#x2781;" horiz-adv-x="812" 
d="M402 725q153 0 261.5 -109t108.5 -262q0 -152 -108.5 -261t-261.5 -109t-260.5 108.5t-107.5 261.5t107.5 262t260.5 109zM119 354q0 -122 82 -206.5t201 -84.5t201 84.5t82 206.5q0 123 -82 207.5t-201 84.5t-201 -84.5t-82 -207.5zM343 351l60 35q39 23 39 51
q0 15 -11 27t-33 12t-35 -12t-14 -33q0 -11 3 -25h-92q-3 14 -3 28q0 52 38 88t105 36q65 0 103.5 -35t38.5 -87q0 -65 -79 -112l-70 -42q-12 -8 -12 -15h164v-85h-291v12q0 104 89 157z" />
    <glyph glyph-name="uni2782" unicode="&#x2782;" horiz-adv-x="812" 
d="M34 354q0 153 107.5 262t260.5 109t261.5 -109t108.5 -262q0 -152 -108.5 -261t-261.5 -109t-260.5 108.5t-107.5 261.5zM119 354q0 -122 82 -206.5t201 -84.5t201 84.5t82 206.5q0 123 -82 207.5t-201 84.5t-201 -84.5t-82 -207.5zM245 275l91 21q2 -23 19.5 -38
t41.5 -15q25 0 40 12.5t15 31.5q0 23 -15.5 34t-38.5 11q-18 0 -32 -6l-33 68l87 59h-161v83h284v-82l-89 -61q45 -6 72.5 -34t27.5 -74q0 -52 -43 -88.5t-113 -36.5q-65 0 -106 34t-47 81z" />
    <glyph glyph-name="uni2783" unicode="&#x2783;" horiz-adv-x="812" 
d="M34 354q0 153 107.5 262t260.5 109t261.5 -109t108.5 -262q0 -152 -108.5 -261t-261.5 -109t-260.5 108.5t-107.5 261.5zM119 354q0 -122 82 -206.5t201 -84.5t201 84.5t82 206.5q0 123 -82 207.5t-201 84.5t-201 -84.5t-82 -207.5zM223 249v93l169 203h109v-217h61v-79
h-61v-71h-101v71h-177zM400 328v106l-88 -106h88z" />
    <glyph glyph-name="uni2784" unicode="&#x2784;" horiz-adv-x="812" 
d="M34 354q0 153 107.5 262t260.5 109t261.5 -109t108.5 -262q0 -152 -108.5 -261t-261.5 -109t-260.5 108.5t-107.5 261.5zM119 354q0 -122 82 -206.5t201 -84.5t201 84.5t82 206.5q0 123 -82 207.5t-201 84.5t-201 -84.5t-82 -207.5zM243 269l89 23q3 -23 20 -36.5
t41 -13.5t38.5 13t14.5 35q0 51 -56 51q-32 0 -52 -22l-83 25l46 189h222v-83h-162l-15 -63q26 23 71 23q59 0 94 -32t35 -87q0 -56 -41 -94t-112 -38q-59 0 -101 32t-49 78z" />
    <glyph glyph-name="uni2785" unicode="&#x2785;" horiz-adv-x="812" 
d="M34 354q0 153 107.5 262t260.5 109t261.5 -109t108.5 -262q0 -152 -108.5 -261t-261.5 -109t-260.5 108.5t-107.5 261.5zM119 354q0 -122 82 -206.5t201 -84.5t201 84.5t82 206.5q0 123 -82 207.5t-201 84.5t-201 -84.5t-82 -207.5zM534 531l-19 -77q-31 12 -65 12
q-42 0 -74 -20.5t-43 -62.5q31 33 85 33q58 0 94 -31t36 -88q0 -58 -44 -95.5t-112 -37.5t-114 45.5t-46 123.5q0 98 60 156t152 58q47 0 90 -16zM338 294q0 -22 16 -35.5t38 -13.5t38 13.5t16 35.5q0 23 -15.5 36.5t-38.5 13.5t-38.5 -13.5t-15.5 -36.5z" />
    <glyph glyph-name="uni2786" unicode="&#x2786;" horiz-adv-x="812" 
d="M34 354q0 153 107.5 262t260.5 109t261.5 -109t108.5 -262q0 -152 -108.5 -261t-261.5 -109t-260.5 108.5t-107.5 261.5zM119 354q0 -122 82 -206.5t201 -84.5t201 84.5t82 206.5q0 123 -82 207.5t-201 84.5t-201 -84.5t-82 -207.5zM554 531v-85q-125 -99 -142 -283h-107
q4 51 18 99t32 80.5t35.5 57t29.5 36.5l12 11h-185v84h307z" />
    <glyph glyph-name="uni2787" unicode="&#x2787;" horiz-adv-x="812" 
d="M34 354q0 153 107.5 262t260.5 109t261.5 -109t108.5 -262q0 -152 -108.5 -261t-261.5 -109t-260.5 108.5t-107.5 261.5zM119 354q0 -122 82 -206.5t201 -84.5t201 84.5t82 206.5q0 123 -82 207.5t-201 84.5t-201 -84.5t-82 -207.5zM402 394q22 0 34 11t12 28
q0 14 -12 25t-34 11q-21 0 -33 -11t-12 -25q0 -17 12 -28t33 -11zM402 244q28 0 41.5 12t13.5 31q0 16 -14 28t-41 12q-26 0 -40.5 -12t-14.5 -28q0 -19 14 -31t41 -12zM402 165q-72 0 -113.5 30t-41.5 80q0 30 20 53.5t53 33.5q-29 9 -45.5 32t-16.5 50q0 45 38.5 74.5
t105.5 29.5t106 -29t39 -75q0 -27 -16.5 -50t-45.5 -32q32 -10 52.5 -33t20.5 -52q0 -51 -41 -81.5t-115 -30.5z" />
    <glyph glyph-name="uni2788" unicode="&#x2788;" horiz-adv-x="812" 
d="M34 354q0 153 107.5 262t260.5 109t261.5 -109t108.5 -262q0 -152 -108.5 -261t-261.5 -109t-260.5 108.5t-107.5 261.5zM119 354q0 -122 82 -206.5t201 -84.5t201 84.5t82 206.5q0 123 -82 207.5t-201 84.5t-201 -84.5t-82 -207.5zM270 179l17 79q27 -12 65 -12
q44 0 76 20t41 62q-32 -32 -87 -32q-54 0 -92.5 32t-38.5 87q0 59 43 96t113 37q68 0 113.5 -45.5t45.5 -124.5q0 -100 -58 -157.5t-148 -57.5q-47 0 -90 16zM458 417q0 22 -15.5 36t-38.5 14q-22 0 -37.5 -14t-15.5 -36t15.5 -36t37.5 -14q23 0 38.5 14t15.5 36z" />
    <glyph glyph-name="uniE000" unicode="&#xe000;" horiz-adv-x="745" 
d="M222 -15l-223 257h168v467h565v-115h-450v-352h165z" />
    <glyph glyph-name="uni21B5" unicode="&#xe001;" horiz-adv-x="1110" 
d="M251 104l-215 250h152q1 153 109.5 262t261.5 109q91 0 174 -43l-53 -102q-57 30 -120 30q-106 0 -181 -75t-75 -181h161zM926 354q0 -154 -108 -262t-262 -108q-90 0 -173 43l52 102q60 -31 121 -31q106 0 180 75t74 181h-159l214 251l215 -251h-154z" />
    <glyph glyph-name="uniE002" unicode="&#xe002;" horiz-adv-x="956" 
d="M506 354l214 251l215 -251h-151q0 -154 -108 -262t-262 -108q-153 0 -261.5 108t-108.5 262t108.5 262.5t261.5 108.5q82 0 158 -35l-46 -106q-52 26 -111 26q-106 0 -181 -75t-75 -181t75 -181.5t181 -75.5q105 0 179 75.5t74 181.5h-162z" />
    <glyph glyph-name="uniFB00" unicode="&#xfb00;" horiz-adv-x="680" 
d="M159 0h-134l80 379h-83l24 113h84l15 74q35 165 194 165q53 0 81 -17l-23 -109l-5 2q-4 2 -14.5 4.5t-23.5 2.5q-65 0 -79 -62l-12 -60h184l15 74q35 165 195 165q52 0 80 -17l-23 -109l-4 2q-5 2 -15.5 4.5t-23.5 2.5q-65 0 -79 -62l-12 -60h105l-25 -113h-104l-80 -379
h-134l80 379h-183z" />
    <glyph glyph-name="fi" unicode="&#xfb01;" horiz-adv-x="627" 
d="M239 379l-80 -379h-134l80 379h-83l24 113h84l17 80q34 159 192 159q53 0 81 -17l-23 -109l-5 2q-5 2 -16 4.5t-24 2.5q-63 0 -78 -68l-11 -54h321l-105 -492h-132l81 379h-189zM469 648q0 37 26.5 63t63.5 26q33 0 53.5 -20.5t20.5 -51.5q0 -38 -27.5 -63.5t-63.5 -25.5
q-31 0 -52 20.5t-21 51.5z" />
    <glyph glyph-name="fl" unicode="&#xfb02;" horiz-adv-x="626" 
d="M239 379l-80 -379h-134l80 379h-83l24 113h84l17 80q34 159 192 159q53 0 81 -17l-23 -109l-5 2q-5 2 -16 4.5t-24 2.5q-63 0 -78 -68l-11 -54h188l49 232h133l-154 -724h-132l80 379h-188z" />
    <glyph glyph-name="uniFB03" unicode="&#xfb03;" horiz-adv-x="940" 
d="M782 648q0 37 26.5 63t63.5 26q32 0 53 -20.5t21 -51.5q0 -38 -27.5 -63.5t-63.5 -25.5q-31 0 -52 20.5t-21 51.5zM159 0h-134l80 379h-83l24 113h84l15 74q35 165 194 165q53 0 81 -17l-23 -109l-5 2q-4 2 -14.5 4.5t-23.5 2.5q-65 0 -79 -62l-12 -60h184l15 74
q35 165 195 165q52 0 80 -17l-23 -109l-4 2q-5 2 -15.5 4.5t-23.5 2.5q-65 0 -79 -62l-12 -60h317l-105 -492h-132l81 379h-185l-80 -379h-134l80 379h-183z" />
    <glyph glyph-name="uniFB04" unicode="&#xfb04;" horiz-adv-x="946" 
d="M159 0h-134l80 379h-83l24 113h84l15 74q35 165 194 165q53 0 81 -17l-23 -109l-5 2q-4 2 -14.5 4.5t-23.5 2.5q-65 0 -79 -62l-12 -60h184l15 74q35 165 195 165q52 0 80 -17l-23 -109l-4 2q-5 2 -15.5 4.5t-23.5 2.5q-65 0 -79 -62l-12 -60h191l49 232h133l-154 -724
h-132l80 379h-191l-80 -379h-134l80 379h-183z" />
    <glyph glyph-name="uniFEFF" unicode="&#xfeff;" horiz-adv-x="0" 
 />
    <glyph glyph-name="zero.numr" horiz-adv-x="418" 
d="M46 419q0 55 18 107t63 91.5t109 39.5q74 0 112.5 -41t38.5 -104q0 -42 -11 -83t-33 -76.5t-59.5 -57.5t-85.5 -22q-68 0 -110 39.5t-42 106.5zM146 421q0 -62 55 -62q42 0 64 49t22 103q0 61 -55 61q-30 0 -50.5 -29t-28 -61.5t-7.5 -60.5z" />
    <glyph glyph-name="one.numr" horiz-adv-x="304" 
d="M190 282h-102l49 228h-89l14 66q42 1 73.5 22t43.5 51h89z" />
    <glyph glyph-name="two.numr" horiz-adv-x="390" 
d="M160 457l65 28q47 20 47 51q0 15 -10 27t-30 12q-54 0 -54 -63l-92 6q0 60 41 99t108 39t103 -32t36 -80q0 -84 -106 -129l-76 -32q-15 -7 -18 -17h161l-18 -85h-281q5 125 124 176z" />
    <glyph glyph-name="three.numr" horiz-adv-x="428" 
d="M187 444l-26 66l108 56h-165l18 83h280l-19 -95l-102 -53q35 -7 56.5 -33.5t21.5 -63.5q0 -53 -44.5 -92t-113.5 -39q-65 0 -105 35.5t-40 85.5q0 11 1 17l93 5q-1 -4 -1 -8q0 -22 14.5 -37t39.5 -15t40 14t15 37q0 19 -13.5 30t-33.5 11q-12 0 -24 -4z" />
    <glyph glyph-name="four.numr" horiz-adv-x="432" 
d="M46 354l21 104l203 191h111l-46 -217h61l-17 -78h-61l-15 -73h-101l16 73h-172zM234 432l25 111l-117 -111h92z" />
    <glyph glyph-name="five.numr" horiz-adv-x="397" 
d="M46 400l92 9q0 -25 16 -37.5t36 -12.5q22 0 38 14.5t16 39.5q0 20 -13.5 32t-33.5 12q-24 0 -45 -17l-79 38l76 171h222l-17 -83h-154l-24 -55q22 13 52 13q53 0 84.5 -28.5t31.5 -76.5q0 -61 -44 -102.5t-112 -41.5q-62 0 -102 34t-40 91z" />
    <glyph glyph-name="six.numr" horiz-adv-x="392" 
d="M386 630l-33 -75q-36 18 -77 18q-36 0 -68.5 -18.5t-46.5 -50.5q26 22 72 22q54 0 84.5 -30t30.5 -78q0 -65 -46 -105.5t-112 -40.5q-62 0 -103 41.5t-41 110.5q0 102 67 166.5t164 64.5q66 0 109 -25zM203 453q-22 0 -39 -14.5t-17 -38.5q0 -21 13 -33.5t34 -12.5
q22 0 38.5 15t16.5 41q0 19 -12.5 31t-33.5 12z" />
    <glyph glyph-name="seven.numr" horiz-adv-x="361" 
d="M387 649l-18 -83q-151 -106 -205 -285h-106q12 49 36 95.5t47.5 78t49.5 58t39 37.5t19 15h-183l17 84h304z" />
    <glyph glyph-name="eight.numr" horiz-adv-x="399" 
d="M188 537q0 -14 10.5 -24t27.5 -10q21 0 34.5 11.5t13.5 30.5q0 13 -10 23t-30 10q-21 0 -33.5 -12t-12.5 -29zM148 388q0 -17 14 -27.5t34 -10.5q25 0 40.5 13.5t15.5 32.5q0 15 -12.5 26.5t-36.5 11.5q-25 0 -40 -14t-15 -32zM196 272q-72 0 -110.5 29t-38.5 75
q0 35 26.5 62t67.5 35q-21 9 -34.5 29.5t-13.5 42.5q0 47 40.5 79t104.5 32q65 0 100.5 -27.5t35.5 -71.5q0 -31 -22 -56t-59 -35q24 -8 40.5 -29.5t16.5 -46.5q0 -52 -43.5 -85t-110.5 -33z" />
    <glyph glyph-name="nine.numr" horiz-adv-x="411" 
d="M41 301l34 74q33 -20 82 -20q35 0 67 19t43 53q-25 -24 -69 -24q-54 0 -86.5 30t-32.5 77q0 64 45.5 104.5t111.5 40.5q63 0 103.5 -40.5t40.5 -108.5q0 -106 -64 -170t-161 -64q-66 0 -114 29zM223 473q22 0 38.5 16t16.5 40q0 19 -13 32t-32 13q-23 0 -39 -16t-16 -41
q0 -19 13 -31.5t32 -12.5z" />
    <glyph glyph-name="zero.dnom" horiz-adv-x="418" 
d="M26 137q0 55 18 107t63 91.5t109 39.5q74 0 112.5 -41t38.5 -104q0 -42 -11 -83t-33 -76.5t-59.5 -57.5t-85.5 -22q-68 0 -110 39.5t-42 106.5zM126 139q0 -62 55 -62q42 0 64 49t22 103q0 61 -55 61q-30 0 -50.5 -29t-28 -61.5t-7.5 -60.5z" />
    <glyph glyph-name="one.dnom" horiz-adv-x="304" 
d="M160 0h-102l49 228h-89l14 66q42 1 73.5 22t43.5 51h89z" />
    <glyph glyph-name="two.dnom" horiz-adv-x="383" 
d="M120 176l65 28q47 20 47 51q0 15 -10 27t-30 12q-54 0 -54 -63l-92 6q0 60 41 99t108 39t103 -32t36 -80q0 -84 -106 -129l-76 -32q-15 -7 -18 -17h161l-18 -85h-281q5 125 124 176z" />
    <glyph glyph-name="three.dnom" horiz-adv-x="428" 
d="M147 163l-26 66l108 56h-165l18 83h280l-19 -95l-102 -53q35 -7 56.5 -33.5t21.5 -63.5q0 -53 -44.5 -92t-113.5 -39q-65 0 -105 35.5t-40 85.5q0 11 1 17l93 5q-1 -4 -1 -8q0 -22 14.5 -37t39.5 -15t40 14t15 37q0 19 -13.5 30t-33.5 11q-12 0 -24 -4z" />
    <glyph glyph-name="four.dnom" horiz-adv-x="432" 
d="M5 73l21 104l203 191h111l-46 -217h61l-17 -78h-61q0 -1 -15 -73h-101l16 73h-172zM193 151l25 111l-117 -111h92z" />
    <glyph glyph-name="five.dnom" horiz-adv-x="397" 
d="M6 118l92 9q0 -25 16 -37.5t36 -12.5q22 0 38 14.5t16 39.5q0 20 -13.5 32t-33.5 12q-24 0 -45 -17l-79 38l76 171h222l-17 -83h-154l-24 -55q22 13 52 13q53 0 84.5 -28.5t31.5 -76.5q0 -61 -44 -102.5t-112 -41.5q-62 0 -102 34t-40 91z" />
    <glyph glyph-name="six.dnom" horiz-adv-x="391" 
d="M346 350l-33 -75q-36 18 -77 18q-36 0 -68.5 -18.5t-46.5 -50.5q26 22 72 22q54 0 84.5 -30t30.5 -78q0 -65 -46 -105.5t-112 -40.5q-62 0 -103 41.5t-41 110.5q0 102 67 166.5t164 64.5q66 0 109 -25zM163 173q-22 0 -39 -14.5t-17 -38.5q0 -21 13 -33.5t34 -12.5
q22 0 38.5 15t16.5 41q0 19 -12.5 31t-33.5 12z" />
    <glyph glyph-name="seven.dnom" horiz-adv-x="361" 
d="M344 368l-18 -83q-151 -106 -205 -285h-106q12 49 36 95.5t47.5 78t49.5 58t39 37.5t19 15h-183l17 84h304z" />
    <glyph glyph-name="eight.dnom" horiz-adv-x="399" 
d="M147 256q0 -14 10.5 -24t27.5 -10q21 0 34.5 11.5t13.5 30.5q0 13 -10 23t-30 10q-21 0 -33.5 -12t-12.5 -29zM107 107q0 -17 14 -27.5t34 -10.5q25 0 40.5 13.5t15.5 32.5q0 15 -12.5 26.5t-36.5 11.5q-25 0 -40 -14t-15 -32zM155 -9q-72 0 -110.5 29t-38.5 75
q0 35 26.5 62t67.5 35q-21 9 -34.5 29.5t-13.5 42.5q0 47 40.5 79t104.5 32q65 0 100.5 -27.5t35.5 -71.5q0 -31 -22 -56t-59 -35q24 -8 40.5 -29.5t16.5 -46.5q0 -52 -43.5 -85t-110.5 -33z" />
    <glyph glyph-name="nine.dnom" horiz-adv-x="411" 
d="M6 21l34 74q33 -20 82 -20q35 0 67 19t43 53q-26 -24 -69 -24q-54 0 -86.5 30t-32.5 77q0 64 45.5 104.5t111.5 40.5q63 0 103.5 -40.5t40.5 -108.5q0 -106 -64 -170t-161 -64q-66 0 -114 29zM188 193q22 0 38.5 16t16.5 40q0 19 -13 32t-32 13q-23 0 -39 -16t-16 -41
q0 -19 13 -31.5t32 -12.5z" />
    <glyph glyph-name="space.frac" horiz-adv-x="52" 
 />
    <glyph glyph-name="a.ordn" horiz-adv-x="455" 
d="M234 565q-39 0 -61 -33t-22 -76q0 -34 17.5 -53t45.5 -19q33 0 57.5 30t24.5 82q0 33 -17 51t-45 18zM332 648h99l-59 -274q-7 -28 -7 -56q0 -8 1 -16h-93q-1 6 -1 15q0 13 3 26q-34 -47 -91 -47q-61 0 -98 44.5t-37 110.5q0 89 51 147.5t125 58.5q30 0 52.5 -9t31.5 -18
t14 -19z" />
    <glyph glyph-name="b.ordn" horiz-adv-x="489" 
d="M175 302h-98l106 507h101l-39 -188q30 34 89 34q64 0 99.5 -40.5t35.5 -103.5q0 -94 -52 -155.5t-129 -61.5q-38 0 -65.5 16.5t-37.5 36.5zM299 567q-38 0 -63 -32.5t-25 -76.5q0 -35 19 -54t48 -19q34 0 61.5 29t27.5 80q0 36 -18.5 54.5t-49.5 18.5z" />
    <glyph glyph-name="c.ordn" horiz-adv-x="420" 
d="M399 541l-92 -26q-4 22 -21 36.5t-46 14.5q-35 0 -62.5 -29t-27.5 -80q0 -33 20 -52.5t52 -19.5q50 0 72 46l84 -32q-20 -46 -62 -77t-101 -31q-3 0 -9 0.5t-8 0.5q-66 5 -107.5 50.5t-41.5 112.5q0 91 58.5 147.5t139.5 56.5q66 0 105 -34.5t47 -83.5z" />
    <glyph glyph-name="d.ordn" horiz-adv-x="449" 
d="M234 565q-39 0 -61 -33t-22 -76q0 -34 17.5 -53t45.5 -19q33 0 57.5 30t24.5 82q0 33 -17 51t-45 18zM275 343q-34 -47 -91 -47q-61 0 -98 44.5t-37 110.5q0 89 51 147.5t125 58.5q71 0 96 -42l41 194h102l-92 -435q-7 -28 -7 -56q0 -8 1 -16h-93q-1 6 -1 15q0 13 3 26z
" />
    <glyph glyph-name="e.ordn" horiz-adv-x="405" 
d="M145 516h141q1 1 1 7q0 21 -15.5 38t-46.5 17q-61 0 -80 -62zM371 449l-236 -1q0 -31 19.5 -51.5t54.5 -20.5q49 0 69 41l79 -37q-18 -38 -57.5 -63t-98.5 -25q-66 0 -113 45t-47 115q0 92 56 149.5t129 57.5q72 0 113.5 -41t41.5 -106q0 -34 -10 -63z" />
    <glyph glyph-name="f.ordn" horiz-adv-x="330" 
d="M317 562h-71l-56 -260h-102l55 260h-58l18 86h59l11 52q24 114 140 114q39 0 61 -12l-19 -84q-13 7 -30 7q-46 0 -55 -46l-6 -31h72z" />
    <glyph glyph-name="g.ordn" horiz-adv-x="465" 
d="M331 502q0 28 -17.5 46t-45.5 18q-35 0 -58.5 -26.5t-23.5 -67.5q0 -29 17.5 -46.5t46.5 -17.5q34 0 57.5 25.5t23.5 68.5zM42 292l89 17q0 -27 18.5 -44.5t51.5 -17.5q75 0 96 86l5 22q-27 -33 -78 -33q-64 0 -102 40.5t-38 103.5q0 79 50 134.5t124 55.5q76 0 100 -45
l9 37h99l-67 -317q-16 -76 -66 -124t-129 -48q-78 0 -120 40t-42 93z" />
    <glyph glyph-name="h.ordn" horiz-adv-x="453" 
d="M373 302h-102l43 198q2 12 2 17q0 23 -13 36.5t-37 13.5q-52 0 -66 -64l-44 -201h-101l107 507h102l-40 -189q32 38 89 38q53 0 80.5 -30.5t27.5 -80.5q0 -21 -4 -38z" />
    <glyph glyph-name="i.ordn" horiz-adv-x="255" 
d="M146 753q0 27 19.5 46.5t47.5 19.5q24 0 39 -15.5t15 -37.5q0 -29 -20 -47.5t-47 -18.5q-23 0 -38.5 15t-15.5 38zM162 302h-102l74 346h102z" />
    <glyph glyph-name="j.ordn" horiz-adv-x="265" 
d="M84 285l77 363h102l-82 -386q-11 -51 -42.5 -77t-77.5 -26q-42 0 -68 17l17 80q14 -7 33 -7q36 0 41 36zM174 753q0 27 19 46.5t47 19.5q24 0 39.5 -15.5t15.5 -37.5q0 -29 -20 -47.5t-47 -18.5q-24 0 -39 15t-15 38z" />
    <glyph glyph-name="k.ordn" horiz-adv-x="439" 
d="M281 302l-61 130l-47 -40l-19 -90h-101l107 507h102l-58 -273l127 112h140l-173 -148l97 -198h-114z" />
    <glyph glyph-name="l.ordn" horiz-adv-x="246" 
d="M157 302h-102l107 507h102z" />
    <glyph glyph-name="m.ordn" horiz-adv-x="672" 
d="M586 302h-101l43 199q2 12 2 18q0 22 -13 35t-37 13q-48 0 -62 -63l-44 -202h-103l43 199q2 12 2 18q0 22 -13 35t-37 13q-49 0 -63 -63l-44 -202h-101l60 288q7 33 7 58h99q0 -20 -2 -32q33 42 93 42q66 0 93 -51q41 51 116 51q50 0 80.5 -32t30.5 -81q0 -18 -4 -34z
" />
    <glyph glyph-name="n.ordn" horiz-adv-x="453" 
d="M376 302h-102l43 198q2 12 2 17q0 23 -13 36.5t-37 13.5q-52 0 -66 -64l-44 -201h-101l60 288q7 33 7 58h99q0 -19 -2 -33q32 43 94 43q52 0 80 -31t28 -80q0 -21 -4 -38z" />
    <glyph glyph-name="o.ordn" horiz-adv-x="430" 
d="M237 567q-37 0 -61.5 -32t-24.5 -77q0 -34 18.5 -53.5t46.5 -19.5q34 0 60.5 28t26.5 80q0 35 -17.5 54t-48.5 20zM405 497q0 -85 -55.5 -145t-140.5 -60q-71 0 -115.5 46t-44.5 116q0 90 57 147.5t139 57.5q72 0 116 -46t44 -116z" />
    <glyph glyph-name="p.ordn" horiz-adv-x="478" 
d="M288 567q-37 0 -62 -32t-25 -77q0 -35 18.5 -54t47.5 -19q34 0 61 29t27 80q0 36 -18.5 54.5t-48.5 18.5zM230 614q32 41 93 41q65 0 100 -40t35 -103q0 -95 -51 -156.5t-129 -61.5q-74 0 -104 46l-36 -171h-101l89 421q7 33 7 58h99q0 -21 -2 -34z" />
    <glyph glyph-name="q.ordn" horiz-adv-x="460" 
d="M435 648l-102 -480h-102l33 156q-30 -28 -75 -28q-61 0 -98.5 44.5t-37.5 110.5q0 89 51 147.5t125 58.5t99 -46l8 37h99zM238 564q-38 0 -60.5 -33t-22.5 -75q0 -34 17.5 -53t46.5 -19q33 0 57.5 29.5t24.5 81.5q0 33 -17 51t-46 18z" />
    <glyph glyph-name="r.ordn" horiz-adv-x="295" 
d="M318 546q-20 5 -37 5q-74 0 -93 -90l-35 -159h-101l61 288q7 33 7 58h98q0 -23 -2 -39q28 42 84 42q12 0 40 -5z" />
    <glyph glyph-name="s.ordn" horiz-adv-x="368" 
d="M50 408l86 14q-1 -4 -1 -8q0 -20 13.5 -34t35.5 -14q19 0 29 9t10 22q0 21 -25 31l-35 15q-77 34 -77 100q0 48 37.5 82t96.5 34q71 0 100.5 -33.5t30.5 -74.5l-87 -12q0 46 -45 46q-16 0 -26.5 -8.5t-10.5 -22.5q0 -19 19 -27l44 -18q78 -32 78 -102q0 -46 -36 -80.5
t-100 -34.5q-60 0 -98.5 29t-38.5 87z" />
    <glyph glyph-name="t.ordn" horiz-adv-x="306" 
d="M230 559l-28 -129q-2 -8 -2 -16q0 -30 36 -30q14 0 26 3l-18 -81q-18 -9 -47 -9q-47 0 -74 25t-27 68q0 14 3 29l29 140h-60l19 89h16q53 0 66 57l10 46h92l-23 -103h68l-19 -89h-67z" />
    <glyph glyph-name="u.ordn" horiz-adv-x="432" 
d="M114 648h101l-42 -196q-2 -7 -2 -20q0 -49 49 -49t63 65l44 200h101l-59 -282q-7 -35 -7 -64h-98q-1 7 -1 17q0 9 1 17q-24 -42 -84 -42q-54 0 -84 32t-30 83q0 19 4 36z" />
    <glyph glyph-name="v.ordn" horiz-adv-x="376" 
d="M412 648l-201 -346h-101l-62 346h106l28 -221l116 221h114z" />
    <glyph glyph-name="w.ordn" horiz-adv-x="589" 
d="M278 648h108l25 -210l98 210h105l-177 -346h-100l-28 228l-117 -228h-105l-33 346h100l15 -209z" />
    <glyph glyph-name="x.ordn" horiz-adv-x="415" 
d="M225 401l-85 -99h-121l163 178l-91 168h112l46 -96l82 96h123l-161 -175l92 -171h-112z" />
    <glyph glyph-name="y.ordn" horiz-adv-x="396" 
d="M148 169h-112l116 187l-73 292h107l42 -186l110 186h113z" />
    <glyph glyph-name="z.ordn" horiz-adv-x="408" 
d="M333 302h-290l19 90l188 170h-147l19 86h282l-19 -84l-196 -175h163z" />
    <glyph glyph-name="space.tf" 
 />
    <glyph glyph-name="numbersign.tf" 
d="M49 396v96h104l34 157h104l-34 -157h104l34 157h105l-34 -157h87v-96h-107l-30 -140h86v-95h-107l-34 -161h-105l34 161h-104l-34 -161h-104l34 161h-83v95h104l30 140h-84zM237 396l-30 -140h104l30 140h-104z" />
    <glyph glyph-name="dollar.tf" 
d="M148 -111l24 112q-77 22 -115.5 79.5t-38.5 119.5q0 10 2 20l122 21q-1 -8 -1 -19q0 -49 30 -84t90 -36q43 0 69 20.5t27 55.5q0 43 -54 71q-72 33 -77 35q-125 56 -125 173q0 84 60.5 139.5t149.5 61.5l21 103h108l-24 -114q71 -21 104 -72t33 -103l-124 -21
q0 12 -3.5 25.5t-13.5 30.5t-33 28t-56 11q-39 0 -64 -23t-25 -55q0 -47 50 -70l73 -33q135 -63 135 -178q0 -77 -59 -135.5t-156 -62.5l-21 -100h-108z" />
    <glyph glyph-name="percent.tf" 
d="M233 528q0 22 -13 36t-35 14q-24 0 -42.5 -19t-18.5 -48q0 -22 13 -36t35 -14q24 0 42.5 18.5t18.5 48.5zM192 658q54 0 90 -36.5t36 -88.5q0 -65 -46.5 -108.5t-106.5 -43.5q-54 0 -90 36t-36 89q0 65 45.5 108.5t107.5 43.5zM546 540l-21 -101l-508 -325l20 99z
M439 141q0 22 -12.5 36t-34.5 14q-24 0 -42.5 -18.5t-18.5 -48.5q0 -22 13 -36t34 -14q25 0 43 18.5t18 48.5zM525 146q0 -65 -46.5 -108.5t-107.5 -43.5q-54 0 -89.5 36t-35.5 89q0 65 45.5 108.5t107.5 43.5q54 0 90 -36.5t36 -88.5z" />
    <glyph glyph-name="plus.tf" 
d="M326 240v-196h-112v196h-189v109h189v195h112v-195h189v-109h-189z" />
    <glyph glyph-name="comma.tf" 
d="M157 77q0 46 32 76t79 30q45 0 74 -30.5t29 -78.5q0 -106 -74 -181.5t-182 -82.5l16 76q43 4 84.5 36.5t52.5 77.5q-10 -4 -26 -4q-38 0 -61.5 23t-23.5 58z" />
    <glyph glyph-name="period.tf" 
d="M239 -7q-41 0 -66.5 26.5t-25.5 64.5q0 46 33.5 79t80.5 33q41 0 67 -26.5t26 -64.5q0 -46 -34 -79t-81 -33z" />
    <glyph glyph-name="zero.tf" 
d="M150 233q0 -126 97 -126q41 0 73 33.5t49.5 84t26 100.5t8.5 93q0 124 -97 124q-44 0 -77 -35.5t-49 -88.5t-23.5 -100t-7.5 -85zM240 -15q-78 1 -130 36t-73.5 87t-21.5 119q0 51 8.5 106.5t30.5 115.5t55 107t86 77.5t119 30.5q114 0 170 -70t56 -174q0 -44 -7 -91
t-21 -96.5t-38.5 -93.5t-56 -78.5t-77.5 -55t-100 -20.5z" />
    <glyph glyph-name="one.tf" 
d="M29 117h163l68 324h-148l20 91q64 2 117 34.5t73 82.5h119l-112 -532h172l-25 -117h-471z" />
    <glyph glyph-name="two.tf" 
d="M-30 0q0 2 2 14t2 14q17 92 65.5 157t142.5 107l119 53q101 45 101 115q0 35 -22.5 59t-69.5 24q-56 0 -84.5 -38t-28.5 -104l-128 14q0 108 67 178.5t182 70.5q108 0 164.5 -54t56.5 -135q0 -149 -173 -227l-138 -62q-48 -21 -73 -67h316l-25 -119h-476z" />
    <glyph glyph-name="three.tf" 
d="M209 299l-46 103l202 129h-286l23 118h460l-27 -135l-193 -124q63 -7 104.5 -53t41.5 -116q0 -95 -72.5 -165.5t-185.5 -70.5q-110 0 -173.5 62.5t-63.5 148.5q0 10 2 18l134 15q-1 -7 -1 -19q0 -46 28 -76t75 -30q52 0 85 31t33 81q0 44 -28.5 67t-70.5 23q-22 0 -41 -7
z" />
    <glyph glyph-name="four.tf" 
d="M-14 139l30 145l345 365h166l-84 -392h93l-25 -118h-93l-28 -139h-136l28 139h-296zM307 257l53 244l-227 -244h174z" />
    <glyph glyph-name="five.tf" 
d="M11 194v4l130 25q-1 -2 -1 -13q0 -44 28 -76t78 -32q49 0 84 32t35 88q0 45 -29 70.5t-74 25.5q-54 0 -91 -34l-115 57l135 308h365l-25 -119h-265l-58 -129q39 24 95 24q95 0 148 -50.5t53 -137.5q0 -107 -72 -180t-188 -73q-103 0 -168 62t-65 148z" />
    <glyph glyph-name="six.tf" 
d="M585 620l-55 -106q-51 27 -123 27q-79 0 -142 -44t-88 -124q52 58 141 58q93 0 146.5 -51.5t53.5 -136.5q0 -112 -75.5 -184.5t-186.5 -72.5q-103 0 -170 68t-67 181q0 177 111 300t287 123q113 0 168 -38zM276 320q-50 0 -85 -33t-35 -85q0 -44 28.5 -71.5t74.5 -27.5
q49 0 84 33t35 87q0 44 -27.5 70.5t-74.5 26.5z" />
    <glyph glyph-name="seven.tf" 
d="M47 532l24 117h514l-24 -115q-24 -16 -52.5 -39t-76 -72t-89 -105.5t-85 -141t-70.5 -176.5h-145q24 89 65.5 173.5t81.5 141.5t86.5 107.5t72 72.5t45.5 37h-347z" />
    <glyph glyph-name="eight.tf" 
d="M305 381q45 0 73.5 27t28.5 66q0 31 -22 53.5t-63 22.5q-49 0 -77 -27.5t-28 -65.5q0 -31 22.5 -53.5t65.5 -22.5zM145 182q0 -38 29 -61.5t74 -23.5q50 0 82 29.5t32 70.5q0 36 -26 60.5t-77 24.5t-82.5 -29.5t-31.5 -70.5zM495 186q0 -92 -75 -146.5t-180 -54.5
q-100 0 -165 48t-65 132q0 63 44 110t116 62q-35 16 -60 52t-25 79q0 87 69 141.5t173 54.5q103 0 161 -49.5t58 -123.5q0 -58 -37.5 -103t-101.5 -64q40 -15 64 -54.5t24 -83.5z" />
    <glyph glyph-name="nine.tf" 
d="M170 428q0 -44 28 -70t74 -26q50 0 83.5 32.5t33.5 83.5q0 44 -28 71t-73 27q-48 0 -83 -32t-35 -86zM-32 37l54 106q59 -36 130 -36q82 0 142.5 47.5t79.5 127.5q-49 -60 -137 -60q-90 0 -147 55t-57 141q0 111 75.5 178.5t184.5 67.5q105 0 171 -67t66 -182
q0 -194 -106 -312t-273 -118q-111 0 -183 52z" />
    <glyph glyph-name="colon.tf" 
d="M218 -9q-38 0 -61.5 24.5t-23.5 60.5q0 42 30.5 72t74.5 30q38 0 61.5 -24.5t23.5 -59.5q0 -42 -31 -72.5t-74 -30.5zM287 314q-38 0 -62 24.5t-24 59.5q0 41 31 71.5t74 30.5q38 0 62 -24t24 -59q0 -42 -31 -72.5t-74 -30.5z" />
    <glyph glyph-name="semicolon.tf" 
d="M139 71q0 42 29 69t72 27q42 0 68.5 -28t26.5 -71q0 -97 -68 -166.5t-166 -75.5l14 70q40 4 78 33.5t47 70.5q-8 -4 -23 -4q-35 0 -56.5 21.5t-21.5 53.5zM294 312q-38 0 -62 24.5t-24 59.5q0 42 31 73t75 31q38 0 62 -24.5t24 -59.5q0 -43 -31 -73.5t-75 -30.5z" />
    <glyph glyph-name="less.tf" 
d="M61 244v101l430 217v-123l-296 -143l296 -143v-125z" />
    <glyph glyph-name="equal.tf" 
d="M30 341v107h485v-107h-485zM30 142v108h485v-108h-485z" />
    <glyph glyph-name="greater.tf" 
d="M492 345v-100l-430 -217v123l296 143l-296 143v125z" />
    <glyph glyph-name="cent.tf" 
d="M171 0l20 95q-64 22 -100.5 75.5t-36.5 124.5q0 110 68.5 183.5t167.5 83.5l18 87h102l-20 -96q56 -16 89 -55t42 -87l-114 -33q-7 32 -31.5 53t-66.5 21q-51 0 -90 -41t-39 -114q0 -48 28.5 -76t75.5 -28q69 0 106 66l105 -39q-28 -57 -80 -96.5t-125 -43.5l-17 -80
h-102z" />
    <glyph glyph-name="sterling.tf" horiz-adv-x="593" 
d="M45 273l22 102h67q-7 35 -7 65q0 94 60 158t163 64q97 0 145 -48.5t48 -120.5q0 -19 -3 -28l-120 -13q2 8 2 23q0 33 -19.5 54.5t-56.5 21.5q-41 0 -67.5 -28t-26.5 -83q0 -21 8 -65h177l-22 -102h-144q-4 -52 -32 -94.5t-75 -62.5h161q41 0 65.5 24t30.5 62l115 -21
q-14 -82 -69.5 -131.5t-135.5 -49.5h-347l25 120q60 11 95.5 54.5t40.5 98.5h-100z" />
    <glyph glyph-name="currency.tf" 
d="M53 245q0 59 29 108l-72 73l80 80l74 -75q49 27 105 27t103 -26l73 74l81 -80l-71 -71q31 -50 31 -110q0 -61 -31 -109l71 -71l-80 -80l-73 73q-47 -26 -104 -26q-58 0 -106 27l-73 -74l-80 80l72 73q-29 47 -29 107zM164 245q0 -46 30 -75.5t75 -29.5q46 0 75.5 29.5
t29.5 75.5t-29.5 75.5t-75.5 29.5q-45 0 -75 -29.5t-30 -75.5z" />
    <glyph glyph-name="yen.tf" 
d="M42 298l20 94h98l-90 257h144l73 -245l174 245h152l-198 -257h106l-20 -94h-168l-15 -69h168l-21 -94h-167l-28 -135h-130l28 135h-161l21 94h160l15 69h-161z" />
    <glyph glyph-name="section.tf" 
d="M8 2l128 9q-4 -15 -4 -30q0 -36 22 -55.5t59 -19.5q33 0 57 21t24 55q0 35 -30 56l-91 63q-106 71 -106 157q0 55 31 91t76 53q-50 49 -50 121q0 88 69 144.5t156 56.5q94 0 146.5 -49t52.5 -123q0 -16 -3 -34l-128 -9q3 9 3 29q0 35 -21.5 54.5t-58.5 19.5
q-33 0 -57 -21.5t-24 -54.5t31 -55l89 -63q52 -37 79.5 -72t27.5 -83q0 -56 -31 -93t-76 -54q50 -49 50 -116q0 -91 -68.5 -148t-157.5 -57q-93 0 -145.5 48.5t-52.5 122.5q0 16 3 36zM329 289l-89 63q-46 -25 -46 -69q0 -33 30 -53l89 -64q46 26 46 70q0 32 -30 53z" />
    <glyph glyph-name="logicalnot.tf" 
d="M511 136h-115v195h-363v110h478v-305z" />
    <glyph glyph-name="plusminus.tf" 
d="M333 313v-123h-112v123h-178v108h178v123h112v-123h178v-108h-178zM43 44v109h468v-109h-468z" />
    <glyph glyph-name="multiply.tf" 
d="M115 48l-79 79l165 168l-165 168l80 79l164 -167l165 167l80 -78l-166 -169l166 -168l-79 -80l-166 168z" />
    <glyph glyph-name="divide.tf" 
d="M25 240v111h488v-111h-488zM188 112q0 32 23 55t55 23t55 -23t23 -55t-23 -55t-55 -23t-55 23t-23 55zM188 479q0 31 23 54t55 23t55 -22.5t23 -54.5t-23 -55t-55 -23t-55 23.5t-23 54.5z" />
    <glyph glyph-name="florin.tf" 
d="M144 27l71 352h-98v112h121l19 92q15 78 68 117.5t119 39.5q49 0 89 -13v-115q-31 7 -60 7q-71 0 -86 -75l-11 -53h117v-112h-140l-79 -392q-16 -78 -68.5 -117.5t-118.5 -39.5q-50 0 -92 14v114q31 -7 65 -7q69 0 84 76z" />
    <glyph glyph-name="uni2007.tf" 
 />
    <glyph glyph-name="uni2008.tf" 
 />
    <glyph glyph-name="perthousand.tf" 
d="M230 65q20 0 35.5 16.5t15.5 40.5q0 19 -10.5 30.5t-29.5 11.5q-20 0 -35.5 -16.5t-15.5 -40.5q0 -19 10.5 -30.5t29.5 -11.5zM40 526q0 56 40 94.5t94 38.5q48 0 80 -31.5t32 -78.5q0 -57 -40.5 -95.5t-94.5 -38.5q-48 0 -79.5 32t-31.5 79zM224 -9q-48 0 -79.5 32
t-31.5 79q0 57 40.5 95.5t94.5 38.5q48 0 79 -34q36 34 87 34q48 0 79.5 -31.5t31.5 -78.5q0 -57 -40.5 -96t-93.5 -39q-48 0 -80 35q-38 -35 -87 -35zM549 593l-22 -103l-512 -318l22 102zM168 587q-20 0 -35.5 -16t-15.5 -41q0 -19 10.5 -30.5t28.5 -11.5q21 0 36.5 15.5
t15.5 41.5q0 18 -10.5 29.5t-29.5 12.5zM396 65q21 0 36.5 15.5t15.5 41.5q0 18 -11 30t-30 12q-21 0 -36 -15.5t-15 -41.5q0 -18 10.5 -30t29.5 -12z" />
    <glyph glyph-name="Euro.tf" 
d="M49 354l20 94h69q45 98 135 157t199 59q85 0 153 -35l-57 -109q-39 24 -106 24q-49 0 -97.5 -24t-80.5 -72h247l-47 -94h-238q-7 -35 -7 -64h217l-47 -94h-151q22 -44 67 -67t103 -23q29 0 57 7l7 -115q-38 -14 -87 -14q-106 0 -185.5 57.5t-105.5 154.5h-99l20 94h68
q0 22 6 64h-60z" />
    <glyph glyph-name="minus.tf" 
d="M33 241v109h475v-109h-475z" />
    <glyph glyph-name="approxequal.tf" 
d="M444 261l71 -58q-57 -100 -163 -100q-53 0 -107 30l-48 26q-28 14 -53 14q-51 0 -87 -47l-73 59q28 48 70.5 74.5t92.5 26.5q53 0 107 -30l47 -26q28 -16 58 -16q51 0 85 47zM444 463l71 -59q-57 -100 -163 -100q-53 0 -107 30l-48 26q-27 15 -54 15q-49 0 -86 -48
l-73 59q28 49 70 75t92 26q52 0 108 -30l47 -26q28 -16 58 -16q51 0 85 48z" />
    <glyph glyph-name="notequal.tf" 
d="M31 341v107h290l60 92h120l-60 -92h75v-107h-145l-59 -91h204v-108h-275l-63 -97h-120l63 97h-90v108h161l59 91h-220z" />
    <glyph glyph-name="lessequal.tf" 
d="M64 44v109h430v-109h-430zM64 316v108l430 136v-110l-279 -78l279 -79v-112z" />
    <glyph glyph-name="greaterequal.tf" 
d="M484 153v-109h-430v109h430zM484 424v-108l-430 -135v110l279 78l-279 79v112z" />
    <glyph glyph-name="parenleft.case" horiz-adv-x="321" 
d="M27 246q0 181 82.5 326.5t238.5 242.5l61 -79q-132 -94 -201.5 -207.5t-69.5 -279.5q0 -165 98 -310l-86 -61q-53 72 -88 168t-35 200z" />
    <glyph glyph-name="parenright.case" horiz-adv-x="323" 
d="M293 447q0 -180 -82.5 -324.5t-238.5 -244.5l-60 79q63 47 108.5 93t84.5 104.5t58.5 131.5t19.5 159q0 165 -99 309l87 61q53 -72 87.5 -168t34.5 -200z" />
    <glyph glyph-name="hyphen.case" horiz-adv-x="365" 
d="M311 288h-290l25 118h291z" />
    <glyph glyph-name="bracketleft.case" horiz-adv-x="320" 
d="M216 -109h-230l196 926h230l-21 -102h-119l-154 -721h120z" />
    <glyph glyph-name="bracketright.case" horiz-adv-x="325" 
d="M137 -109h-230l21 103h119l154 721h-120l22 102h230z" />
    <glyph glyph-name="braceleft.case" horiz-adv-x="370" 
d="M27 300l23 111q104 0 123 92l25 120q22 104 79.5 148.5t151.5 44.5h34l-22 -101h-29q-83 0 -102 -89l-31 -145q-11 -51 -43.5 -85.5t-83.5 -43.5q36 -9 54.5 -36.5t18.5 -65.5q0 -16 -3 -34l-27 -130q-3 -17 -3 -29q0 -63 71 -63h25l-21 -101h-28q-74 0 -116.5 39
t-42.5 110q0 25 6 55l23 109q3 15 3 27q0 67 -85 67z" />
    <glyph glyph-name="braceright.case" horiz-adv-x="371" 
d="M343 409l-24 -111q-45 0 -78.5 -22t-43.5 -70l-25 -120q-22 -104 -80 -148.5t-151 -44.5h-34l21 101h30q82 0 102 89l31 145q11 51 43.5 85.5t83.5 43.5q-74 22 -74 102q0 18 4 34l27 130q3 15 3 28q0 64 -71 64h-25l21 101h28q73 0 116 -39.5t43 -109.5q0 -27 -6 -55
l-24 -109q-3 -13 -3 -26q0 -68 86 -68z" />
    <glyph glyph-name="exclamdown.case" horiz-adv-x="309" 
d="M231 493l-72 -493h-161l136 493h97zM288 646q0 -36 -25.5 -62t-61.5 -26q-32 0 -52 20.5t-20 50.5q0 36 26 62t60 26q32 0 52.5 -20.5t20.5 -50.5z" />
    <glyph glyph-name="guillemotleft.case" horiz-adv-x="520" 
d="M226 151h-120l-100 197l176 194h133l-185 -202zM445 151h-120l-100 197l176 194h133l-185 -202z" />
    <glyph glyph-name="uni00AD.case" horiz-adv-x="365" 
d="M313 295h-290l25 118h291z" />
    <glyph glyph-name="guillemotright.case" horiz-adv-x="518" 
d="M46 542h120l101 -198l-177 -193h-132l184 202zM269 542h120l101 -198l-177 -193h-132l184 202z" />
    <glyph glyph-name="questiondown.case" horiz-adv-x="504" 
d="M241 495h107q-2 -128 -109 -188l-56 -32q-58 -33 -58 -93q0 -32 22 -55t65 -23q55 0 85 38t30 92l124 -14q-2 -101 -70.5 -167.5t-177.5 -66.5q-102 0 -159 52.5t-57 124.5q0 131 136 208l47 27q65 37 71 97zM389 647q0 -36 -26 -62t-62 -26q-32 0 -51.5 20.5t-19.5 50.5
q0 36 26 62t60 26q32 0 52.5 -20.5t20.5 -50.5z" />
    <glyph glyph-name="endash.case" horiz-adv-x="629" 
d="M553 289h-516l24 115h516z" />
    <glyph glyph-name="emdash.case" horiz-adv-x="1073" 
d="M987 289h-940l24 115h940z" />
    <glyph glyph-name="guilsinglleft.case" horiz-adv-x="301" 
d="M226 151h-120l-100 197l176 194h133l-185 -202z" />
    <glyph glyph-name="guilsinglright.case" horiz-adv-x="295" 
d="M46 542h120l101 -198l-177 -193h-132l184 202z" />
    <glyph glyph-name="G.ss01" horiz-adv-x="750" 
d="M417 724q132 0 208.5 -65t92.5 -157l-135 -40q-11 56 -55 93.5t-121 37.5q-98 0 -166 -78t-68 -201q0 -89 50.5 -144t137.5 -55q75 0 125 38.5t66 92.5h-240l26 119h373q-6 -165 -100 -273t-260 -108q-138 0 -228.5 92t-90.5 230q0 96 32.5 177t87 132.5t123 80
t142.5 28.5z" />
    <glyph glyph-name="r.ss03" horiz-adv-x="407" 
d="M301 321q-36 0 -59 23.5t-23 56.5v11l-88 -412h-132l94 442q5 25 5 50h134q0 -18 -4 -40l-6 -26q9 31 36 52t62 21q36 0 58.5 -23.5t22.5 -56.5q0 -40 -29.5 -69t-70.5 -29z" />
    <glyph glyph-name="ampersand.ss04" horiz-adv-x="682" 
d="M639 220h-74q-20 -102 -97.5 -168.5t-189.5 -66.5q-122 0 -190.5 59t-68.5 146q0 92 59 147t132 65q-36 18 -58 52t-22 76q0 85 68 140t155 55q103 0 159 -52t56 -127q0 -16 -3 -34l-132 -5q2 9 2 25q0 35 -20.5 57t-63.5 22q-34 0 -62 -24t-28 -63q0 -36 25 -55t61 -19
l-25 -114h-16q-32 0 -62.5 -10t-56.5 -41t-26 -79q0 -42 32 -72.5t92 -30.5q53 0 92.5 31.5t52.5 85.5h-86l24 115h294z" />
    <glyph glyph-name="one.ss05" horiz-adv-x="454" 
d="M-5 117h132l69 324h-138l20 91q62 2 111 34t69 83h119l-113 -532h156l-25 -117h-425z" />
    <glyph glyph-name="registered.ss06" horiz-adv-x="406" 
d="M42 526q0 79 56 135t135 56t135.5 -56t56.5 -135t-56.5 -135t-135.5 -56t-135 56t-56 135zM95 526q0 -59 40 -100t98 -41t98 41t40 100t-40 100t-98 41t-98 -41t-40 -100zM225 541h16q28 0 28 21q0 20 -20 20h-15zM243 431l-15 65h-12l-14 -65h-56l42 196h78
q27 0 43 -15.5t16 -40.5q0 -24 -13 -41.5t-34 -24.5l21 -74h-56z" />
    <glyph glyph-name="caron.alt" horiz-adv-x="195" 
d="M173 709l-113 -198h-93l70 198h136z" />
    <glyph glyph-name="commaaccent" horiz-adv-x="189" 
d="M-23 541l10 48q5 -1 15 -1q57 0 75 39q-8 -4 -22 -4q-29 0 -45 16t-16 39q0 29 22 49t54 20q34 0 54 -20.5t20 -53.5q0 -61 -41 -97.5t-100 -36.5q-8 0 -26 2z" />
    <glyph glyph-name="commaturn" horiz-adv-x="168" 
d="M128 613q0 -29 -21.5 -49.5t-54.5 -20.5t-53.5 21.5t-20.5 54.5q0 62 43.5 98t100.5 36q11 0 23 -2l-10 -49q-6 2 -16 2q-31 0 -50 -12.5t-24 -27.5q5 5 23 5q29 0 44.5 -16t15.5 -40z" />
    <glyph glyph-name="dieresis.narrow" horiz-adv-x="314" 
d="M-25 621q0 29 22.5 51.5t52.5 22.5q27 0 44 -17.5t17 -42.5q0 -31 -23 -52.5t-52 -21.5q-28 0 -44.5 17t-16.5 43zM143 621q0 29 22.5 51.5t52.5 22.5q27 0 44 -17.5t17 -42.5q0 -31 -23 -52.5t-52 -21.5q-28 0 -44.5 17t-16.5 43z" />
    <glyph glyph-name="dieresis.uc.narrow" horiz-adv-x="335" 
d="M-24 815q0 31 22.5 54t54.5 23q26 0 43.5 -18t17.5 -43q0 -33 -22.5 -54.5t-53.5 -21.5q-27 0 -44.5 17t-17.5 43zM161 815q0 31 22.5 54t54.5 23q26 0 43.5 -18t17.5 -43q0 -33 -22.5 -54.5t-53.5 -21.5q-27 0 -44.5 17t-17.5 43z" />
    <glyph glyph-name="grave.uc" horiz-adv-x="274" 
d="M104 759l-116 127h155l76 -127h-115z" />
    <glyph glyph-name="dieresis.uc" horiz-adv-x="426" 
d="M-19 815q0 31 23.5 55.5t56.5 24.5q29 0 47 -18.5t18 -45.5q0 -34 -23.5 -57t-55.5 -23q-29 0 -47.5 18t-18.5 46zM240 815q0 31 23.5 55.5t56.5 24.5q29 0 47 -18.5t18 -45.5q0 -34 -23.5 -57t-55.5 -23q-29 0 -47.5 18t-18.5 46z" />
    <glyph glyph-name="macron.uc" horiz-adv-x="319" 
d="M272 774h-304l20 100h305z" />
    <glyph glyph-name="acute.uc" horiz-adv-x="274" 
d="M259 886l-169 -127h-128l128 127h169z" />
    <glyph glyph-name="circumflex.uc" horiz-adv-x="393" 
d="M89 759h-125l146 127h137l94 -127h-116l-54 65z" />
    <glyph glyph-name="caron.uc" horiz-adv-x="393" 
d="M245 886h128l-148 -127h-137l-92 127h115l53 -64z" />
    <glyph glyph-name="breve.uc" horiz-adv-x="350" 
d="M140 754q-65 0 -105 32t-40 86q0 11 2 17h96q-1 -5 -1 -10q0 -18 14 -29.5t40 -11.5q30 0 48.5 14.5t24.5 36.5h104q-15 -55 -62.5 -95t-120.5 -40z" />
    <glyph glyph-name="dotaccent.uc" horiz-adv-x="176" 
d="M-23 827q0 34 26.5 60t62.5 26q32 0 52.5 -20.5t20.5 -49.5q0 -37 -26 -63t-62 -26q-32 0 -53 21t-21 52z" />
    <glyph glyph-name="ring.uc" horiz-adv-x="276" 
d="M111 917q-20 0 -36 -15.5t-16 -37.5q0 -19 12 -30t32 -11q21 0 37 14.5t16 37.5q0 19 -12.5 30.5t-32.5 11.5zM-23 857q0 58 42 98.5t100 40.5q51 0 86 -32.5t35 -81.5q0 -58 -43.5 -98.5t-99.5 -40.5q-50 0 -85 32.5t-35 81.5z" />
    <glyph glyph-name="tilde.uc" horiz-adv-x="354" 
d="M342 890q-20 -137 -123 -137q-35 0 -73 24l-5 3q-34 20 -47 20q-29 0 -36 -43h-85q7 71 42 103.5t84 32.5q34 0 74 -25l3 -2q29 -19 44 -19q30 0 37 43h85z" />
    <glyph glyph-name="hungarumlaut.uc" horiz-adv-x="365" 
d="M170 886l-121 -127h-88l78 127h131zM343 886l-134 -127h-90l92 127h132z" />
    <glyph glyph-name="caron.alt.uc" horiz-adv-x="194" 
d="M176 709l-118 -208h-97l73 208h142z" />
    <glyph glyph-name="undercommaaccent" horiz-adv-x="169" 
d="M-21 -111q0 29 21.5 49t54.5 20q34 0 54.5 -21t20.5 -54q0 -63 -42 -98t-98 -35q-17 0 -29 3l11 47q5 -1 14 -1q59 0 75 39q-4 -4 -21 -4q-29 0 -45 16t-16 39z" />
    </font>
</defs>
</svg>
