<?xml version="1.0" standalone="no"?>
<!DOCTYPE svg PUBLIC "-//W3C//DTD SVG 1.1//EN" "http://www.w3.org/Graphics/SVG/1.1/DTD/svg11.dtd" >
<svg xmlns="http://www.w3.org/2000/svg" xmlns:xlink="http://www.w3.org/1999/xlink" version="1.1">
<metadata>
Created by FontForge 20170731 at Thu Apr 11 17:38:01 2013
 By Aleksey,,,
Generated in 2013 by FontLab Studio. Copyright info pending.
</metadata>
<defs>
<font id="CircularStd-MediumItalic" horiz-adv-x="570" >
  <font-face 
    font-family="Circular Std Medium Italic"
    font-weight="500"
    font-style="italic"
    font-stretch="normal"
    units-per-em="1000"
    panose-1="2 11 6 4 2 1 1 1 1 2"
    ascent="809"
    descent="-191"
    x-height="487"
    cap-height="709"
    bbox="-134 -234 1577 979"
    underline-thickness="80"
    underline-position="-355"
    slope="-12"
    unicode-range="U+000D-FEFF"
  />
<missing-glyph horiz-adv-x="569" 
d="M2 0v709h565v-709h-565zM98 96h373v517h-373v-517z" />
    <glyph glyph-name="f_f" unicode="ff" horiz-adv-x="652" 
d="M144 0h-117l82 387h-82l21 100h83l18 86q33 157 184 157q47 0 73 -15l-21 -96l-5 1q-4 2 -14.5 4.5t-21.5 2.5q-66 0 -81 -69l-16 -71h187l18 86q33 157 184 157q47 0 73 -15l-21 -96l-4 1q-5 2 -15.5 4.5t-21.5 2.5q-66 0 -81 -69l-15 -71h106l-21 -100h-107l-81 -387
h-118l82 387h-186z" />
    <glyph glyph-name="f_f_i" unicode="ffi" horiz-adv-x="909" 
d="M762 653q0 34 25 58t58 24q30 0 49 -19t19 -47q0 -35 -25 -59t-58 -24q-30 0 -49 19.5t-19 47.5zM144 0h-117l82 387h-82l21 100h83l18 86q33 157 184 157q47 0 73 -15l-21 -96l-5 1q-4 2 -14.5 4.5t-21.5 2.5q-66 0 -81 -69l-16 -71h187l18 86q33 157 184 157
q47 0 73 -15l-21 -96l-4 1q-5 2 -15.5 4.5t-21.5 2.5q-66 0 -81 -69l-15 -71h309l-104 -487h-115l83 387h-195l-81 -387h-118l82 387h-186z" />
    <glyph glyph-name="f_f_l" unicode="ffl" horiz-adv-x="914" 
d="M144 0h-117l82 387h-82l21 100h83l18 86q33 157 184 157q47 0 73 -15l-21 -96l-5 1q-4 2 -14.5 4.5t-21.5 2.5q-66 0 -81 -69l-16 -71h187l18 86q33 157 184 157q47 0 73 -15l-21 -96l-4 1q-5 2 -15.5 4.5t-21.5 2.5q-66 0 -81 -69l-15 -71h200l51 237h115l-154 -724
h-115l82 387h-201l-81 -387h-118l82 387h-186z" />
    <glyph glyph-name="f_i" unicode="fi" horiz-adv-x="612" 
d="M226 387l-82 -387h-117l82 387h-82l21 100h83l19 89q32 154 183 154q47 0 73 -15l-21 -96l-5 1q-4 2 -15 4.5t-22 2.5q-66 0 -81 -72l-15 -68h316l-104 -487h-115l82 387h-200zM465 653q0 34 25 58t58 24q30 0 49 -19t19 -47q0 -35 -25 -59t-58 -24q-30 0 -49 19.5
t-19 47.5z" />
    <glyph glyph-name="f_l" unicode="fl" horiz-adv-x="610" 
d="M226 387l-82 -387h-117l82 387h-82l21 100h83l19 89q32 154 183 154q47 0 73 -15l-21 -96l-5 1q-4 2 -15 4.5t-22 2.5q-66 0 -81 -72l-15 -68h200l51 237h115l-154 -724h-115l82 387h-200z" />
    <glyph glyph-name=".notdef" horiz-adv-x="569" 
d="M2 0v709h565v-709h-565zM98 96h373v517h-373v-517z" />
    <glyph glyph-name=".null" horiz-adv-x="0" 
 />
    <glyph glyph-name=".null" horiz-adv-x="0" 
 />
    <glyph glyph-name="uni000D" unicode="&#xd;" horiz-adv-x="261" 
 />
    <glyph glyph-name="space" unicode=" " horiz-adv-x="261" 
 />
    <glyph glyph-name="exclam" unicode="!" horiz-adv-x="311" 
d="M80 210l75 499h143l-134 -499h-84zM22 58q0 33 23.5 57.5t56.5 24.5q30 0 48.5 -18.5t18.5 -46.5q0 -34 -24.5 -58t-55.5 -24q-29 0 -48 18.5t-19 46.5z" />
    <glyph glyph-name="quotedbl" unicode="&#x22;" horiz-adv-x="413" 
d="M128 383h-42l-4 200q0 33 20.5 54.5t53.5 21.5q28 0 46 -17t18 -43q0 -17 -10 -39zM309 383h-42l-4 200q0 33 20.5 54.5t53.5 21.5q28 0 46 -17t18 -43q0 -17 -10 -39z" />
    <glyph glyph-name="numbersign" unicode="#" horiz-adv-x="724" 
d="M83 400v87h143l35 161h96l-35 -161h136l35 161h95l-35 -161h131v-87h-149l-32 -149h131v-87h-150l-35 -164h-95l35 164h-136l-35 -164h-96l35 164h-124v87h143l32 149h-125zM304 400l-32 -149h135l33 149h-136z" />
    <glyph glyph-name="dollar" unicode="$" 
d="M149 -117l24 113q-79 22 -119 80t-40 123q0 19 1 19l108 18q-1 -6 -1 -18q0 -39 18 -72t54 -49l40 190l-12 6q-122 59 -122 171q0 83 61.5 139t152.5 60l22 103h94l-24 -114q71 -20 105 -72t34 -104l-107 -20q0 66 -54 94l-40 -192l7 -3q132 -65 132 -174
q0 -79 -60.5 -136t-157.5 -60l-21 -102h-95zM213 475q0 -48 45 -75l34 161q-36 -7 -57.5 -31t-21.5 -55zM367 172q0 43 -47 72l-33 -156q37 7 58 29t22 55z" />
    <glyph glyph-name="percent" unicode="%" horiz-adv-x="781" 
d="M202 425q31 0 54.5 23.5t23.5 61.5q0 28 -17 45t-46 17q-30 0 -53.5 -24t-23.5 -60q0 -28 16.5 -45.5t45.5 -17.5zM194 338q-63 0 -104.5 41.5t-41.5 102.5q0 74 53 125.5t125 51.5q63 0 104.5 -42t41.5 -103q0 -74 -54.5 -125t-123.5 -51zM566 80q31 0 54.5 23.5
t23.5 61.5q0 28 -17 45t-46 17q-30 0 -53.5 -24t-23.5 -60q0 -28 16.5 -45.5t45.5 -17.5zM558 -7q-63 0 -104.5 41.5t-41.5 102.5q0 74 53 125.5t125 51.5q63 0 104.5 -42t41.5 -103q0 -74 -54.5 -125t-123.5 -51zM743 648l-598 -648h-110l599 648h109z" />
    <glyph glyph-name="ampersand" unicode="&#x26;" horiz-adv-x="680" 
d="M598 0h-135l-56 80l-11 -9q-93 -79 -190 -79q-88 0 -142 52.5t-54 126.5t43 123.5t121 91.5l15 8l-11 15q-50 70 -50 130q0 87 60.5 136t141.5 49t129.5 -46t48.5 -113q0 -63 -38 -104.5t-101 -76.5l-28 -16l94 -135l211 180l-33 -157l-122 -104zM128 178q0 -34 25.5 -58
t65.5 -24q54 0 124 59l8 6l-107 153l-35 -19q-43 -24 -62 -50.5t-19 -66.5zM286 446l34 18q75 39 75 97q0 29 -20 47t-53 18q-31 0 -56 -21t-25 -62q0 -33 25 -68z" />
    <glyph glyph-name="quotesingle" unicode="'" horiz-adv-x="225" 
d="M128 383h-42l-4 200q0 33 20.5 54.5t53.5 21.5q28 0 46 -17t18 -43q0 -17 -10 -39z" />
    <glyph glyph-name="parenleft" unicode="(" horiz-adv-x="305" 
d="M32 204q0 187 80.5 341t235.5 259l53 -72q-270 -197 -270 -522q0 -167 94 -318l-79 -49q-114 169 -114 361z" />
    <glyph glyph-name="parenright" unicode=")" horiz-adv-x="306" 
d="M272 436q0 -183 -81.5 -335t-235.5 -262l-53 71q271 205 271 525q0 167 -93 315l79 49q113 -169 113 -363z" />
    <glyph glyph-name="asterisk" unicode="*" horiz-adv-x="444" 
d="M336 709l-25 -130l126 40l12 -88l-128 -40l60 -100l-79 -53l-61 106l-99 -106l-66 54l100 105l-113 39l41 83l112 -40l21 130h99z" />
    <glyph glyph-name="plus" unicode="+" horiz-adv-x="576" 
d="M330 244v-197h-99v197h-188v95h188v195h99v-195h189v-95h-189z" />
    <glyph glyph-name="comma" unicode="," horiz-adv-x="286" 
d="M4 63q0 37 26 61.5t64 24.5t61.5 -25t23.5 -66q0 -88 -62 -153t-152 -70l13 61q40 6 75 35.5t43 67.5q-8 -4 -23 -4q-30 0 -49.5 19t-19.5 49z" />
    <glyph glyph-name="hyphen" unicode="-" horiz-adv-x="362" 
d="M297 241h-282l22 103h281z" />
    <glyph glyph-name="period" unicode="." horiz-adv-x="272" 
d="M75 -6q-33 0 -54 21.5t-21 51.5q0 36 27 62.5t64 26.5q33 0 53.5 -21t20.5 -51q0 -37 -26.5 -63.5t-63.5 -26.5z" />
    <glyph glyph-name="slash" unicode="/" horiz-adv-x="465" 
d="M550 724l-517 -739h-113l516 739h114z" />
    <glyph glyph-name="zero" unicode="0" horiz-adv-x="607" 
d="M147 239q0 -68 29.5 -107.5t89.5 -39.5q48 0 85.5 33t58 84.5t30.5 104t10 99.5q0 143 -119 143q-48 0 -85.5 -32.5t-58 -83t-30.5 -102t-10 -99.5zM259 -15q-60 0 -105.5 21t-72 57.5t-40 80.5t-13.5 94q0 55 10.5 111.5t34.5 113.5t59 101t88.5 71.5t117.5 27.5
q118 0 174.5 -72t56.5 -178q0 -72 -18.5 -144.5t-54.5 -137.5t-98 -105.5t-139 -40.5z" />
    <glyph glyph-name="one" unicode="1" horiz-adv-x="356" 
d="M192 0h-119l97 453h-140l17 78q61 4 109 35.5t69 81.5h104z" />
    <glyph glyph-name="two" unicode="2" horiz-adv-x="544" 
d="M-32 0q4 24 4 27q35 182 207 261l120 55q109 50 109 126q0 38 -25.5 64t-74.5 26q-58 0 -91.5 -39t-33.5 -106v-8l-114 11v6q0 103 67 171.5t178 68.5q105 0 159.5 -52.5t54.5 -133.5q0 -143 -170 -222l-140 -64q-64 -30 -89 -85h334l-23 -106h-472z" />
    <glyph glyph-name="three" unicode="3" horiz-adv-x="542" 
d="M209 305l-42 98l216 140h-300l21 105h450l-26 -125l-204 -133q64 -7 107.5 -53.5t43.5 -118.5q0 -94 -70.5 -163.5t-181.5 -69.5q-107 0 -169 61.5t-62 145.5q0 14 2 23l117 13q-2 -16 -2 -22q0 -49 31 -83t84 -34q56 0 92.5 34.5t36.5 88.5q0 49 -31.5 74t-74.5 25
q-16 0 -38 -6z" />
    <glyph glyph-name="four" unicode="4" horiz-adv-x="592" 
d="M-10 142l27 132l362 374h149l-86 -400h115l-22 -106h-116l-28 -142h-118l28 142h-311zM324 248l59 271l-261 -271h202z" />
    <glyph glyph-name="five" unicode="5" horiz-adv-x="538" 
d="M-5 193v6l114 22q-1 -6 -1 -14q0 -49 30 -84t86 -35q54 0 92 35.5t38 97.5q0 49 -30 77t-80 28q-56 0 -97 -34l-103 56l137 300h357l-22 -105h-271l-68 -145q41 25 99 25q91 0 145.5 -50.5t54.5 -138.5q0 -104 -71 -176.5t-183 -72.5q-100 0 -163.5 60t-63.5 148z" />
    <glyph glyph-name="six" unicode="6" horiz-adv-x="566" 
d="M575 625l-47 -93q-52 26 -119 26q-88 0 -154 -49.5t-91 -135.5q55 57 145 57q93 0 147.5 -52t54.5 -137q0 -113 -76 -184.5t-184 -71.5q-98 0 -163.5 66.5t-65.5 179.5q0 115 47 212t137.5 157t206.5 60q109 0 162 -35zM276 331q-57 0 -95 -37t-38 -94q0 -49 32 -80.5
t81 -31.5q54 0 93 37t39 99q0 49 -30 78t-82 29z" />
    <glyph glyph-name="seven" unicode="7" horiz-adv-x="506" 
d="M549 648l-22 -105q-27 -18 -55.5 -41t-77 -72.5t-90.5 -106t-86 -142.5t-72 -181h-126q26 99 72.5 190.5t88 147.5t94.5 108.5t72 67t40 29.5h-343l22 105h483z" />
    <glyph glyph-name="eight" unicode="8" horiz-adv-x="557" 
d="M292 376q51 0 84 29.5t33 75.5q0 34 -25.5 59t-69.5 25q-56 0 -87.5 -30t-31.5 -75q0 -35 25.5 -59.5t71.5 -24.5zM121 175q0 -42 31 -67t82 -25q55 0 91 31.5t36 78.5q0 40 -28.5 66.5t-82.5 26.5q-57 0 -93 -31.5t-36 -79.5zM479 186q0 -91 -73.5 -146t-179.5 -55
q-102 0 -163 49t-61 129q0 63 43 110t117 63q-34 15 -58.5 51.5t-24.5 78.5q0 88 68.5 142.5t169.5 54.5q99 0 155.5 -47.5t56.5 -119.5q0 -60 -38 -106t-104 -64q42 -15 67 -54.5t25 -85.5z" />
    <glyph glyph-name="nine" unicode="9" horiz-adv-x="562" 
d="M165 428q0 -48 30.5 -77.5t80.5 -29.5q56 0 92.5 36.5t36.5 93.5q0 49 -31 79t-79 30q-53 0 -91.5 -35.5t-38.5 -96.5zM-22 38l48 92q57 -38 135 -38q90 0 153 53.5t78 142.5q-48 -65 -145 -65q-88 0 -145.5 54.5t-57.5 141.5q0 110 75.5 177t181.5 67q102 0 166 -64
t64 -181q0 -193 -101 -313t-270 -120q-115 0 -182 53z" />
    <glyph glyph-name="colon" unicode=":" horiz-adv-x="294" 
d="M79 -6q-32 0 -53 21.5t-21 50.5q0 36 26.5 62t63.5 26q33 0 53 -20.5t20 -50.5q0 -37 -26 -63t-63 -26zM153 332q-32 0 -53 21.5t-21 50.5q0 36 26.5 62t63.5 26q33 0 53 -20.5t20 -50.5q0 -37 -26 -63t-63 -26z" />
    <glyph glyph-name="semicolon" unicode=";" horiz-adv-x="294" 
d="M-1 61q0 36 25 59.5t61 23.5t58.5 -24t22.5 -64q0 -84 -59 -146t-145 -67l12 59q38 5 71.5 33t41.5 65q-8 -4 -22 -4q-29 0 -47.5 18.5t-18.5 46.5zM153 334q-32 0 -53 21.5t-21 50.5q0 36 26.5 62t63.5 26q33 0 53 -20.5t20 -50.5q0 -37 -26 -63t-63 -26z" />
    <glyph glyph-name="less" unicode="&#x3c;" horiz-adv-x="495" 
d="M23 244v94l422 212v-111l-302 -147l302 -148v-111z" />
    <glyph glyph-name="equal" unicode="=" horiz-adv-x="618" 
d="M62 343v94h475v-94h-475zM62 146v95h475v-95h-475z" />
    <glyph glyph-name="greater" unicode="&#x3e;" horiz-adv-x="495" 
d="M452 338v-94l-422 -211v110l303 148l-303 147v112z" />
    <glyph glyph-name="question" unicode="?" horiz-adv-x="505" 
d="M252 209h-97q5 128 113 190l54 31q68 39 68 104q0 35 -24.5 60t-71.5 25q-62 0 -95 -41t-33 -101l-111 14q2 102 70.5 167.5t177.5 65.5q98 0 153 -50.5t55 -122.5q0 -129 -139 -208l-50 -28q-64 -38 -70 -106zM115 58q0 33 23.5 57.5t56.5 24.5q30 0 48.5 -18.5
t18.5 -46.5q0 -34 -24.5 -58t-55.5 -24q-30 0 -48.5 18.5t-18.5 46.5z" />
    <glyph glyph-name="at" unicode="@" horiz-adv-x="810" 
d="M431 -47q-177 0 -289 105t-112 274q0 171 114 281.5t277 110.5q154 0 256.5 -93.5t102.5 -233.5q0 -111 -59 -184.5t-140 -74.5q-36 0 -61.5 16.5t-33.5 43.5q-20 -29 -52.5 -45.5t-66.5 -16.5q-66 0 -109 48t-43 124q0 97 58.5 163t139.5 66q32 0 61.5 -15t40.5 -43
l8 45h88l-53 -248q-2 -18 -2 -24q0 -35 34 -35q40 0 71.5 53t31.5 126q0 108 -75.5 177t-195.5 69q-130 0 -214.5 -86t-84.5 -224q0 -131 83 -214.5t225 -83.5q110 0 194 64l44 -61q-40 -38 -107.5 -61t-130.5 -23zM493 368q0 40 -19.5 62.5t-55.5 22.5q-48 0 -78.5 -40
t-30.5 -95q0 -99 77 -99q45 0 75 41.5t32 107.5z" />
    <glyph glyph-name="A" unicode="A" horiz-adv-x="668" 
d="M477 0l-27 178h-285l-102 -178h-135l419 709h135l118 -709h-123zM390 574l-162 -285h205z" />
    <glyph glyph-name="B" unicode="B" horiz-adv-x="607" 
d="M160 709h226q90 0 138 -45.5t48 -119.5q0 -63 -39 -115.5t-100 -69.5q42 -13 70.5 -51.5t28.5 -90.5q0 -94 -68.5 -155.5t-175.5 -61.5h-278zM215 409h102q60 0 97 32.5t37 83.5q0 38 -25.5 60t-73.5 22h-95zM150 102h121q61 0 100.5 33.5t39.5 86.5q0 39 -25.5 62.5
t-77.5 23.5h-114z" />
    <glyph glyph-name="C" unicode="C" horiz-adv-x="719" 
d="M416 724q128 0 202 -65.5t92 -161.5l-115 -35q-13 64 -60.5 106.5t-127.5 42.5q-110 0 -180.5 -86t-70.5 -214q0 -97 52.5 -155t142.5 -58q141 0 206 145l106 -43q-40 -95 -122 -155t-201 -60q-135 0 -221 89.5t-86 229.5q0 98 33 179.5t87.5 133t122.5 79.5t140 28z" />
    <glyph glyph-name="D" unicode="D" horiz-adv-x="699" 
d="M152 111h136q99 0 177 80.5t78 222.5q0 87 -52.5 136.5t-143.5 49.5h-91zM286 0h-276l149 709h203q139 0 221 -79.5t82 -210.5q0 -99 -32 -180.5t-86 -132.5t-121 -78.5t-140 -27.5z" />
    <glyph glyph-name="E" unicode="E" horiz-adv-x="578" 
d="M445 0h-435l150 709h435l-24 -112h-314l-40 -188h285l-24 -109h-284l-41 -188h315z" />
    <glyph glyph-name="F" unicode="F" horiz-adv-x="562" 
d="M130 0h-120l150 709h437l-24 -113h-317l-42 -199h284l-23 -111h-284z" />
    <glyph glyph-name="G" unicode="G" horiz-adv-x="749" 
d="M408 612q-109 0 -181 -86t-72 -215q0 -98 52.5 -157t143.5 -59q76 0 135 43.5t78 115.5h-231l22 105h344l-76 -359h-92l5 76q-74 -90 -201 -90q-131 0 -216.5 87.5t-85.5 230.5q0 98 33 179.5t87.5 133t123 79.5t141.5 28q127 0 201.5 -64.5t92.5 -159.5l-116 -34
q-13 63 -60.5 104.5t-127.5 41.5z" />
    <glyph glyph-name="H" unicode="H" horiz-adv-x="717" 
d="M557 0h-121l64 303h-306l-64 -303h-120l150 709h120l-62 -293h306l62 293h121z" />
    <glyph glyph-name="I" unicode="I" horiz-adv-x="292" 
d="M132 0h-122l150 709h122z" />
    <glyph glyph-name="J" unicode="J" horiz-adv-x="549" 
d="M428 709h121l-109 -512q-21 -97 -81.5 -154t-151.5 -57q-95 0 -148.5 53.5t-53.5 138.5q0 32 7 67l5 24l119 18l-11 -54q-5 -30 -5 -39q0 -44 23.5 -71t68.5 -27q86 0 109 110z" />
    <glyph glyph-name="K" unicode="K" horiz-adv-x="677" 
d="M452 0l-164 311l-114 -101l-44 -210h-120l150 709h120l-68 -319l359 319h166l-356 -315l210 -394h-139z" />
    <glyph glyph-name="L" unicode="L" horiz-adv-x="546" 
d="M446 0h-436l150 709h120l-126 -595h316z" />
    <glyph glyph-name="M" unicode="M" horiz-adv-x="937" 
d="M776 0h-118l109 516l-321 -516h-93l-118 512l-109 -512h-116l150 709h145l124 -536l331 536h167z" />
    <glyph glyph-name="N" unicode="N" horiz-adv-x="744" 
d="M583 0h-122l-218 534l-113 -534h-120l150 709h140l205 -509l108 509h121z" />
    <glyph glyph-name="O" unicode="O" horiz-adv-x="756" 
d="M33 299q0 99 32.5 181.5t86.5 134.5t121 80.5t139 28.5q141 0 225.5 -86.5t84.5 -227.5q0 -100 -32.5 -182t-86 -134t-120.5 -80.5t-139 -28.5q-140 0 -225.5 86.5t-85.5 227.5zM600 401q0 98 -53 154t-141 56q-109 0 -179 -87.5t-71 -215.5q0 -98 53 -154t141 -56
q109 0 178.5 87.5t71.5 215.5z" />
    <glyph glyph-name="P" unicode="P" horiz-adv-x="590" 
d="M160 709h228q94 0 150.5 -53t56.5 -136q0 -109 -75.5 -174.5t-192.5 -65.5h-138l-59 -280h-120zM364 604h-105l-48 -219h115q65 0 105 33t41 94q0 42 -27.5 67t-80.5 25z" />
    <glyph glyph-name="Q" unicode="Q" horiz-adv-x="758" 
d="M33 299q0 99 32.5 181.5t86.5 134.5t121 80.5t139 28.5q141 0 225.5 -86.5t84.5 -227.5q0 -206 -131 -327l75 -103l-90 -59l-73 101q-77 -37 -159 -37q-140 0 -225.5 86.5t-85.5 227.5zM330 262l90 59l102 -143q76 89 78 223q0 98 -53 154t-141 56q-109 0 -179 -87.5
t-71 -215.5q0 -98 53 -154t141 -56q44 0 86 17z" />
    <glyph glyph-name="R" unicode="R" horiz-adv-x="622" 
d="M400 0l-102 283h-108l-60 -283h-120l150 709h239q94 0 147 -50.5t53 -130.5q0 -88 -50.5 -149t-133.5 -83l113 -296h-128zM212 388h121q64 0 103.5 34.5t39.5 92.5q0 41 -25.5 65t-75.5 24h-117z" />
    <glyph glyph-name="S" unicode="S" horiz-adv-x="583" 
d="M264 91q55 0 88 27t33 70q0 60 -67 90l-89 40q-134 60 -134 187q0 94 71 156.5t175 62.5q64 0 112.5 -20.5t74.5 -53t38 -65.5t12 -65l-113 -20q0 16 -4.5 32.5t-17 37.5t-40.5 34.5t-68 13.5q-54 0 -86 -28.5t-32 -71.5q0 -59 60 -86l89 -40q144 -64 144 -192
q0 -87 -68 -151t-177 -64q-68 0 -121 21.5t-82.5 57t-44.5 75t-15 80.5q0 3 0.5 9t0.5 9l116 20q-1 -7 -1 -21q0 -60 36.5 -102.5t109.5 -42.5z" />
    <glyph glyph-name="T" unicode="T" horiz-adv-x="581" 
d="M619 597h-212l-127 -597h-120l126 597h-221l24 112h554z" />
    <glyph glyph-name="U" unicode="U" horiz-adv-x="671" 
d="M550 709h121l-103 -489q-24 -112 -97.5 -173.5t-178.5 -61.5q-110 0 -175.5 59t-65.5 160q0 32 8 72l91 433h118l-91 -442q-6 -27 -6 -50q0 -55 32 -86t97 -31q59 0 98 35t53 102z" />
    <glyph glyph-name="V" unicode="V" horiz-adv-x="637" 
d="M197 709l74 -552l307 552h131l-407 -709h-121l-106 709h122z" />
    <glyph glyph-name="W" unicode="W" horiz-adv-x="976" 
d="M496 709h124l59 -522l236 522h125l-333 -709h-119l-59 536l-267 -536h-125l-50 709h118l33 -518z" />
    <glyph glyph-name="X" unicode="X" horiz-adv-x="645" 
d="M302 250l-212 -250h-150l311 357l-162 352h135l113 -253l214 253h150l-313 -360l161 -349h-136z" />
    <glyph glyph-name="Y" unicode="Y" horiz-adv-x="619" 
d="M246 302l-159 407h127l110 -292l211 292h144l-314 -411l-62 -298h-121z" />
    <glyph glyph-name="Z" unicode="Z" horiz-adv-x="625" 
d="M507 0h-537l25 116l475 481h-364l24 112h523l-24 -112l-481 -484h383z" />
    <glyph glyph-name="bracketleft" unicode="[" horiz-adv-x="305" 
d="M192 -157h-214l203 956h213l-19 -89h-118l-165 -777h119z" />
    <glyph glyph-name="backslash" unicode="\" horiz-adv-x="438" 
d="M274 -15l-214 739h102l213 -739h-101z" />
    <glyph glyph-name="bracketright" unicode="]" horiz-adv-x="308" 
d="M110 -157h-213l19 90h118l165 777h-119l19 89h214z" />
    <glyph glyph-name="asciicircum" unicode="^" horiz-adv-x="561" 
d="M246 710h94l196 -358h-113l-129 244l-130 -244h-114z" />
    <glyph glyph-name="underscore" unicode="_" horiz-adv-x="521" 
d="M-65 -96v96h511v-96h-511z" />
    <glyph glyph-name="grave" unicode="`" horiz-adv-x="275" 
d="M90 548l-99 148h132l57 -148h-90z" />
    <glyph glyph-name="a" unicode="a" horiz-adv-x="574" 
d="M268 398q-66 0 -105 -58t-39 -131q0 -54 27.5 -86.5t76.5 -32.5q60 0 101 55t41 140q0 51 -26.5 82t-75.5 31zM418 487h113l-79 -371q-10 -50 -10 -92q0 -13 1 -24h-108q-1 9 -1 20q0 18 2 40q-54 -69 -134 -69q-91 0 -142.5 60.5t-51.5 154.5q0 123 71.5 208.5
t179.5 85.5q59 0 95 -21t51 -50z" />
    <glyph glyph-name="b" unicode="b" horiz-adv-x="581" 
d="M104 0h-112l152 724h114l-58 -277q47 52 138 52t140 -58.5t49 -149.5q0 -131 -72.5 -217.5t-184.5 -86.5q-53 0 -93.5 24.5t-56.5 61.5zM297 398q-61 0 -103 -52t-42 -133q0 -55 30 -89t79 -34q58 0 103.5 50.5t45.5 135.5q0 59 -30 90.5t-83 31.5z" />
    <glyph glyph-name="c" unicode="c" horiz-adv-x="511" 
d="M483 343l-105 -33q-8 37 -36 62t-74 25q-60 0 -104 -48.5t-44 -134.5q0 -57 32.5 -91t86.5 -34q79 0 122 81l96 -39q-30 -63 -87 -104.5t-137 -41.5q-103 0 -165.5 64t-62.5 163q0 127 79.5 208.5t191.5 81.5q91 0 142 -47t65 -112z" />
    <glyph glyph-name="d" unicode="d" horiz-adv-x="576" 
d="M581 724l-129 -608q-11 -55 -11 -92q0 -17 1 -24h-107q-1 9 -1 25q0 17 2 35q-54 -69 -134 -69q-91 0 -142.5 60.5t-51.5 154.5q0 123 71.5 208.5t179.5 85.5q106 0 145 -69l62 293h115zM268 398q-66 0 -105 -58t-39 -131q0 -54 27.5 -86.5t76.5 -32.5q60 0 101 55
t41 140q0 51 -26.5 82t-75.5 31z" />
    <glyph glyph-name="e" unicode="e" horiz-adv-x="534" 
d="M133 297h234q0 1 0.5 6.5t0.5 8.5q0 37 -24 65t-75 28q-52 0 -87 -31t-49 -77zM467 212h-347q-1 -5 -1 -11q0 -52 32.5 -84.5t82.5 -32.5q45 0 76.5 20t47.5 51l89 -49q-27 -52 -83.5 -86.5t-132.5 -34.5q-94 0 -158.5 60.5t-64.5 162.5q0 131 79.5 212.5t184.5 81.5
q98 0 153.5 -55.5t55.5 -145.5q0 -45 -14 -89z" />
    <glyph glyph-name="f" unicode="f" horiz-adv-x="349" 
d="M333 387h-107l-82 -387h-117l82 387h-82l21 100h83l19 89q32 154 183 154q47 0 73 -15l-21 -96l-5 1q-4 2 -15 4.5t-22 2.5q-66 0 -81 -72l-15 -68h107z" />
    <glyph glyph-name="g" unicode="g" horiz-adv-x="573" 
d="M371 290q0 44 -28 75t-78 31q-60 0 -99.5 -43.5t-39.5 -115.5q0 -51 28 -83t80 -32q60 0 98.5 45.5t38.5 122.5zM-49 -23l105 23q0 -51 31.5 -78t77.5 -27q123 0 156 148l8 36q-38 -53 -121 -53q-91 0 -144.5 57.5t-53.5 145.5q0 114 70 191t177 77q53 0 91 -19.5
t56 -50.5l12 60h115l-92 -443q-11 -51 -31 -93.5t-51.5 -78.5t-80.5 -56.5t-111 -20.5q-102 0 -158 54.5t-56 127.5z" />
    <glyph glyph-name="h" unicode="h" horiz-adv-x="569" 
d="M426 0h-115l62 288q4 22 4 31q0 37 -21.5 58t-60.5 21q-46 0 -76 -33t-41 -82l-61 -283h-115l153 724h116l-59 -277q47 54 133 54q70 0 110.5 -40.5t40.5 -108.5q0 -31 -5 -51z" />
    <glyph glyph-name="i" unicode="i" horiz-adv-x="268" 
d="M121 653q0 34 25 58t58 24q30 0 49 -19t19 -47q0 -35 -25 -59t-58 -24q-30 0 -49 19.5t-19 47.5zM115 0h-115l104 487h115z" />
    <glyph glyph-name="j" unicode="j" horiz-adv-x="267" 
d="M-8 -43l114 530h114l-118 -557q-14 -65 -55.5 -100t-100.5 -35q-56 0 -80 19l19 90q21 -7 42 -7q29 0 43.5 13.5t21.5 46.5zM123 653q0 34 25 58t58 24q30 0 49 -19t19 -47q0 -35 -25.5 -59t-57.5 -24q-30 0 -49 19.5t-19 47.5z" />
    <glyph glyph-name="k" unicode="k" horiz-adv-x="545" 
d="M331 0l-100 211l-86 -72l-29 -139h-114l153 724h115l-90 -421l216 184h164l-241 -202l140 -285h-128z" />
    <glyph glyph-name="l" unicode="l" horiz-adv-x="266" 
d="M115 0h-115l154 724h115z" />
    <glyph glyph-name="m" unicode="m" horiz-adv-x="853" 
d="M414 0h-115l62 295q3 15 3 30q0 34 -19.5 54t-57.5 20q-43 0 -70.5 -29.5t-38.5 -79.5l-62 -290h-114l85 403q11 51 11 84h112q0 -24 -4 -49q51 63 137 63q44 0 76.5 -20.5t48.5 -55.5q59 76 165 76q63 0 105 -40.5t42 -107.5q0 -24 -5 -47l-65 -306h-115l63 295
q3 15 3 28q0 35 -19.5 55.5t-57.5 20.5q-42 0 -70 -30t-38 -79z" />
    <glyph glyph-name="n" unicode="n" horiz-adv-x="569" 
d="M426 0h-115l62 288q4 22 4 31q0 37 -21.5 58t-60.5 21q-46 0 -76 -33t-41 -82l-61 -283h-115l85 403q11 51 11 84h112q0 -27 -5 -51q48 65 144 65q67 0 107 -41.5t40 -109.5q0 -28 -6 -54z" />
    <glyph glyph-name="o" unicode="o" horiz-adv-x="551" 
d="M270 398q-60 0 -103 -51t-43 -132q0 -57 30.5 -91.5t80.5 -34.5q58 0 102 49t44 135q0 58 -29.5 91t-81.5 34zM498 277q0 -122 -76.5 -207t-192.5 -85q-100 0 -160.5 65t-60.5 161q0 126 78 208.5t192 82.5q102 0 161 -64t59 -161z" />
    <glyph glyph-name="p" unicode="p" horiz-adv-x="581" 
d="M299 396q-61 0 -103.5 -51t-42.5 -132q0 -58 30 -90.5t80 -32.5q57 0 102 50.5t45 135.5q0 58 -30 89t-81 31zM195 434q23 30 62 47.5t83 17.5q91 0 139 -58t48 -150q0 -131 -72 -217.5t-183 -86.5q-51 0 -92.5 22t-61.5 57l-54 -256h-114l126 593q11 51 11 84h112
q0 -28 -4 -53z" />
    <glyph glyph-name="q" unicode="q" horiz-adv-x="574" 
d="M530 487l-144 -677h-115l49 230q-49 -49 -121 -49q-89 0 -141.5 61.5t-52.5 153.5q0 123 72 208t180 85q58 0 95 -20.5t53 -48.5l12 57h113zM265 397q-66 0 -105.5 -57.5t-39.5 -130.5q0 -54 29 -86.5t80 -32.5q60 0 100.5 53.5t40.5 137.5q0 54 -27 85t-78 31z" />
    <glyph glyph-name="r" unicode="r" horiz-adv-x="383" 
d="M360 369q-23 5 -41 5q-122 0 -154 -146l-49 -228h-114l85 403q11 51 11 84h112q0 -40 -7 -67q48 72 147 72q20 0 35 -3z" />
    <glyph glyph-name="s" unicode="s" horiz-adv-x="443" 
d="M-13 151l100 19q0 -40 23.5 -67t65.5 -27q33 0 51 16.5t18 39.5q0 34 -41 52l-62 27q-96 42 -96 131q0 65 50.5 112.5t131.5 47.5q49 0 85 -14.5t55 -38.5t28 -46.5t10 -45.5l-101 -21q-2 29 -21 52.5t-62 23.5q-30 0 -48 -16t-18 -39q0 -33 34 -48l64 -28
q105 -46 105 -139q0 -60 -47.5 -108.5t-136.5 -48.5q-54 0 -93 17t-58.5 44.5t-28 53.5t-8.5 51z" />
    <glyph glyph-name="t" unicode="t" horiz-adv-x="357" 
d="M57 110q0 24 8 59l46 215h-88l22 103h18q79 0 97 79l15 70h105l-33 -149h97l-22 -103h-96l-48 -227q-3 -12 -3 -22q0 -41 53 -41q16 0 34 3l-19 -93q-23 -10 -58 -10q-59 0 -93.5 31t-34.5 85z" />
    <glyph glyph-name="u" unicode="u" horiz-adv-x="557" 
d="M93 487h116l-60 -280q-5 -23 -5 -39q0 -79 80 -79q44 0 73 32.5t40 81.5l60 284h114l-78 -376q-11 -55 -11 -89q0 -11 1 -22h-112q-2 12 -2 29q0 15 1 24q-20 -31 -54.5 -47.5t-70.5 -16.5q-75 0 -117 44t-42 115q0 26 6 54z" />
    <glyph glyph-name="v" unicode="v" horiz-adv-x="500" 
d="M518 487l-285 -487h-114l-86 487h119l48 -348l189 348h129z" />
    <glyph glyph-name="w" unicode="w" horiz-adv-x="788" 
d="M351 487h122l41 -335l165 335h122l-254 -487h-116l-44 348l-181 -348h-120l-48 487h111l28 -334z" />
    <glyph glyph-name="x" unicode="x" horiz-adv-x="507" 
d="M216 161l-143 -161h-143l234 249l-127 238h126q71 -143 78 -155l137 155h144q-4 -4 -101.5 -107.5t-127.5 -135.5q85 -161 131 -244h-126z" />
    <glyph glyph-name="y" unicode="y" horiz-adv-x="515" 
d="M95 -190h-129l175 270l-113 407h123l75 -288l175 288h132z" />
    <glyph glyph-name="z" unicode="z" horiz-adv-x="483" 
d="M368 0h-400l22 102l303 284h-235l22 101h385l-22 -100l-307 -285h253z" />
    <glyph glyph-name="braceleft" unicode="{" horiz-adv-x="362" 
d="M24 272l21 101q47 0 81.5 23t44.5 72l29 142q21 104 72.5 146.5t145.5 42.5h33l-19 -89h-22q-50 0 -76 -22.5t-37 -74.5l-36 -166q-11 -51 -43.5 -84t-83.5 -41q35 -10 55.5 -35.5t20.5 -63.5q0 -11 -4 -33l-31 -150q-4 -19 -4 -36q0 -69 78 -69h20l-19 -88h-22
q-76 0 -115.5 35t-39.5 102q0 29 7 58l29 135q3 15 3 27q0 68 -88 68z" />
    <glyph glyph-name="bar" unicode="|" horiz-adv-x="272" 
d="M76 -153h-98l202 952h98z" />
    <glyph glyph-name="braceright" unicode="}" horiz-adv-x="364" 
d="M325 372l-21 -101q-106 0 -126 -94l-30 -141q-40 -189 -225 -189h-25l19 88h21q94 0 116 103l35 166q10 47 43.5 78.5t84.5 42.5q-37 9 -57.5 34t-20.5 61q0 14 3 29l34 163q4 19 4 38q0 31 -18 45.5t-57 14.5h-24l19 89h28q72 0 111 -33t39 -98q0 -26 -6 -56l-32 -144
q-3 -15 -3 -27q0 -69 88 -69z" />
    <glyph glyph-name="asciitilde" unicode="~" horiz-adv-x="647" 
d="M501 360l66 -53q-56 -99 -158 -99q-50 0 -102 28l-47 25q-25 14 -52 14q-52 0 -92 -54l-66 53q58 100 159 100q51 0 101 -27l46 -25q28 -15 52 -15q60 0 93 53z" />
    <glyph glyph-name="uni00A0" unicode="&#xa0;" horiz-adv-x="261" 
 />
    <glyph glyph-name="exclamdown" unicode="&#xa1;" horiz-adv-x="255" 
d="M161 285l-75 -499h-143l135 499h83zM220 437q0 -33 -23.5 -57t-57.5 -24q-29 0 -47.5 18.5t-18.5 46.5q0 33 24 57t55 24q30 0 49 -18.5t19 -46.5z" />
    <glyph glyph-name="cent" unicode="&#xa2;" horiz-adv-x="553" 
d="M160 0l19 92q-65 21 -103 75.5t-38 125.5q0 112 70 187t171 84l18 84h90l-19 -91q108 -29 134 -141l-103 -31q-10 49 -53 70l-58 -275q61 10 95 73l93 -36q-28 -58 -81 -97t-128 -41l-17 -79h-90zM150 295q0 -71 51 -100l56 266q-47 -13 -77 -55.5t-30 -110.5z" />
    <glyph glyph-name="sterling" unicode="&#xa3;" horiz-adv-x="597" 
d="M57 273l20 95h71q-9 41 -9 75q0 93 59.5 156.5t158.5 63.5q90 0 138.5 -46t48.5 -119q0 -22 -4 -30l-108 -14q3 10 3 27q0 35 -21.5 58.5t-61.5 23.5q-45 0 -73 -30t-28 -87q0 -26 10 -78h184l-20 -95h-154q-4 -56 -35 -101.5t-85 -68.5h184q44 0 72 27.5t34 69.5
l103 -20q-14 -83 -69.5 -131.5t-134.5 -48.5h-345l23 113q64 15 100 59t40 101h-101z" />
    <glyph glyph-name="currency" unicode="&#xa4;" horiz-adv-x="599" 
d="M74 242q0 62 33 114l-74 75l72 71l74 -76q51 30 110 30q58 0 106 -28l73 74l71 -71l-70 -72q35 -53 35 -117q0 -63 -34 -116l69 -70l-70 -70l-72 72q-49 -29 -108 -29q-61 0 -112 31l-73 -74l-71 70l73 74q-32 49 -32 112zM173 242q0 -51 33 -84t83 -33t82.5 33t32.5 84
t-32.5 84t-82.5 33t-83 -33t-33 -84z" />
    <glyph glyph-name="yen" unicode="&#xa5;" horiz-adv-x="603" 
d="M67 302l18 83h115l-102 263h129l87 -252l187 252h133l-208 -263h118l-18 -83h-174l-16 -74h175l-19 -85h-173l-30 -143h-115l30 143h-171l18 85h171l15 74h-170z" />
    <glyph glyph-name="brokenbar" unicode="&#xa6;" horiz-adv-x="272" 
d="M194 400h-98l84 399h98zM76 -154h-98l85 399h98z" />
    <glyph glyph-name="section" unicode="&#xa7;" 
d="M-1 -4l112 8q-4 -18 -4 -34q0 -40 23.5 -62.5t67.5 -22.5q38 0 66 24t28 65q0 39 -35 64l-91 64q-50 35 -78 71.5t-28 84.5q0 56 32.5 92t78.5 53q-56 50 -56 124q0 87 67.5 142t154.5 55q92 0 143 -47.5t51 -119.5q0 -22 -4 -39l-113 -9q4 16 4 34q0 39 -23.5 61.5
t-65.5 22.5q-39 0 -67.5 -24.5t-28.5 -63.5q0 -38 37 -64l90 -64q51 -37 78.5 -71t27.5 -82q0 -57 -32.5 -94.5t-77.5 -54.5q55 -52 55 -122q0 -89 -67.5 -144t-155.5 -55q-91 0 -141.5 47.5t-50.5 120.5q0 26 3 40zM317 296l-89 64q-56 -26 -56 -80q0 -36 37 -63l89 -64
q56 26 56 80q0 36 -37 63z" />
    <glyph glyph-name="dieresis" unicode="&#xa8;" horiz-adv-x="383" 
d="M-26 618q0 29 21 50.5t51 21.5q26 0 42.5 -17.5t16.5 -41.5q0 -30 -22.5 -50.5t-51.5 -20.5q-24 0 -40.5 17t-16.5 41zM177 618q0 29 21.5 50.5t50.5 21.5q26 0 42.5 -17.5t16.5 -41.5q0 -30 -22.5 -50.5t-50.5 -20.5q-25 0 -41.5 17t-16.5 41z" />
    <glyph glyph-name="copyright" unicode="&#xa9;" horiz-adv-x="818" 
d="M35 355q0 153 107 261t259 108q153 0 261 -108.5t108 -260.5q0 -153 -108 -261.5t-261 -108.5q-152 0 -259 108.5t-107 261.5zM117 355q0 -124 82.5 -209t201.5 -85q120 0 202.5 85t82.5 209t-82.5 208.5t-202.5 84.5q-119 0 -201.5 -84.5t-82.5 -208.5zM587 433l-81 -26
q-7 30 -29 50.5t-58 20.5q-47 0 -82.5 -38.5t-35.5 -107.5q0 -45 26.5 -72t68.5 -27q63 0 97 64l74 -31q-56 -114 -180 -114q-75 0 -125 49.5t-50 128.5q0 100 62 164t151 64q72 0 112 -36.5t50 -88.5z" />
    <glyph glyph-name="ordfeminine" unicode="&#xaa;" horiz-adv-x="459" 
d="M238 577q-43 0 -68.5 -37.5t-25.5 -84.5q0 -37 18.5 -58t50.5 -21q39 0 65.5 34.5t26.5 91.5q0 35 -17.5 55t-49.5 20zM340 649h87l-56 -267q-6 -32 -6 -59v-18h-83q-1 11 -1 18q0 13 1 24q-32 -48 -93 -48t-97.5 43.5t-36.5 108.5q0 87 50.5 146.5t125.5 59.5
q77 0 100 -48z" />
    <glyph glyph-name="guillemotleft" unicode="&#xab;" horiz-adv-x="501" 
d="M217 100h-108l-99 196l174 191h119l-180 -200zM425 100h-108l-99 196l174 191h119l-180 -200z" />
    <glyph glyph-name="logicalnot" unicode="&#xac;" horiz-adv-x="623" 
d="M533 142h-101v195h-377v97h478v-292z" />
    <glyph glyph-name="uni00AD" unicode="&#xad;" horiz-adv-x="362" 
d="M297 241h-282l22 103h281z" />
    <glyph glyph-name="registered" unicode="&#xae;" horiz-adv-x="818" 
d="M35 355q0 153 107 261t259 108q153 0 261 -108.5t108 -260.5q0 -153 -108 -261.5t-261 -108.5q-152 0 -259 108.5t-107 261.5zM117 355q0 -124 82.5 -209t201.5 -85q120 0 202.5 85t82.5 209t-82.5 208.5t-202.5 84.5q-119 0 -201.5 -84.5t-82.5 -208.5zM445 157l-51 142
h-35l-30 -143h-85l85 400h140q51 0 83.5 -33.5t32.5 -79.5q0 -50 -31 -87.5t-80 -49.5l58 -149h-87zM373 369h47q36 0 58 18.5t22 51.5q0 46 -56 46h-45z" />
    <glyph glyph-name="macron" unicode="&#xaf;" horiz-adv-x="328" 
d="M243 577h-277l19 90h277z" />
    <glyph glyph-name="degree" unicode="&#xb0;" horiz-adv-x="394" 
d="M204 429q31 0 54.5 23.5t23.5 61.5q0 28 -17 45t-46 17q-30 0 -53.5 -24t-23.5 -60q0 -28 16.5 -45.5t45.5 -17.5zM196 342q-63 0 -104.5 41.5t-41.5 102.5q0 74 53 125.5t125 51.5q63 0 104.5 -42t41.5 -103q0 -74 -54.5 -125t-123.5 -51z" />
    <glyph glyph-name="plusminus" unicode="&#xb1;" horiz-adv-x="604" 
d="M341 311v-128h-99v128h-177v94h177v129h99v-129h178v-94h-178zM65 47v96h454v-96h-454z" />
    <glyph glyph-name="twosuperior" unicode="&#xb2;" horiz-adv-x="382" 
d="M168 514l64 28q52 23 52 59q0 16 -11.5 29t-33.5 13q-28 0 -44 -18t-16 -51l-84 3q0 63 40.5 101t106.5 38q63 0 98 -31.5t35 -78.5q0 -83 -102 -127l-76 -33q-22 -10 -28 -27h171l-16 -76h-278q8 121 122 171z" />
    <glyph glyph-name="threesuperior" unicode="&#xb3;" horiz-adv-x="427" 
d="M198 509l-27 64l111 62h-163l16 74h272l-17 -85l-108 -59q37 -8 59.5 -34.5t22.5 -64.5q0 -53 -43 -91.5t-110 -38.5q-62 0 -101.5 33.5t-39.5 85.5q0 8 2 16l82 6q-1 -5 -1 -10q0 -23 16.5 -39.5t41.5 -16.5q29 0 46 15t17 42q0 21 -15 33.5t-36 12.5q-13 0 -25 -5z" />
    <glyph glyph-name="acute" unicode="&#xb4;" horiz-adv-x="276" 
d="M220 696l-162 -148h-100l117 148h145z" />
    <glyph glyph-name="mu" unicode="&#xb5;" horiz-adv-x="589" 
d="M58 -190v677h117v-286q0 -49 24 -80t74 -31q49 0 75.5 30t26.5 79v288h116v-398q0 -49 5 -89h-111q-4 20 -4 55q-19 -33 -57 -51t-81 -18q-38 0 -69 14v-190h-116z" />
    <glyph glyph-name="paragraph" unicode="&#xb6;" horiz-adv-x="649" 
d="M393 616l-173 -813h-95l108 507h-9q-73 0 -121 47t-48 118q0 108 83.5 171t194.5 63h366l-19 -93h-98l-172 -813h-95l172 813h-94z" />
    <glyph glyph-name="periodcentered" unicode="&#xb7;" horiz-adv-x="278" 
d="M50 290q0 34 25.5 60t61.5 26q31 0 51 -20t20 -49q0 -37 -25.5 -62t-60.5 -25q-32 0 -52 20.5t-20 49.5z" />
    <glyph glyph-name="cedilla" unicode="&#xb8;" horiz-adv-x="286" 
d="M90 13h89l-74 -65q34 -4 53.5 -25t19.5 -50q0 -39 -32.5 -67.5t-88.5 -28.5q-49 0 -82.5 23t-45.5 46l54 40q23 -46 72 -46q18 0 30.5 8t12.5 23q0 14 -11.5 22.5t-28.5 8.5q-10 0 -17 -1l-23 46z" />
    <glyph glyph-name="onesuperior" unicode="&#xb9;" horiz-adv-x="298" 
d="M190 343h-91l53 238h-85l12 59q39 1 68.5 21t41.5 48h80z" />
    <glyph glyph-name="ordmasculine" unicode="&#xba;" horiz-adv-x="441" 
d="M240 577q-40 0 -67.5 -34t-27.5 -85q0 -38 20 -60t52 -22q38 0 67 32t29 88q0 38 -19.5 59.5t-53.5 21.5zM403 500q0 -85 -54 -145t-137 -60q-71 0 -114 45.5t-43 113.5q0 89 55.5 147t136.5 58q71 0 113.5 -45.5t42.5 -113.5z" />
    <glyph glyph-name="guillemotright" unicode="&#xbb;" horiz-adv-x="506" 
d="M46 487h108l99 -196l-174 -191h-119l181 200zM262 487h108l99 -196l-174 -191h-119l181 200z" />
    <glyph glyph-name="onequarter" unicode="&#xbc;" horiz-adv-x="805" 
d="M193 282h-91l53 238h-85l12 59q39 1 68.5 21t41.5 48h80zM377 74l19 96l204 196h101l-47 -219h63l-16 -73h-62l-1 -8q-2 -8 -6.5 -26.5t-8.5 -39.5h-89l15 74h-172zM564 147l28 122l-127 -122h99zM721 648l-598 -648h-110l599 648h109z" />
    <glyph glyph-name="onehalf" unicode="&#xbd;" horiz-adv-x="829" 
d="M193 282h-91l53 238h-85l12 59q39 1 68.5 21t41.5 48h80zM721 648l-598 -648h-110l599 648h109zM554 171l64 28q52 23 52 59q0 16 -11.5 29t-33.5 13q-28 0 -44 -18t-16 -51l-84 3q0 63 40.5 101t106.5 38q63 0 98 -31.5t35 -78.5q0 -83 -102 -127l-76 -33
q-22 -10 -28 -27h171l-16 -76h-278q8 121 122 171z" />
    <glyph glyph-name="threequarters" unicode="&#xbe;" horiz-adv-x="902" 
d="M178 448l-27 64l111 62h-163l16 74h272l-17 -85l-108 -59q37 -8 59.5 -34.5t22.5 -64.5q0 -53 -43 -91.5t-110 -38.5q-62 0 -101.5 33.5t-39.5 85.5q0 8 2 16l82 6q-1 -5 -1 -10q0 -23 16.5 -39.5t41.5 -16.5q29 0 46 15t17 42q0 21 -15 33.5t-36 12.5q-13 0 -25 -5z
M474 74l19 96l204 196h101l-47 -219h63l-16 -73h-62l-2 -8q-1 -8 -5.5 -26.5t-8.5 -39.5h-89l15 74h-172zM661 147l28 122l-127 -122h99zM819 648l-598 -648h-110l599 648h109z" />
    <glyph glyph-name="questiondown" unicode="&#xbf;" horiz-adv-x="451" 
d="M189 286h97q-5 -128 -113 -190l-54 -31q-66 -37 -66 -103q0 -36 24 -61t72 -25q62 0 95 41.5t33 100.5l111 -13q-2 -102 -70.5 -168t-177.5 -66q-98 0 -153 51t-55 122q0 130 137 208l50 29q64 36 70 105zM326 437q0 -33 -23.5 -57t-56.5 -24q-30 0 -48.5 18.5
t-18.5 46.5q0 33 24.5 57t55.5 24q30 0 48.5 -18.5t18.5 -46.5z" />
    <glyph glyph-name="Agrave" unicode="&#xc0;" horiz-adv-x="668" 
d="M477 0l-27 178h-285l-102 -178h-135l419 709h135l118 -709h-123zM390 574l-162 -285h205zM371 759l-112 124h138l75 -124h-101z" />
    <glyph glyph-name="Aacute" unicode="&#xc1;" horiz-adv-x="668" 
d="M477 0l-27 178h-285l-102 -178h-135l419 709h135l118 -709h-123zM390 574l-162 -285h205zM631 883l-162 -124h-114l123 124h153z" />
    <glyph glyph-name="Acircumflex" unicode="&#xc2;" horiz-adv-x="668" 
d="M477 0l-27 178h-285l-102 -178h-135l419 709h135l118 -709h-123zM390 574l-162 -285h205zM342 759h-108l141 124h129l92 -124h-100l-64 64z" />
    <glyph glyph-name="Atilde" unicode="&#xc3;" horiz-adv-x="668" 
d="M477 0l-27 178h-285l-102 -178h-135l419 709h135l118 -709h-123zM390 574l-162 -285h205zM602 886q-22 -132 -119 -132q-34 0 -72 24l-8 5q-26 17 -42 17q-31 0 -38 -43h-78q7 68 40 99.5t81 31.5q36 0 71 -23l8 -6q26 -17 41 -17q29 0 38 44h78z" />
    <glyph glyph-name="Adieresis" unicode="&#xc4;" horiz-adv-x="668" 
d="M206 814q0 30 21.5 52t52.5 22q26 0 42.5 -17t16.5 -42q0 -32 -22 -53t-51 -21q-26 0 -43 16.5t-17 42.5zM514 814q0 30 21.5 52t52.5 22q26 0 42.5 -17t16.5 -42q0 -32 -22 -53t-51 -21q-26 0 -43 16.5t-17 42.5zM477 0l-27 178h-285l-102 -178h-135l419 709h135
l118 -709h-123zM390 574l-162 -285h205z" />
    <glyph glyph-name="Aring" unicode="&#xc5;" horiz-adv-x="668" 
d="M390 574l-162 -285h205zM424 802q-20 0 -36 -14.5t-16 -36.5q0 -19 12 -30.5t32 -11.5q21 0 36.5 14.5t15.5 36.5q0 19 -12 30.5t-32 11.5zM298 743q0 55 40 93t93 38q48 0 80.5 -31t32.5 -77q0 -63 -55 -103l111 -663h-123l-27 178h-285l-102 -178h-135l398 673
q-28 31 -28 70z" />
    <glyph glyph-name="AE" unicode="&#xc6;" horiz-adv-x="1039" 
d="M615 112h315l-24 -112h-435l38 177h-278l-151 -177h-154l618 709h512l-24 -112h-314l-40 -188h285l-23 -109h-285zM319 280h212l70 330z" />
    <glyph glyph-name="Ccedilla" unicode="&#xc7;" horiz-adv-x="719" 
d="M367 -14l-43 -38q34 -4 53.5 -25t19.5 -50q0 -39 -32.5 -67.5t-88.5 -28.5q-49 0 -82.5 23t-45.5 46l54 40q23 -46 72 -46q18 0 30.5 8t12.5 23q0 14 -11.5 22.5t-28.5 8.5q-6 0 -11 -1h-6l-23 46l47 43q-113 18 -182 104t-69 210q0 98 33 179.5t87.5 133t122.5 79.5
t140 28q128 0 202 -65.5t92 -161.5l-115 -35q-13 64 -60.5 106.5t-127.5 42.5q-110 0 -180.5 -86t-70.5 -214q0 -97 52.5 -155t142.5 -58q141 0 206 145l106 -43q-38 -90 -113 -148.5t-183 -65.5z" />
    <glyph glyph-name="Egrave" unicode="&#xc8;" horiz-adv-x="578" 
d="M357 759l-112 124h138l75 -124h-101zM445 0h-435l150 709h435l-24 -112h-314l-40 -188h285l-24 -109h-284l-41 -188h315z" />
    <glyph glyph-name="Eacute" unicode="&#xc9;" horiz-adv-x="578" 
d="M582 883l-162 -124h-114l123 124h153zM445 0h-435l150 709h435l-24 -112h-314l-40 -188h285l-24 -109h-284l-41 -188h315z" />
    <glyph glyph-name="Ecircumflex" unicode="&#xca;" horiz-adv-x="578" 
d="M312 759h-108l141 124h129l92 -124h-100l-64 64zM445 0h-435l150 709h435l-24 -112h-314l-40 -188h285l-24 -109h-284l-41 -188h315z" />
    <glyph glyph-name="Edieresis" unicode="&#xcb;" horiz-adv-x="578" 
d="M217 814q0 30 21.5 51.5t52.5 21.5q26 0 42 -16.5t16 -41.5q0 -31 -21.5 -52t-50.5 -21q-26 0 -43 16.5t-17 41.5zM439 814q0 30 21.5 51.5t51.5 21.5q26 0 42.5 -17t16.5 -41q0 -31 -21.5 -52t-50.5 -21q-26 0 -43 16.5t-17 41.5zM445 0h-435l150 709h435l-24 -112h-314
l-40 -188h285l-24 -109h-284l-41 -188h315z" />
    <glyph glyph-name="Igrave" unicode="&#xcc;" horiz-adv-x="292" 
d="M132 0h-122l150 709h122zM190 759l-112 124h138l75 -124h-101z" />
    <glyph glyph-name="Iacute" unicode="&#xcd;" horiz-adv-x="292" 
d="M132 0h-122l150 709h122zM450 883l-162 -124h-114l123 124h153z" />
    <glyph glyph-name="Icircumflex" unicode="&#xce;" horiz-adv-x="292" 
d="M132 0h-122l150 709h122zM156 759h-108l141 124h129l92 -124h-100l-64 64z" />
    <glyph glyph-name="Idieresis" unicode="&#xcf;" horiz-adv-x="292" 
d="M132 0h-122l150 709h122zM90 814q0 28 20 48.5t49 20.5q24 0 39.5 -16t15.5 -38q0 -30 -20 -49.5t-48 -19.5q-24 0 -40 15.5t-16 38.5zM262 814q0 29 20 49t49 20q24 0 39.5 -16t15.5 -38q0 -30 -20.5 -49.5t-48.5 -19.5q-24 0 -39.5 15.5t-15.5 38.5z" />
    <glyph glyph-name="Eth" unicode="&#xd0;" horiz-adv-x="710" 
d="M12 316l19 93h77l63 300h203q139 0 221 -79.5t82 -210.5q0 -99 -32 -180.5t-86 -132.5t-121 -78.5t-140 -27.5h-276l66 316h-76zM164 111h136q99 0 177 80.5t78 222.5q0 87 -52.5 136.5t-143.5 49.5h-91l-41 -191h150l-19 -93h-151z" />
    <glyph glyph-name="Ntilde" unicode="&#xd1;" horiz-adv-x="744" 
d="M648 886q-22 -132 -119 -132q-34 0 -72 24l-8 5q-26 17 -42 17q-31 0 -38 -43h-78q7 68 40 99.5t81 31.5q36 0 71 -23l8 -6q26 -17 41 -17q29 0 38 44h78zM583 0h-122l-218 534l-113 -534h-120l150 709h140l205 -509l108 509h121z" />
    <glyph glyph-name="Ograve" unicode="&#xd2;" horiz-adv-x="756" 
d="M402 759l-112 124h138l75 -124h-101zM33 299q0 99 32.5 181.5t86.5 134.5t121 80.5t139 28.5q141 0 225.5 -86.5t84.5 -227.5q0 -100 -32.5 -182t-86 -134t-120.5 -80.5t-139 -28.5q-140 0 -225.5 86.5t-85.5 227.5zM600 401q0 98 -53 154t-141 56q-109 0 -179 -87.5
t-71 -215.5q0 -98 53 -154t141 -56q109 0 178.5 87.5t71.5 215.5z" />
    <glyph glyph-name="Oacute" unicode="&#xd3;" horiz-adv-x="756" 
d="M654 883l-162 -124h-114l123 124h153zM33 299q0 99 32.5 181.5t86.5 134.5t121 80.5t139 28.5q141 0 225.5 -86.5t84.5 -227.5q0 -100 -32.5 -182t-86 -134t-120.5 -80.5t-139 -28.5q-140 0 -225.5 86.5t-85.5 227.5zM600 401q0 98 -53 154t-141 56q-109 0 -179 -87.5
t-71 -215.5q0 -98 53 -154t141 -56q109 0 178.5 87.5t71.5 215.5z" />
    <glyph glyph-name="Ocircumflex" unicode="&#xd4;" horiz-adv-x="756" 
d="M365 759h-108l141 124h129l92 -124h-100l-64 64zM33 299q0 99 32.5 181.5t86.5 134.5t121 80.5t139 28.5q141 0 225.5 -86.5t84.5 -227.5q0 -100 -32.5 -182t-86 -134t-120.5 -80.5t-139 -28.5q-140 0 -225.5 86.5t-85.5 227.5zM600 401q0 98 -53 154t-141 56
q-109 0 -179 -87.5t-71 -215.5q0 -98 53 -154t141 -56q109 0 178.5 87.5t71.5 215.5z" />
    <glyph glyph-name="Otilde" unicode="&#xd5;" horiz-adv-x="756" 
d="M636 886q-22 -132 -119 -132q-34 0 -72 24l-8 5q-26 17 -42 17q-31 0 -38 -43h-78q7 68 40 99.5t81 31.5q36 0 71 -23l8 -6q26 -17 41 -17q29 0 38 44h78zM33 299q0 99 32.5 181.5t86.5 134.5t121 80.5t139 28.5q141 0 225.5 -86.5t84.5 -227.5q0 -100 -32.5 -182
t-86 -134t-120.5 -80.5t-139 -28.5q-140 0 -225.5 86.5t-85.5 227.5zM600 401q0 98 -53 154t-141 56q-109 0 -179 -87.5t-71 -215.5q0 -98 53 -154t141 -56q109 0 178.5 87.5t71.5 215.5z" />
    <glyph glyph-name="Odieresis" unicode="&#xd6;" horiz-adv-x="756" 
d="M215 814q0 30 21.5 52t52.5 22q26 0 42.5 -17t16.5 -42q0 -32 -22 -53t-51 -21q-26 0 -43 16.5t-17 42.5zM551 814q0 30 21.5 52t52.5 22q26 0 42.5 -17t16.5 -42q0 -32 -22 -53t-51 -21q-26 0 -43 16.5t-17 42.5zM33 299q0 99 32.5 181.5t86.5 134.5t121 80.5t139 28.5
q141 0 225.5 -86.5t84.5 -227.5q0 -100 -32.5 -182t-86 -134t-120.5 -80.5t-139 -28.5q-140 0 -225.5 86.5t-85.5 227.5zM600 401q0 98 -53 154t-141 56q-109 0 -179 -87.5t-71 -215.5q0 -98 53 -154t141 -56q109 0 178.5 87.5t71.5 215.5z" />
    <glyph glyph-name="multiply" unicode="&#xd7;" horiz-adv-x="558" 
d="M112 51l-69 69l168 172l-167 171l69 69l166 -171l166 171l69 -69l-167 -171l168 -172l-69 -69l-167 171z" />
    <glyph glyph-name="Oslash" unicode="&#xd8;" horiz-adv-x="756" 
d="M33 299q0 99 32.5 181.5t86.5 134.5t121 80.5t139 28.5q116 0 193 -59l75 81l71 -64l-80 -86q51 -79 51 -186q0 -100 -32.5 -182t-86 -134t-120.5 -80.5t-139 -28.5q-112 0 -190 56l-72 -77l-71 64l76 82q-54 79 -54 189zM156 308q0 -58 20 -103l346 371q-49 35 -116 35
q-109 0 -179 -87.5t-71 -215.5zM600 401q0 55 -18 99l-345 -370q47 -32 113 -32q109 0 178.5 87.5t71.5 215.5z" />
    <glyph glyph-name="Ugrave" unicode="&#xd9;" horiz-adv-x="671" 
d="M385 759l-112 124h138l75 -124h-101zM550 709h121l-103 -489q-24 -112 -97.5 -173.5t-178.5 -61.5q-110 0 -175.5 59t-65.5 160q0 32 8 72l91 433h118l-91 -442q-6 -27 -6 -50q0 -55 32 -86t97 -31q59 0 98 35t53 102z" />
    <glyph glyph-name="Uacute" unicode="&#xda;" horiz-adv-x="671" 
d="M611 883l-162 -124h-114l123 124h153zM550 709h121l-103 -489q-24 -112 -97.5 -173.5t-178.5 -61.5q-110 0 -175.5 59t-65.5 160q0 32 8 72l91 433h118l-91 -442q-6 -27 -6 -50q0 -55 32 -86t97 -31q59 0 98 35t53 102z" />
    <glyph glyph-name="Ucircumflex" unicode="&#xdb;" horiz-adv-x="671" 
d="M342 759h-108l141 124h129l92 -124h-100l-64 64zM550 709h121l-103 -489q-24 -112 -97.5 -173.5t-178.5 -61.5q-110 0 -175.5 59t-65.5 160q0 32 8 72l91 433h118l-91 -442q-6 -27 -6 -50q0 -55 32 -86t97 -31q59 0 98 35t53 102z" />
    <glyph glyph-name="Udieresis" unicode="&#xdc;" horiz-adv-x="671" 
d="M244 814q0 30 21.5 52t52.5 22q26 0 42.5 -17t16.5 -42q0 -32 -22 -53t-51 -21q-26 0 -43 16.5t-17 42.5zM470 814q0 30 21.5 52t52.5 22q26 0 42.5 -17t16.5 -42q0 -32 -22 -53t-51 -21q-26 0 -43 16.5t-17 42.5zM550 709h121l-103 -489q-24 -112 -97.5 -173.5
t-178.5 -61.5q-110 0 -175.5 59t-65.5 160q0 32 8 72l91 433h118l-91 -442q-6 -27 -6 -50q0 -55 32 -86t97 -31q59 0 98 35t53 102z" />
    <glyph glyph-name="Yacute" unicode="&#xdd;" horiz-adv-x="619" 
d="M246 302l-159 407h127l110 -292l211 292h144l-314 -411l-62 -298h-121zM585 883l-162 -124h-114l123 124h153z" />
    <glyph glyph-name="Thorn" unicode="&#xde;" horiz-adv-x="589" 
d="M340 470h-109l-47 -218h118q65 0 105 33t41 93q0 42 -27.5 67t-80.5 25zM130 0h-120l150 709h121l-29 -133h112q93 0 150 -53t57 -136q0 -109 -75.5 -174.5t-192.5 -65.5h-141z" />
    <glyph glyph-name="germandbls" unicode="&#xdf;" horiz-adv-x="587" 
d="M378 330q0 -17 31 -39l26 -20q75 -59 75 -127q0 -59 -44.5 -109.5t-130.5 -50.5q-70 0 -113.5 39.5t-43.5 97.5q0 16 2 24l99 11q-2 -5 -2 -17q0 -26 14.5 -45t47.5 -19q29 0 44.5 17t15.5 37q0 17 -8.5 28.5t-28.5 26.5l-25 19q-75 56 -75 115q0 86 84 129l28 14
q35 17 52.5 37t17.5 49t-25.5 52.5t-72.5 23.5q-44 0 -79.5 -30.5t-49.5 -97.5l-104 -495h-115l108 514q22 105 89.5 157.5t156.5 52.5q96 0 151.5 -49.5t55.5 -118.5q0 -116 -121 -172l-26 -12q-34 -16 -34 -42z" />
    <glyph glyph-name="agrave" unicode="&#xe0;" horiz-adv-x="574" 
d="M268 398q-66 0 -105 -58t-39 -131q0 -54 27.5 -86.5t76.5 -32.5q60 0 101 55t41 140q0 51 -26.5 82t-75.5 31zM418 487h113l-79 -371q-10 -50 -10 -92q0 -13 1 -24h-108q-1 9 -1 20q0 18 2 40q-54 -69 -134 -69q-91 0 -142.5 60.5t-51.5 154.5q0 123 71.5 208.5
t179.5 85.5q59 0 95 -21t51 -50zM255 548l-99 148h132l57 -148h-90z" />
    <glyph glyph-name="aacute" unicode="&#xe1;" horiz-adv-x="574" 
d="M268 398q-66 0 -105 -58t-39 -131q0 -54 27.5 -86.5t76.5 -32.5q60 0 101 55t41 140q0 51 -26.5 82t-75.5 31zM418 487h113l-79 -371q-10 -50 -10 -92q0 -13 1 -24h-108q-1 9 -1 20q0 18 2 40q-54 -69 -134 -69q-91 0 -142.5 60.5t-51.5 154.5q0 123 71.5 208.5
t179.5 85.5q59 0 95 -21t51 -50zM503 696l-162 -148h-100l117 148h145z" />
    <glyph glyph-name="acircumflex" unicode="&#xe2;" horiz-adv-x="574" 
d="M232 549h-103l138 143h123l76 -143h-95l-53 77zM268 398q-66 0 -105 -58t-39 -131q0 -54 27.5 -86.5t76.5 -32.5q60 0 101 55t41 140q0 51 -26.5 82t-75.5 31zM418 487h113l-79 -371q-10 -50 -10 -92q0 -13 1 -24h-108q-1 9 -1 20q0 18 2 40q-54 -69 -134 -69
q-91 0 -142.5 60.5t-51.5 154.5q0 123 71.5 208.5t179.5 85.5q59 0 95 -21t51 -50z" />
    <glyph glyph-name="atilde" unicode="&#xe3;" horiz-adv-x="574" 
d="M268 398q-66 0 -105 -58t-39 -131q0 -54 27.5 -86.5t76.5 -32.5q60 0 101 55t41 140q0 51 -26.5 82t-75.5 31zM418 487h113l-79 -371q-10 -50 -10 -92q0 -13 1 -24h-108q-1 9 -1 20q0 18 2 40q-54 -69 -134 -69q-91 0 -142.5 60.5t-51.5 154.5q0 123 71.5 208.5
t179.5 85.5q59 0 95 -21t51 -50zM217 555h-79q8 69 42 102t82 33q34 0 71 -24l6 -4q26 -18 42 -18q31 0 40 44h78q-20 -135 -121 -135q-34 0 -70 24l-8 5q-28 17 -43 17q-31 0 -40 -44z" />
    <glyph glyph-name="adieresis" unicode="&#xe4;" horiz-adv-x="574" 
d="M151 618q0 29 21 50.5t51 21.5q26 0 42.5 -17.5t16.5 -41.5q0 -30 -22.5 -50.5t-51.5 -20.5q-24 0 -40.5 17t-16.5 41zM354 618q0 29 21.5 50.5t50.5 21.5q26 0 42.5 -17.5t16.5 -41.5q0 -30 -22.5 -50.5t-50.5 -20.5q-25 0 -41.5 17t-16.5 41zM268 398q-66 0 -105 -58
t-39 -131q0 -54 27.5 -86.5t76.5 -32.5q60 0 101 55t41 140q0 51 -26.5 82t-75.5 31zM418 487h113l-79 -371q-10 -50 -10 -92q0 -13 1 -24h-108q-1 9 -1 20q0 18 2 40q-54 -69 -134 -69q-91 0 -142.5 60.5t-51.5 154.5q0 123 71.5 208.5t179.5 85.5q59 0 95 -21t51 -50z" />
    <glyph glyph-name="aring" unicode="&#xe5;" horiz-adv-x="574" 
d="M268 398q-66 0 -105 -58t-39 -131q0 -54 27.5 -86.5t76.5 -32.5q60 0 101 55t41 140q0 51 -26.5 82t-75.5 31zM418 487h113l-79 -371q-10 -50 -10 -92q0 -13 1 -24h-108q-1 9 -1 20q0 18 2 40q-54 -69 -134 -69q-91 0 -142.5 60.5t-51.5 154.5q0 123 71.5 208.5
t179.5 85.5q59 0 95 -21t51 -50zM326 758q44 0 74.5 -28.5t30.5 -71.5q0 -48 -37 -84t-85 -36q-44 0 -75 28.5t-31 70.5q0 52 37.5 86.5t85.5 34.5zM272 644q0 -18 11 -28.5t29 -10.5q20 0 34 13t14 34q0 17 -11 28t-29 11q-19 0 -33.5 -13.5t-14.5 -33.5z" />
    <glyph glyph-name="ae" unicode="&#xe6;" horiz-adv-x="848" 
d="M167 285l134 4q46 2 46 47q0 30 -23 51t-71 21q-41 0 -70.5 -21t-39.5 -56l-97 32q18 60 77 99.5t137 39.5q110 0 160 -66q71 66 166 66q98 0 153 -55.5t55 -145.5q0 -45 -14 -89h-346q0 -58 30 -93t85 -35q86 0 124 71l87 -49q-27 -52 -83 -86.5t-132 -34.5
q-127 0 -184 98q-69 -97 -188 -97q-84 0 -131.5 40.5t-47.5 100.5q0 68 49 112t124 46zM110 135q0 -28 21 -44t53 -16q47 0 88.5 34.5t50.5 103.5l-136 -6q-32 -2 -54.5 -20t-22.5 -52zM583 405q-52 0 -87 -30.5t-49 -77.5h234q0 1 0.5 6.5t0.5 8.5q0 37 -24 65t-75 28z" />
    <glyph glyph-name="ccedilla" unicode="&#xe7;" horiz-adv-x="511" 
d="M121 -53l49 45q-76 19 -120.5 78.5t-44.5 141.5q0 127 79.5 208.5t191.5 81.5q91 0 142 -47t65 -112l-105 -33q-8 37 -36 62t-74 25q-60 0 -104 -48.5t-44 -134.5q0 -57 32.5 -91t86.5 -34q79 0 122 81l96 -39q-28 -59 -80.5 -99.5t-125.5 -45.5l-43 -38q34 -4 53.5 -25
t19.5 -50q0 -39 -32.5 -67.5t-88.5 -28.5q-49 0 -82.5 23t-45.5 46l54 40q23 -46 72 -46q18 0 30.5 8t12.5 23q0 14 -11.5 22.5t-28.5 8.5q-7 0 -17 -2z" />
    <glyph glyph-name="egrave" unicode="&#xe8;" horiz-adv-x="534" 
d="M133 297h234q0 1 0.5 6.5t0.5 8.5q0 37 -24 65t-75 28q-52 0 -87 -31t-49 -77zM467 212h-347q-1 -5 -1 -11q0 -52 32.5 -84.5t82.5 -32.5q45 0 76.5 20t47.5 51l89 -49q-27 -52 -83.5 -86.5t-132.5 -34.5q-94 0 -158.5 60.5t-64.5 162.5q0 131 79.5 212.5t184.5 81.5
q98 0 153.5 -55.5t55.5 -145.5q0 -45 -14 -89zM267 548l-99 148h132l57 -148h-90z" />
    <glyph glyph-name="eacute" unicode="&#xe9;" horiz-adv-x="534" 
d="M491 696l-162 -148h-100l117 148h145zM133 297h234q0 1 0.5 6.5t0.5 8.5q0 37 -24 65t-75 28q-52 0 -87 -31t-49 -77zM467 212h-347q-1 -5 -1 -11q0 -52 32.5 -84.5t82.5 -32.5q45 0 76.5 20t47.5 51l89 -49q-27 -52 -83.5 -86.5t-132.5 -34.5q-94 0 -158.5 60.5
t-64.5 162.5q0 131 79.5 212.5t184.5 81.5q98 0 153.5 -55.5t55.5 -145.5q0 -45 -14 -89z" />
    <glyph glyph-name="ecircumflex" unicode="&#xea;" horiz-adv-x="534" 
d="M231 549h-103l138 143h123l76 -143h-95l-53 77zM133 297h234q0 1 0.5 6.5t0.5 8.5q0 37 -24 65t-75 28q-52 0 -87 -31t-49 -77zM467 212h-347q-1 -5 -1 -11q0 -52 32.5 -84.5t82.5 -32.5q45 0 76.5 20t47.5 51l89 -49q-27 -52 -83.5 -86.5t-132.5 -34.5
q-94 0 -158.5 60.5t-64.5 162.5q0 131 79.5 212.5t184.5 81.5q98 0 153.5 -55.5t55.5 -145.5q0 -45 -14 -89z" />
    <glyph glyph-name="edieresis" unicode="&#xeb;" horiz-adv-x="534" 
d="M142 618q0 29 21 50.5t51 21.5q26 0 42.5 -17.5t16.5 -41.5q0 -30 -22.5 -50.5t-51.5 -20.5q-24 0 -40.5 17t-16.5 41zM345 618q0 29 21.5 50.5t50.5 21.5q26 0 42.5 -17.5t16.5 -41.5q0 -30 -22.5 -50.5t-50.5 -20.5q-25 0 -41.5 17t-16.5 41zM133 297h234q0 1 0.5 6.5
t0.5 8.5q0 37 -24 65t-75 28q-52 0 -87 -31t-49 -77zM467 212h-347q-1 -5 -1 -11q0 -52 32.5 -84.5t82.5 -32.5q45 0 76.5 20t47.5 51l89 -49q-27 -52 -83.5 -86.5t-132.5 -34.5q-94 0 -158.5 60.5t-64.5 162.5q0 131 79.5 212.5t184.5 81.5q98 0 153.5 -55.5t55.5 -145.5
q0 -45 -14 -89z" />
    <glyph glyph-name="igrave" unicode="&#xec;" horiz-adv-x="268" 
d="M116 0h-116l104 487h116zM128 548l-99 148h132l57 -148h-90z" />
    <glyph glyph-name="iacute" unicode="&#xed;" horiz-adv-x="268" 
d="M380 696l-162 -148h-100l117 148h145zM116 0h-116l104 487h116z" />
    <glyph glyph-name="icircumflex" unicode="&#xee;" horiz-adv-x="268" 
d="M105 549h-103l138 143h123l76 -143h-95l-53 77zM116 0h-116l104 487h116z" />
    <glyph glyph-name="idieresis" unicode="&#xef;" horiz-adv-x="268" 
d="M116 0h-116l104 487h116zM48 618q0 27 19.5 47.5t47.5 20.5q25 0 40.5 -16t15.5 -39q0 -28 -20.5 -47t-47.5 -19q-25 0 -40 15t-15 38zM204 618q0 27 19.5 47.5t47.5 20.5q25 0 40.5 -16t15.5 -39q0 -28 -20.5 -47t-47.5 -19q-25 0 -40 15t-15 38z" />
    <glyph glyph-name="eth" unicode="&#xf0;" horiz-adv-x="550" 
d="M528 617l-92 -37q70 -97 70 -231q0 -162 -77 -263t-203 -101q-102 0 -162 62.5t-60 154.5q0 108 70.5 183.5t178.5 75.5q48 0 86 -17.5t57 -46.5q-10 82 -61 142l-129 -53l-29 72l92 38q-48 30 -105 41l38 91q96 -14 179 -86l117 48zM375 250q0 53 -32 84t-83 31
q-58 0 -99 -43t-41 -119q0 -49 29.5 -83t81.5 -34q57 0 100.5 44t43.5 120z" />
    <glyph glyph-name="ntilde" unicode="&#xf1;" horiz-adv-x="569" 
d="M229 555h-79q8 69 42 102t82 33q34 0 71 -24l6 -4q26 -18 42 -18q31 0 40 44h78q-20 -135 -121 -135q-34 0 -70 24l-8 5q-28 17 -43 17q-31 0 -40 -44zM426 0h-115l62 288q4 22 4 31q0 37 -21.5 58t-60.5 21q-46 0 -76 -33t-41 -82l-61 -283h-115l85 403q11 51 11 84h112
q0 -27 -5 -51q48 65 144 65q67 0 107 -41.5t40 -109.5q0 -28 -6 -54z" />
    <glyph glyph-name="ograve" unicode="&#xf2;" horiz-adv-x="551" 
d="M263 548l-99 148h132l57 -148h-90zM270 398q-60 0 -103 -51t-43 -132q0 -57 30.5 -91.5t80.5 -34.5q58 0 102 49t44 135q0 58 -29.5 91t-81.5 34zM498 277q0 -122 -76.5 -207t-192.5 -85q-100 0 -160.5 65t-60.5 161q0 126 78 208.5t192 82.5q102 0 161 -64t59 -161z" />
    <glyph glyph-name="oacute" unicode="&#xf3;" horiz-adv-x="551" 
d="M503 696l-162 -148h-100l117 148h145zM270 398q-60 0 -103 -51t-43 -132q0 -57 30.5 -91.5t80.5 -34.5q58 0 102 49t44 135q0 58 -29.5 91t-81.5 34zM498 277q0 -122 -76.5 -207t-192.5 -85q-100 0 -160.5 65t-60.5 161q0 126 78 208.5t192 82.5q102 0 161 -64t59 -161z
" />
    <glyph glyph-name="ocircumflex" unicode="&#xf4;" horiz-adv-x="551" 
d="M237 549h-103l138 143h123l76 -143h-95l-53 77zM270 398q-60 0 -103 -51t-43 -132q0 -57 30.5 -91.5t80.5 -34.5q58 0 102 49t44 135q0 58 -29.5 91t-81.5 34zM498 277q0 -122 -76.5 -207t-192.5 -85q-100 0 -160.5 65t-60.5 161q0 126 78 208.5t192 82.5q102 0 161 -64
t59 -161z" />
    <glyph glyph-name="otilde" unicode="&#xf5;" horiz-adv-x="551" 
d="M270 398q-60 0 -103 -51t-43 -132q0 -57 30.5 -91.5t80.5 -34.5q58 0 102 49t44 135q0 58 -29.5 91t-81.5 34zM498 277q0 -122 -76.5 -207t-192.5 -85q-100 0 -160.5 65t-60.5 161q0 126 78 208.5t192 82.5q102 0 161 -64t59 -161zM202 555h-79q8 69 42 102t82 33
q34 0 71 -24l6 -4q26 -18 42 -18q31 0 40 44h78q-20 -135 -121 -135q-34 0 -70 24l-8 5q-28 17 -43 17q-31 0 -40 -44z" />
    <glyph glyph-name="odieresis" unicode="&#xf6;" horiz-adv-x="551" 
d="M149 618q0 29 21 50.5t51 21.5q26 0 42.5 -17.5t16.5 -41.5q0 -30 -22.5 -50.5t-51.5 -20.5q-24 0 -40.5 17t-16.5 41zM352 618q0 29 21.5 50.5t50.5 21.5q26 0 42.5 -17.5t16.5 -41.5q0 -30 -22.5 -50.5t-50.5 -20.5q-25 0 -41.5 17t-16.5 41zM270 398q-60 0 -103 -51
t-43 -132q0 -57 30.5 -91.5t80.5 -34.5q58 0 102 49t44 135q0 58 -29.5 91t-81.5 34zM498 277q0 -122 -76.5 -207t-192.5 -85q-100 0 -160.5 65t-60.5 161q0 126 78 208.5t192 82.5q102 0 161 -64t59 -161z" />
    <glyph glyph-name="divide" unicode="&#xf7;" horiz-adv-x="575" 
d="M198 473q0 29 21.5 50t51.5 21q29 0 50 -21t21 -50t-21 -51t-50 -22q-30 0 -51.5 22t-21.5 51zM198 111q0 29 21.5 50.5t51.5 21.5q29 0 50 -21.5t21 -50.5t-21 -50.5t-50 -21.5q-30 0 -51.5 21.5t-21.5 50.5zM35 243v98h474v-98h-474z" />
    <glyph glyph-name="oslash" unicode="&#xf8;" horiz-adv-x="551" 
d="M21 -31l-54 55l71 68q-30 49 -30 119q0 126 78 208.5t192 82.5q84 0 141 -46l65 63l54 -55l-70 -67q30 -52 30 -120q0 -122 -76.5 -207t-192.5 -85q-82 0 -142 47zM381 273q0 20 -4 37l-209 -200q27 -21 67 -21q58 0 102 49t44 135zM270 398q-60 0 -103 -51t-43 -132
q0 -22 4 -37l208 199q-25 19 -66 21z" />
    <glyph glyph-name="ugrave" unicode="&#xf9;" horiz-adv-x="557" 
d="M93 487h116l-60 -280q-5 -23 -5 -39q0 -79 80 -79q44 0 73 32.5t40 81.5l60 284h114l-78 -376q-11 -55 -11 -89q0 -11 1 -22h-112q-2 12 -2 29q0 15 1 24q-20 -31 -54.5 -47.5t-70.5 -16.5q-75 0 -117 44t-42 115q0 26 6 54zM271 548l-99 148h132l57 -148h-90z" />
    <glyph glyph-name="uacute" unicode="&#xfa;" horiz-adv-x="557" 
d="M503 696l-162 -148h-100l117 148h145zM93 487h116l-60 -280q-5 -23 -5 -39q0 -79 80 -79q44 0 73 32.5t40 81.5l60 284h114l-78 -376q-11 -55 -11 -89q0 -11 1 -22h-112q-2 12 -2 29q0 15 1 24q-20 -31 -54.5 -47.5t-70.5 -16.5q-75 0 -117 44t-42 115q0 26 6 54z" />
    <glyph glyph-name="ucircumflex" unicode="&#xfb;" horiz-adv-x="557" 
d="M245 549h-103l138 143h123l76 -143h-95l-53 77zM93 487h116l-60 -280q-5 -23 -5 -39q0 -79 80 -79q44 0 73 32.5t40 81.5l60 284h114l-78 -376q-11 -55 -11 -89q0 -11 1 -22h-112q-2 12 -2 29q0 15 1 24q-20 -31 -54.5 -47.5t-70.5 -16.5q-75 0 -117 44t-42 115
q0 26 6 54z" />
    <glyph glyph-name="udieresis" unicode="&#xfc;" horiz-adv-x="557" 
d="M163 618q0 29 21 50.5t51 21.5q26 0 42.5 -17.5t16.5 -41.5q0 -30 -22.5 -50.5t-51.5 -20.5q-24 0 -40.5 17t-16.5 41zM366 618q0 29 21.5 50.5t50.5 21.5q26 0 42.5 -17.5t16.5 -41.5q0 -30 -22.5 -50.5t-50.5 -20.5q-25 0 -41.5 17t-16.5 41zM93 487h116l-60 -280
q-5 -23 -5 -39q0 -79 80 -79q44 0 73 32.5t40 81.5l60 284h114l-78 -376q-11 -55 -11 -89q0 -11 1 -22h-112q-2 12 -2 29q0 15 1 24q-20 -31 -54.5 -47.5t-70.5 -16.5q-75 0 -117 44t-42 115q0 26 6 54z" />
    <glyph glyph-name="yacute" unicode="&#xfd;" horiz-adv-x="515" 
d="M95 -190h-129l175 270l-113 407h123l75 -288l175 288h132zM471 696l-162 -148h-100l117 148h145z" />
    <glyph glyph-name="thorn" unicode="&#xfe;" horiz-adv-x="593" 
d="M-38 -190l194 914h115l-60 -284q53 59 140 59q91 0 139.5 -58t48.5 -150q0 -131 -72 -217.5t-183 -86.5q-51 0 -93 21.5t-61 56.5l-54 -255h-114zM310 396q-60 0 -102.5 -51t-42.5 -132q0 -58 29.5 -90.5t79.5 -32.5q58 0 102.5 50.5t44.5 135.5q0 58 -29.5 89t-81.5 31z
" />
    <glyph glyph-name="ydieresis" unicode="&#xff;" horiz-adv-x="515" 
d="M126 618q0 29 21 50.5t51 21.5q26 0 42.5 -17.5t16.5 -41.5q0 -30 -22.5 -50.5t-51.5 -20.5q-24 0 -40.5 17t-16.5 41zM329 618q0 29 21.5 50.5t50.5 21.5q26 0 42.5 -17.5t16.5 -41.5q0 -30 -22.5 -50.5t-50.5 -20.5q-25 0 -41.5 17t-16.5 41zM95 -190h-129l175 270
l-113 407h123l75 -288l175 288h132z" />
    <glyph glyph-name="dotlessi" unicode="&#x131;" horiz-adv-x="267" 
d="M116 0h-116l104 487h116z" />
    <glyph glyph-name="Lslash" unicode="&#x141;" horiz-adv-x="555" 
d="M456 0h-436l61 288l-99 -40l21 101l99 40l68 320h120l-56 -266l164 67l-21 -100l-165 -68l-48 -228h316z" />
    <glyph glyph-name="lslash" unicode="&#x142;" horiz-adv-x="304" 
d="M121 0h-115l63 297l-96 -39l22 100l95 39l70 327h115l-59 -276l103 42l-22 -100l-102 -42z" />
    <glyph glyph-name="OE" unicode="&#x152;" horiz-adv-x="1091" 
d="M600 401q0 98 -53 154t-141 56q-109 0 -179 -87.5t-71 -215.5q0 -98 53 -154t141 -56q109 0 178.5 87.5t71.5 215.5zM958 0h-435l12 58q-84 -73 -197 -73q-136 0 -220.5 87t-84.5 227q0 99 32.5 181.5t86.5 134.5t121 80.5t139 28.5q172 0 238 -125l23 110h435l-24 -112
h-314l-40 -188h285l-24 -109h-284l-41 -188h315z" />
    <glyph glyph-name="oe" unicode="&#x153;" horiz-adv-x="904" 
d="M601 -15q-119 0 -181 87q-77 -87 -191 -87q-100 0 -160.5 65t-60.5 161q0 126 78 208.5t192 82.5q119 0 175 -87q78 87 189 87q98 0 153.5 -55.5t55.5 -145.5q0 -45 -14 -89h-347q-1 -4 -1 -11q0 -52 32.5 -84.5t82.5 -32.5q87 0 125 71l88 -49q-27 -52 -83.5 -86.5
t-132.5 -34.5zM503 297h234q0 1 0.5 6.5t0.5 8.5q0 37 -24 65t-75 28q-52 0 -87 -31t-49 -77zM381 273q0 57 -30 91t-81 34q-60 0 -103 -51t-43 -132q0 -57 30.5 -91.5t80.5 -34.5q58 0 102 49t44 135z" />
    <glyph glyph-name="Scaron" unicode="&#x160;" horiz-adv-x="583" 
d="M470 883h112l-145 -124h-129l-89 124h100l60 -65zM264 91q55 0 88 27t33 70q0 60 -67 90l-89 40q-134 60 -134 187q0 94 71 156.5t175 62.5q64 0 112.5 -20.5t74.5 -53t38 -65.5t12 -65l-113 -20q0 16 -4.5 32.5t-17 37.5t-40.5 34.5t-68 13.5q-54 0 -86 -28.5t-32 -71.5
q0 -59 60 -86l89 -40q144 -64 144 -192q0 -87 -68 -151t-177 -64q-68 0 -121 21.5t-82.5 57t-44.5 75t-15 80.5q0 3 0.5 9t0.5 9l116 20q-1 -7 -1 -21q0 -60 36.5 -102.5t109.5 -42.5z" />
    <glyph glyph-name="scaron" unicode="&#x161;" horiz-adv-x="443" 
d="M356 694h104l-137 -145h-125l-74 145h94l53 -77zM-13 151l100 19q0 -40 23.5 -67t65.5 -27q33 0 51 16.5t18 39.5q0 34 -41 52l-62 27q-96 42 -96 131q0 65 50.5 112.5t131.5 47.5q49 0 85 -14.5t55 -38.5t28 -46.5t10 -45.5l-101 -21q-2 29 -21 52.5t-62 23.5
q-30 0 -48 -16t-18 -39q0 -33 34 -48l64 -28q105 -46 105 -139q0 -60 -47.5 -108.5t-136.5 -48.5q-54 0 -93 17t-58.5 44.5t-28 53.5t-8.5 51z" />
    <glyph glyph-name="Ydieresis" unicode="&#x178;" horiz-adv-x="619" 
d="M216 814q0 30 21.5 52t52.5 22q26 0 42.5 -17t16.5 -42q0 -32 -22 -53t-51 -21q-26 0 -43 16.5t-17 42.5zM422 814q0 30 21.5 52t52.5 22q26 0 42.5 -17t16.5 -42q0 -32 -22 -53t-51 -21q-26 0 -43 16.5t-17 42.5zM246 302l-159 407h127l110 -292l211 292h144l-314 -411
l-62 -298h-121z" />
    <glyph glyph-name="Zcaron" unicode="&#x17d;" horiz-adv-x="625" 
d="M495 883h112l-145 -124h-129l-89 124h100l60 -65zM507 0h-537l25 116l475 481h-364l24 112h523l-24 -112l-481 -484h383z" />
    <glyph glyph-name="zcaron" unicode="&#x17e;" horiz-adv-x="483" 
d="M369 694h104l-137 -145h-125l-74 145h94l53 -77zM368 0h-400l22 102l303 284h-235l22 101h385l-22 -100l-307 -285h253z" />
    <glyph glyph-name="florin" unicode="&#x192;" horiz-adv-x="489" 
d="M99 24l73 364h-103v99h123l21 101q16 76 65 114t112 38q45 0 83 -12v-101q-27 8 -57 8q-74 0 -91 -84l-13 -64h122v-99h-142l-80 -401q-16 -76 -65.5 -114t-112.5 -38q-44 0 -85 12v101q28 -7 61 -7q73 0 89 83z" />
    <glyph glyph-name="circumflex" unicode="&#x2c6;" horiz-adv-x="386" 
d="M61 549h-103l138 143h123l76 -143h-95l-53 77z" />
    <glyph glyph-name="caron" unicode="&#x2c7;" horiz-adv-x="386" 
d="M223 694h104l-137 -145h-125l-74 145h94l53 -77z" />
    <glyph glyph-name="uni02C9" unicode="&#x2c9;" horiz-adv-x="328" 
d="M243 577h-277l19 90h277z" />
    <glyph glyph-name="breve" unicode="&#x2d8;" horiz-adv-x="359" 
d="M158 547q-61 0 -96 35.5t-35 85.5q0 16 3 27h79q-1 -4 -1 -8q0 -23 14 -38.5t45 -15.5q62 0 83 62h88q-14 -63 -60 -105.5t-120 -42.5z" />
    <glyph glyph-name="dotaccent" unicode="&#x2d9;" horiz-adv-x="191" 
d="M-29 614q0 32 23.5 56.5t56.5 24.5q29 0 47.5 -18.5t18.5 -45.5q0 -34 -23.5 -58t-56.5 -24q-29 0 -47.5 19t-18.5 46z" />
    <glyph glyph-name="ring" unicode="&#x2da;" horiz-adv-x="277" 
d="M98 755q44 0 74.5 -28.5t30.5 -71.5q0 -48 -37 -84t-85 -36q-44 0 -75 28.5t-31 70.5q0 52 37.5 86.5t85.5 34.5zM44 641q0 -18 11 -28.5t29 -10.5q20 0 34 13t14 34q0 17 -11 28t-29 11q-19 0 -33.5 -13.5t-14.5 -33.5z" />
    <glyph glyph-name="ogonek" unicode="&#x2db;" horiz-adv-x="218" 
d="M56 -220q-44 0 -73 25t-29 67q0 57 39 93.5t90 55.5l65 -21q-103 -42 -103 -104q0 -37 45 -39q7 0 13.5 0.5t10.5 0.5l4 1l-15 -72q-23 -7 -47 -7z" />
    <glyph glyph-name="tilde" unicode="&#x2dc;" horiz-adv-x="375" 
d="M80 555h-79q8 69 42 102t82 33q34 0 71 -24l6 -4q26 -18 42 -18q31 0 40 44h78q-20 -135 -121 -135q-34 0 -70 24l-8 5q-28 17 -43 17q-31 0 -40 -44z" />
    <glyph glyph-name="hungarumlaut" unicode="&#x2dd;" horiz-adv-x="373" 
d="M161 696l-126 -148h-80l84 148h122zM318 696l-139 -148h-80l96 148h123z" />
    <glyph glyph-name="uni0394" unicode="&#x394;" horiz-adv-x="663" 
d="M480 111l-172 465l-171 -465h343zM-30 0l274 709h130l274 -709h-678z" />
    <glyph glyph-name="uni03A9" unicode="&#x3a9;" horiz-adv-x="801" 
d="M399 614q-90 0 -158 -60.5t-68 -162.5q0 -90 56 -150.5t131 -76.5v-164h-304v109h185q-81 31 -136 107.5t-55 179.5q0 148 103 238t246 90t246 -90t103 -238q0 -103 -55 -179.5t-136 -107.5h185v-109h-304v164q75 16 131 76.5t56 150.5q0 102 -68 162.5t-158 60.5z" />
    <glyph glyph-name="uni03BC" unicode="&#x3bc;" horiz-adv-x="589" 
d="M58 -190v677h117v-286q0 -49 24 -80t74 -31q49 0 75.5 30t26.5 79v288h116v-398q0 -49 5 -89h-111q-4 20 -4 55q-19 -33 -57 -51t-81 -18q-38 0 -69 14v-190h-116z" />
    <glyph glyph-name="pi" unicode="&#x3c0;" horiz-adv-x="638" 
d="M500 387v-248q0 -48 51 -48q19 0 31 4v-90q-35 -13 -65 -13q-65 0 -98.5 37t-33.5 96v262h-147v-387h-115v387h-83v100h540v-100h-80z" />
    <glyph glyph-name="uni2007" unicode="&#x2007;" horiz-adv-x="607" 
 />
    <glyph glyph-name="uni2008" unicode="&#x2008;" horiz-adv-x="272" 
 />
    <glyph glyph-name="uni200B" unicode="&#x200b;" horiz-adv-x="0" 
 />
    <glyph glyph-name="endash" unicode="&#x2013;" horiz-adv-x="633" 
d="M549 242h-514l21 101h514z" />
    <glyph glyph-name="emdash" unicode="&#x2014;" horiz-adv-x="1085" 
d="M991 242h-946l21 101h946z" />
    <glyph glyph-name="quoteleft" unicode="&#x2018;" horiz-adv-x="225" 
d="M224 515q0 -32 -23.5 -55t-57.5 -23t-55 22.5t-21 58.5q0 77 56.5 136t136.5 63l-12 -57q-37 -5 -67.5 -30t-39.5 -59q8 4 21 4q27 0 44.5 -17t17.5 -43z" />
    <glyph glyph-name="quoteright" unicode="&#x2019;" horiz-adv-x="215" 
d="M92 639q0 32 24 55t58 23t55 -23t21 -58q0 -77 -57 -136t-136 -63l11 57q36 5 67.5 30.5t39.5 58.5q-8 -4 -21 -4q-27 0 -44.5 17t-17.5 43z" />
    <glyph glyph-name="quotesinglbase" unicode="&#x201a;" horiz-adv-x="223" 
d="M-24 55q0 33 23.5 55.5t57.5 22.5t55 -22.5t21 -58.5q0 -77 -57 -136t-136 -62l12 56q35 5 66.5 30.5t39.5 59.5q-4 -4 -21 -4q-27 0 -44 17t-17 42z" />
    <glyph glyph-name="quotedblleft" unicode="&#x201c;" horiz-adv-x="411" 
d="M411 520q0 -32 -22.5 -53.5t-57.5 -21.5q-33 0 -53.5 22t-20.5 57q0 74 55.5 131.5t133.5 61.5l-12 -55q-35 -5 -65.5 -30.5t-38.5 -56.5q6 3 20 3q27 0 44 -16.5t17 -41.5zM220 520q0 -32 -22.5 -53.5t-56.5 -21.5t-54 22t-20 57q0 74 55 131.5t133 61.5l-12 -55
q-35 -5 -65 -30.5t-39 -56.5q6 3 21 3q27 0 43.5 -16.5t16.5 -41.5z" />
    <glyph glyph-name="quotedblright" unicode="&#x201d;" horiz-adv-x="402" 
d="M92 639q0 32 22.5 54t56.5 22q33 0 53.5 -22t20.5 -57q0 -75 -55.5 -132.5t-132.5 -60.5l11 55q35 5 65.5 29.5t38.5 57.5q-4 -4 -20 -4q-27 0 -43.5 16.5t-16.5 41.5zM283 639q0 32 23 54t57 22q33 0 53.5 -22t20.5 -57q0 -75 -55.5 -132.5t-133.5 -60.5l12 55
q35 5 65.5 29.5t38.5 57.5q-4 -4 -20 -4q-27 0 -44 16.5t-17 41.5z" />
    <glyph glyph-name="quotedblbase" unicode="&#x201e;" horiz-adv-x="403" 
d="M-25 54q0 32 22.5 54t56.5 22q33 0 53.5 -22t20.5 -57q0 -75 -55 -132.5t-133 -60.5l12 55q34 5 65 29.5t39 57.5q-4 -4 -21 -4q-27 0 -43.5 16.5t-16.5 41.5zM160 54q0 32 22.5 54t56.5 22q33 0 53.5 -22t20.5 -57q0 -75 -55.5 -132.5t-132.5 -60.5l11 55
q35 5 65.5 29.5t38.5 57.5q-4 -4 -20 -4q-27 0 -43.5 16.5t-16.5 41.5z" />
    <glyph glyph-name="dagger" unicode="&#x2020;" horiz-adv-x="418" 
d="M231 709h98l-31 -145h125l-20 -94h-125l-65 -308h-99l66 308h-125l20 94h124z" />
    <glyph glyph-name="daggerdbl" unicode="&#x2021;" horiz-adv-x="436" 
d="M187 0h-98l30 146h-124l19 93h125l49 231h-125l21 93h124l31 146h98l-31 -146h125l-20 -93h-125l-49 -231h125l-20 -93h-124z" />
    <glyph glyph-name="bullet" unicode="&#x2022;" horiz-adv-x="550" 
d="M55 294q0 87 61 148t147 61t146.5 -61t60.5 -148q0 -85 -61 -146t-146 -61q-86 0 -147 61t-61 146z" />
    <glyph glyph-name="ellipsis" unicode="&#x2026;" horiz-adv-x="870" 
d="M75 -8q-30 0 -49 19t-19 46q0 33 24.5 57.5t58.5 24.5q30 0 49 -19t19 -47q0 -34 -24.5 -57.5t-58.5 -23.5zM369 -8q-30 0 -49 19t-19 46q0 33 24.5 57.5t58.5 24.5q30 0 49 -19t19 -47q0 -34 -24.5 -57.5t-58.5 -23.5zM664 -8q-30 0 -49 19t-19 46q0 33 24.5 57.5
t58.5 24.5q30 0 49 -19t19 -47q0 -34 -24.5 -57.5t-58.5 -23.5z" />
    <glyph glyph-name="perthousand" unicode="&#x2030;" horiz-adv-x="1017" 
d="M790 -6q-69 0 -111 48q-53 -48 -120 -48q-63 0 -104.5 41.5t-41.5 102.5q0 74 53 125.5t125 51.5q67 0 110 -48q51 48 121 48q63 0 104.5 -42t41.5 -103q0 -74 -54.5 -125t-123.5 -51zM194 338q-63 0 -104.5 41.5t-41.5 102.5q0 74 53 125.5t125 51.5q63 0 104.5 -42
t41.5 -103q0 -74 -54.5 -125t-123.5 -51zM742 648l-598 -648h-110l599 648h109zM567 81q31 0 54.5 23.5t23.5 61.5q0 28 -17 45t-46 17q-30 0 -53.5 -24t-23.5 -60q0 -28 16.5 -45.5t45.5 -17.5zM202 425q31 0 54.5 23.5t23.5 61.5q0 28 -17 45t-46 17q-30 0 -53.5 -24
t-23.5 -60q0 -28 16.5 -45.5t45.5 -17.5zM798 81q31 0 54.5 23.5t23.5 61.5q0 28 -17 45t-46 17q-30 0 -53.5 -24t-23.5 -60q0 -28 16.5 -45.5t45.5 -17.5z" />
    <glyph glyph-name="guilsinglleft" unicode="&#x2039;" horiz-adv-x="293" 
d="M217 100h-108l-99 196l174 191h119l-180 -200z" />
    <glyph glyph-name="guilsinglright" unicode="&#x203a;" horiz-adv-x="290" 
d="M46 487h108l99 -196l-174 -191h-119l181 200z" />
    <glyph glyph-name="uni2042" unicode="&#x2042;" horiz-adv-x="813" 
d="M514 709l-22 -115l112 36l10 -78l-113 -36l53 -88l-70 -47l-54 94l-87 -94l-59 48l89 93l-100 34l36 74l99 -36l19 115h87zM241 317l-22 -115l112 36l10 -78l-113 -36l53 -88l-70 -47l-54 94l-87 -94l-59 48l89 93l-100 34l36 74l99 -36l19 115h87zM652 317l-22 -115
l112 36l10 -78l-113 -36l53 -88l-70 -47l-54 94l-87 -94l-59 48l89 93l-100 34l36 74l99 -36l19 115h87z" />
    <glyph glyph-name="fraction" unicode="&#x2044;" horiz-adv-x="538" 
d="M623 648l-598 -648h-110l599 648h109z" />
    <glyph glyph-name="uni2051" unicode="&#x2051;" horiz-adv-x="434" 
d="M334 709l-22 -115l112 36l10 -78l-113 -36l53 -88l-70 -47l-54 94l-87 -94l-59 48l89 93l-100 34l36 74l99 -36l19 115h87zM242 318l-22 -115l112 36l10 -78l-113 -36l53 -88l-70 -47l-54 94l-87 -94l-59 48l89 93l-100 34l36 74l99 -36l19 115h87z" />
    <glyph glyph-name="uni2070" unicode="&#x2070;" horiz-adv-x="415" 
d="M55 477q0 41 11 81.5t32 77t58.5 59t84.5 22.5q70 0 107 -40t37 -101q0 -97 -48 -169t-138 -72q-63 0 -103.5 39t-40.5 103zM142 479q0 -28 15.5 -47t45.5 -19q46 0 70.5 52t24.5 109q0 66 -61 66q-26 0 -46 -18.5t-30 -46t-14.5 -52t-4.5 -44.5z" />
    <glyph glyph-name="uni2074" unicode="&#x2074;" horiz-adv-x="433" 
d="M56 417l19 96l204 196h101l-47 -219h63l-16 -73h-62l-2 -8q-1 -8 -5.5 -26.5t-8.5 -39.5h-89l15 74h-172zM243 490l28 122l-127 -122h99z" />
    <glyph glyph-name="uni2075" unicode="&#x2075;" horiz-adv-x="402" 
d="M52 459l85 8q0 -24 14.5 -39.5t40.5 -15.5q25 0 43 15.5t18 43.5q0 23 -15 36t-38 13q-26 0 -46 -16l-73 37l74 168h219l-16 -75h-155l-28 -62q20 12 54 12q52 0 83 -28t31 -78q0 -59 -43.5 -100.5t-108.5 -41.5q-61 0 -100 34.5t-39 88.5z" />
    <glyph glyph-name="uni2076" unicode="&#x2076;" horiz-adv-x="391" 
d="M384 692l-31 -67q-31 17 -75 17q-37 0 -70.5 -20t-47.5 -56q24 23 73 23q53 0 84.5 -30t31.5 -79q0 -65 -46 -105t-110 -40q-60 0 -100.5 40t-40.5 109q0 100 65 166t162 66q67 0 105 -24zM207 520q-26 0 -45 -16.5t-19 -43.5q0 -23 15 -37t39 -14q25 0 43.5 16.5
t18.5 46.5q0 21 -14.5 34.5t-37.5 13.5z" />
    <glyph glyph-name="uni2077" unicode="&#x2077;" horiz-adv-x="364" 
d="M394 709l-16 -74q-159 -112 -213 -292h-95q15 60 46 116.5t64.5 92.5t55.5 55.5t32 25.5h-186l15 76h297z" />
    <glyph glyph-name="uni2078" unicode="&#x2078;" horiz-adv-x="398" 
d="M193 600q0 -15 11.5 -26t29.5 -11q22 0 38.5 12.5t16.5 33.5q0 15 -11 26t-33 11q-24 0 -38 -13t-14 -33zM151 446q0 -19 15.5 -30t37.5 -11q28 0 44.5 14t16.5 37q0 17 -13.5 29t-39.5 12q-27 0 -44 -15t-17 -36zM203 335q-69 0 -106 28t-37 73q0 34 26 61t69 37
q-21 8 -34.5 28.5t-13.5 41.5q0 49 39.5 81t104.5 32q59 0 93 -27t34 -69q0 -31 -21 -56.5t-57 -37.5q22 -7 38 -29t16 -45q0 -52 -43 -85t-108 -33z" />
    <glyph glyph-name="uni2079" unicode="&#x2079;" horiz-adv-x="409" 
d="M47 367l32 67q34 -23 83 -23q37 0 69.5 20.5t42.5 58.5q-27 -27 -71 -27q-53 0 -87 31t-34 80q0 63 45.5 102.5t109.5 39.5q60 0 99.5 -38t39.5 -106q0 -106 -59.5 -171.5t-157.5 -65.5q-65 0 -112 32zM222 530q26 0 43.5 18t17.5 45q0 22 -14.5 36t-35.5 14
q-25 0 -43 -17t-18 -46q0 -22 14 -36t36 -14z" />
    <glyph glyph-name="uni2080" unicode="&#x2080;" horiz-adv-x="415" 
d="M20 61q0 41 11 81.5t32 77t58.5 59t84.5 22.5q70 0 107 -40t37 -101q0 -97 -48 -169t-138 -72q-63 0 -103.5 39t-40.5 103zM107 63q0 -28 15.5 -47t45.5 -19q46 0 70.5 52t24.5 109q0 66 -61 66q-26 0 -46 -18.5t-30 -46t-14.5 -52t-4.5 -44.5z" />
    <glyph glyph-name="uni2081" unicode="&#x2081;" horiz-adv-x="298" 
d="M142 -90h-91l53 238h-85l12 59q39 1 68.5 21t41.5 48h80z" />
    <glyph glyph-name="uni2082" unicode="&#x2082;" horiz-adv-x="382" 
d="M109 81l64 28q52 23 52 59q0 16 -11.5 29t-33.5 13q-28 0 -44 -18t-16 -51l-84 3q0 63 40.5 101t106.5 38q63 0 98 -31.5t35 -78.5q0 -83 -102 -127l-76 -33q-22 -10 -28 -27h171l-16 -76h-278q8 121 122 171z" />
    <glyph glyph-name="uni2083" unicode="&#x2083;" horiz-adv-x="427" 
d="M138 77l-27 64l111 62h-163l16 74h272l-17 -85l-108 -59q37 -8 59.5 -34.5t22.5 -64.5q0 -53 -43 -91.5t-110 -38.5q-62 0 -101.5 33.5t-39.5 85.5q0 8 2 16l82 6q-1 -5 -1 -10q0 -23 16.5 -39.5t41.5 -16.5q29 0 46 15t17 42q0 21 -15 33.5t-36 12.5q-13 0 -25 -5z" />
    <glyph glyph-name="uni2084" unicode="&#x2084;" horiz-adv-x="430" 
d="M-7 -16l19 96l204 196h101l-47 -219h63l-16 -73h-62l-1 -8q-2 -8 -6.5 -26.5t-8.5 -39.5h-89l15 74h-172zM180 57l28 122l-127 -122h99z" />
    <glyph glyph-name="uni2085" unicode="&#x2085;" horiz-adv-x="402" 
d="M-7 26l85 8q0 -24 14.5 -39.5t40.5 -15.5q25 0 43 15.5t18 43.5q0 23 -15 36t-38 13q-26 0 -46 -16l-73 37l74 168h219l-16 -75h-155l-28 -62q20 12 54 12q52 0 83 -28t31 -78q0 -59 -43.5 -100.5t-108.5 -41.5q-61 0 -100 34.5t-39 88.5z" />
    <glyph glyph-name="uni2086" unicode="&#x2086;" horiz-adv-x="391" 
d="M325 260l-31 -67q-31 17 -75 17q-37 0 -70.5 -20t-47.5 -56q24 23 73 23q53 0 84.5 -30t31.5 -79q0 -65 -46 -105t-110 -40q-60 0 -100.5 40t-40.5 109q0 100 65 166t162 66q67 0 105 -24zM148 88q-26 0 -45 -16.5t-19 -43.5q0 -23 15 -37t39 -14q25 0 43.5 16.5
t18.5 46.5q0 21 -14.5 34.5t-37.5 13.5z" />
    <glyph glyph-name="uni2087" unicode="&#x2087;" horiz-adv-x="364" 
d="M337 276l-16 -74q-159 -112 -213 -292h-95q15 60 46 116.5t64.5 92.5t55.5 55.5t32 25.5h-186l15 76h297z" />
    <glyph glyph-name="uni2088" unicode="&#x2088;" horiz-adv-x="398" 
d="M136 167q0 -15 11.5 -26t29.5 -11q22 0 38.5 12.5t16.5 33.5q0 15 -11 26t-33 11q-24 0 -38 -13t-14 -33zM94 13q0 -19 15.5 -30t37.5 -11q28 0 44.5 14t16.5 37q0 17 -13.5 29t-39.5 12q-27 0 -44 -15t-17 -36zM146 -98q-69 0 -106 28t-37 73q0 34 26 61t69 37
q-21 8 -34.5 28.5t-13.5 41.5q0 49 39.5 81t104.5 32q59 0 93 -27t34 -69q0 -31 -21 -56.5t-57 -37.5q22 -7 38 -29t16 -45q0 -52 -43 -85t-108 -33z" />
    <glyph glyph-name="uni2089" unicode="&#x2089;" horiz-adv-x="409" 
d="M3 -65l32 67q34 -23 83 -23q37 0 69.5 20.5t42.5 58.5q-27 -27 -71 -27q-53 0 -87 31t-34 80q0 63 45.5 102.5t109.5 39.5q60 0 99.5 -38t39.5 -106q0 -106 -59.5 -171.5t-157.5 -65.5q-65 0 -112 32zM178 98q26 0 43.5 18t17.5 45q0 22 -14.5 36t-35.5 14q-25 0 -43 -17
t-18 -46q0 -22 14 -36t36 -14z" />
    <glyph glyph-name="Euro" unicode="&#x20ac;" horiz-adv-x="680" 
d="M49 360l19 85h84q45 104 140 161t200 57q127 0 198 -66l-65 -86q-51 49 -143 49q-58 0 -113.5 -29t-90.5 -86h299l-57 -85h-275q-8 -37 -8 -74h241l-57 -87h-169q21 -54 70 -82.5t113 -28.5q70 0 122 34l37 -90q-76 -47 -174 -47q-105 0 -185.5 57.5t-105.5 156.5h-114
l19 87h85q0 40 7 74h-77z" />
    <glyph glyph-name="uni2113" unicode="&#x2113;" horiz-adv-x="479" 
d="M100 131q0 37 13 89q-48 -10 -73 -12l21 103q34 4 73 17l46 218q15 70 58 109t101 39q62 0 96 -34t34 -91q0 -85 -66.5 -172.5t-173.5 -139.5l-14 -68q-5 -23 -5 -32q0 -62 75 -62q35 0 73 19l-21 -99q-26 -22 -79 -22q-78 0 -118 37t-40 101zM289 538l-31 -147
q102 76 102 170q0 31 -28 31q-32 0 -43 -54z" />
    <glyph glyph-name="trademark" unicode="&#x2122;" horiz-adv-x="875" 
d="M361 632h-107l-61 -288h-85l61 288h-108l16 77h300zM776 344h-83l48 228l-139 -228h-64l-49 227l-48 -227h-84l77 365h108l50 -232l141 232h120z" />
    <glyph glyph-name="Omega" unicode="&#x2126;" horiz-adv-x="801" 
d="M399 614q-90 0 -158 -60.5t-68 -162.5q0 -90 56 -150.5t131 -76.5v-164h-304v109h185q-81 31 -136 107.5t-55 179.5q0 148 103 238t246 90t246 -90t103 -238q0 -103 -55 -179.5t-136 -107.5h185v-109h-304v164q75 16 131 76.5t56 150.5q0 102 -68 162.5t-158 60.5z" />
    <glyph glyph-name="uni2160" unicode="&#x2160;" horiz-adv-x="488" 
d="M107 648h401l-21 -104h-142l-93 -440h140l-21 -104h-401l21 104h142l93 440h-141z" />
    <glyph glyph-name="uni2161" unicode="&#x2161;" horiz-adv-x="765" 
d="M107 648h678l-21 -104h-138l-93 -440h137l-22 -104h-678l21 104h139l93 440h-138zM249 104h165l93 440h-165z" />
    <glyph glyph-name="uni2162" unicode="&#x2162;" horiz-adv-x="1039" 
d="M688 104l93 440h-161l-92 -440h160zM409 104l93 440h-161l-92 -440h160zM-30 0l21 104h139l93 440h-138l22 104h952l-21 -104h-139l-92 -440h137l-22 -104h-952z" />
    <glyph glyph-name="uni2163" unicode="&#x2163;" horiz-adv-x="1008" 
d="M85 544l22 104h931l-21 -104h-113l-239 -440h258l-21 -104h-932l21 104h132l93 440h-131zM334 544l-93 -440h225l-53 440h-79zM535 544l40 -389l205 389h-245z" />
    <glyph glyph-name="uni2164" unicode="&#x2164;" horiz-adv-x="772" 
d="M-15 104h249l-53 440h-106l22 104h705l-21 -104h-110l-239 -440h252l-21 -104h-700zM303 544l40 -389l205 389h-245z" />
    <glyph glyph-name="uni2165" unicode="&#x2165;" horiz-adv-x="1010" 
d="M79 544l21 104h930l-22 -104h-131l-93 -440h131l-22 -104h-930l22 104h255l-53 440h-108zM678 544l-239 -440h227l93 440h-81zM310 544l39 -389l206 389h-245z" />
    <glyph glyph-name="uni2166" unicode="&#x2166;" horiz-adv-x="1293" 
d="M349 155l207 389h-246zM666 104l92 440h-79l-240 -440h227zM942 104l93 440h-159l-92 -440h158zM1176 0h-1213l22 104h255l-53 440h-109l21 104h1213l-21 -104h-138l-92 -440h136z" />
    <glyph glyph-name="uni2167" unicode="&#x2167;" horiz-adv-x="1557" 
d="M85 544l22 104h1470l-22 -104h-134l-93 -440h133l-21 -104h-1470l21 104h254l-51 440h-109zM679 544l-237 -440h226l93 440h-82zM879 544l-93 -440h153l93 440h-153zM1150 544l-93 -440h152l93 440h-152zM316 544l37 -389l202 389h-239z" />
    <glyph glyph-name="uni2168" unicode="&#x2168;" horiz-adv-x="980" 
d="M85 544l22 104h903l-22 -104h-105l-208 -226l109 -214h111l-22 -104h-903l21 104h132l93 440h-131zM531 319l-114 225h-83l-93 -440h87zM553 544l66 -138l125 138h-191zM586 233l-119 -129h181z" />
    <glyph glyph-name="uni2169" unicode="&#x2169;" horiz-adv-x="744" 
d="M295 319l-114 225h-102l21 104h674l-22 -104h-105l-208 -226l109 -214h110l-21 -104h-674l22 104h107zM317 544l66 -138l125 138h-191zM350 233l-119 -129h181z" />
    <glyph glyph-name="uni216C" unicode="&#x216c;" horiz-adv-x="631" 
d="M107 648h374l-21 -104h-134l-93 -440h192l39 183h116l-61 -287h-549l21 104h124l93 440h-123z" />
    <glyph glyph-name="uni216D" unicode="&#x216d;" horiz-adv-x="718" 
d="M608 648h117l-51 -238h-116q-2 58 -49.5 102t-124.5 44q-89 0 -158.5 -71.5t-69.5 -204.5q0 -87 52 -138t132 -51q77 0 122 38.5t59 89.5l3 14h117l-50 -233h-115l11 55q-63 -70 -166 -70q-117 0 -199 81.5t-82 208.5q0 90 31 165t81.5 122.5t113 74t127.5 26.5
q145 0 198 -93z" />
    <glyph glyph-name="uni216E" unicode="&#x216e;" horiz-adv-x="742" 
d="M333 544l-94 -440h70q102 0 177.5 74.5t75.5 206.5q0 77 -44 118t-117 41h-68zM-30 0l21 104h130l92 440h-127l20 104h316q119 0 189.5 -67.5t70.5 -188.5q0 -92 -30.5 -167.5t-82 -124t-117 -74.5t-137.5 -26h-345z" />
    <glyph glyph-name="uni216F" unicode="&#x216f;" horiz-adv-x="1032" 
d="M312 104l-21 -104h-321l21 104h116l92 440h-114l22 104h275l90 -469l286 469h294l-21 -104h-118l-92 -440h116l-22 -104h-325l22 104h91l79 376l-297 -477h-89l-95 474l-79 -373h90z" />
    <glyph glyph-name="arrowleft" unicode="&#x2190;" horiz-adv-x="1046" 
d="M239 86l-244 206l244 208v-157h742v-101h-742v-156z" />
    <glyph glyph-name="arrowup" unicode="&#x2191;" horiz-adv-x="469" 
d="M252 800l215 -257h-165v-690h-100v690h-167z" />
    <glyph glyph-name="arrowright" unicode="&#x2192;" horiz-adv-x="1058" 
d="M1019 292l-274 -224v174h-716v100h716v175z" />
    <glyph glyph-name="arrowdown" unicode="&#x2193;" horiz-adv-x="465" 
d="M443 105l-224 -262l-225 262h174v686h101v-686h174z" />
    <glyph glyph-name="uni2196" unicode="&#x2196;" horiz-adv-x="875" 
d="M60 709h314l-121 -122l527 -526l-71 -71l-527 526l-122 -123v316z" />
    <glyph glyph-name="uni2197" unicode="&#x2197;" horiz-adv-x="764" 
d="M355 709h314v-316l-123 123l-526 -526l-71 71l527 526z" />
    <glyph glyph-name="uni2198" unicode="&#x2198;" horiz-adv-x="865" 
d="M770 0h-314l121 122l-527 526l71 71l526 -527l123 124v-316z" />
    <glyph glyph-name="uni2199" unicode="&#x2199;" horiz-adv-x="755" 
d="M354 0h-314v316l122 -124l527 527l71 -71l-527 -526z" />
    <glyph glyph-name="uni21A9" unicode="&#x21a9;" horiz-adv-x="848" 
d="M401 557v100h193q102 0 167.5 -61t65.5 -153q0 -91 -65.5 -152.5t-164.5 -61.5h-366v-156l-244 207l244 208v-158h363q56 0 93.5 32t37.5 81q0 52 -37.5 83t-97.5 31h-189z" />
    <glyph glyph-name="uni21B0" unicode="&#x21b0;" horiz-adv-x="791" 
d="M288 310l-245 207l245 207v-157h418v-567h-100v467h-318v-157z" />
    <glyph glyph-name="uni21B1" unicode="&#x21b1;" horiz-adv-x="736" 
d="M135 0h-100v567h452v157l244 -207l-244 -207v157h-352v-467z" />
    <glyph glyph-name="uni21B2" unicode="&#x21b2;" horiz-adv-x="766" 
d="M584 709h101v-567h-453v-157l-244 207l244 207v-157h352v467z" />
    <glyph glyph-name="uni21B3" unicode="&#x21b3;" horiz-adv-x="846" 
d="M531 399l244 -207l-244 -207v157h-453v567h101v-467h352v157z" />
    <glyph glyph-name="uni21B4" unicode="&#x21b4;" horiz-adv-x="806" 
d="M58 609v100h572v-484h157l-206 -241l-207 241h156v384h-472z" />
    <glyph glyph-name="uni21C6" unicode="&#x21c6;" horiz-adv-x="1139" 
d="M304 342l-244 207l244 208v-158h756v-101h-756v-156zM1084 166l-244 -207v157h-755v100h755v157z" />
    <glyph glyph-name="partialdiff" unicode="&#x2202;" horiz-adv-x="658" 
d="M275 617q-76 0 -143 -33l-40 92q83 46 191 46q41 0 80.5 -8.5t83 -34t76 -65t53.5 -108.5t21 -158q0 -166 -72.5 -264.5t-210.5 -98.5q-101 0 -174.5 64t-73.5 178q0 104 73 168t171 64q107 0 165 -54q-25 212 -200 212zM333 360q-72 0 -111 -39t-39 -100q0 -60 40.5 -95
t95.5 -35q45 0 78 21t49.5 54.5t24 65.5t7.5 65q-50 63 -145 63z" />
    <glyph glyph-name="Delta" unicode="&#x2206;" horiz-adv-x="663" 
d="M480 111l-172 465l-171 -465h343zM-30 0l274 709h130l274 -709h-678z" />
    <glyph glyph-name="product" unicode="&#x220f;" horiz-adv-x="686" 
d="M598 0h-118v600h-278v-600h-120v709h516v-709z" />
    <glyph glyph-name="summation" unicode="&#x2211;" horiz-adv-x="567" 
d="M35 0v107l263 248l-263 247v107h507v-111h-344l260 -243l-269 -244h353v-111h-507z" />
    <glyph glyph-name="minus" unicode="&#x2212;" horiz-adv-x="552" 
d="M40 244v96h451v-96h-451z" />
    <glyph glyph-name="uni2215" unicode="&#x2215;" horiz-adv-x="403" 
d="M376 653h111l-456 -658h-111z" />
    <glyph glyph-name="uni2219" unicode="&#x2219;" horiz-adv-x="278" 
d="M50 290q0 34 25.5 60t61.5 26q31 0 51 -20t20 -49q0 -37 -25.5 -62t-60.5 -25q-32 0 -52 20.5t-20 49.5z" />
    <glyph glyph-name="radical" unicode="&#x221a;" horiz-adv-x="673" 
d="M725 773h-126l-261 -773h-106l-190 534h120l123 -364l232 704h208v-101z" />
    <glyph glyph-name="infinity" unicode="&#x221e;" horiz-adv-x="821" 
d="M40 290q0 77 52 128t132 51q98 0 184 -104q88 104 179 104q80 0 132 -51t52 -128t-52 -127.5t-132 -50.5q-101 0 -183 103q-91 -103 -180 -103q-80 0 -132 50.5t-52 127.5zM226 369q-38 0 -60.5 -22.5t-22.5 -57.5q0 -34 22.5 -56.5t60.5 -22.5q54 0 117 77
q-35 42 -60.5 62t-56.5 20zM585 210q38 0 60.5 22.5t22.5 56.5q0 35 -23 57.5t-60 22.5q-31 0 -56.5 -19.5t-60.5 -59.5q33 -40 60 -60t57 -20z" />
    <glyph glyph-name="integral" unicode="&#x222b;" horiz-adv-x="322" 
d="M86 -24v560q0 80 46.5 126.5t126.5 46.5h45v-103h-38q-30 0 -47 -18t-17 -53v-561q0 -81 -45.5 -127.5t-125.5 -46.5h-49v103h39q29 0 47 19.5t18 53.5z" />
    <glyph glyph-name="approxequal" unicode="&#x2248;" horiz-adv-x="660" 
d="M516 447l62 -52q-56 -92 -155 -92q-50 0 -104 30l-48 26q-28 15 -57 15q-52 0 -89 -46l-63 54q56 93 153 93q51 0 106 -30l46 -25q31 -18 63 -18q50 0 86 45zM516 250l62 -53q-56 -92 -155 -92q-50 0 -104 30l-48 26q-28 15 -57 15q-52 0 -89 -46l-63 54q56 93 153 93
q51 0 106 -30l46 -25q31 -18 63 -18q50 0 86 46z" />
    <glyph glyph-name="notequal" unicode="&#x2260;" horiz-adv-x="619" 
d="M62 343v94h292l66 95h109l-66 -95h74v-94h-139l-70 -102h209v-95h-274l-68 -98h-109l68 98h-92v95h157l70 102h-227z" />
    <glyph glyph-name="lessequal" unicode="&#x2264;" horiz-adv-x="572" 
d="M65 47v96h422v-96h-422zM65 311v97l422 141v-99l-292 -89l292 -91v-99z" />
    <glyph glyph-name="greaterequal" unicode="&#x2265;" horiz-adv-x="572" 
d="M487 143v-96h-422v96h422zM487 408v-97l-422 -140v98l292 90l-292 90v100z" />
    <glyph glyph-name="dotmath" unicode="&#x22c5;" horiz-adv-x="278" 
d="M50 290q0 34 25.5 60t61.5 26q31 0 51 -20t20 -49q0 -37 -25.5 -62t-60.5 -25q-32 0 -52 20.5t-20 49.5z" />
    <glyph glyph-name="uni24C5" unicode="&#x24c5;" horiz-adv-x="818" 
d="M35 355q0 153 107 261t259 108q153 0 261 -108.5t108 -260.5q0 -153 -108 -261.5t-261 -108.5q-152 0 -259 108.5t-107 261.5zM117 355q0 -124 82.5 -209t201.5 -85q120 0 202.5 85t82.5 209t-82.5 208.5t-202.5 84.5q-119 0 -201.5 -84.5t-82.5 -208.5zM380 369h47
q36 0 57.5 18t21.5 52q0 46 -55 46h-46zM442 297h-78l-29 -141h-84l85 400h139q51 0 84 -33.5t33 -79.5q0 -61 -43 -103.5t-107 -42.5z" />
    <glyph glyph-name="filledbox" unicode="&#x25a0;" horiz-adv-x="882" 
d="M87 0v709h709v-709h-709z" />
    <glyph glyph-name="H22073" unicode="&#x25a1;" horiz-adv-x="882" 
d="M796 0h-709v709h709v-709zM186 613v-518h509v518h-509z" />
    <glyph glyph-name="triagup" unicode="&#x25b2;" horiz-adv-x="834" 
d="M355 724l418 -724h-838z" />
    <glyph glyph-name="uni25B3" unicode="&#x25b3;" horiz-adv-x="834" 
d="M-65 0l420 724l417 -724h-837zM354 525l-250 -430h498z" />
    <glyph glyph-name="lozenge" unicode="&#x25ca;" horiz-adv-x="586" 
d="M293 123l134 231l-134 232l-134 -232zM351 0h-116l-205 354l205 355h116l205 -355z" />
    <glyph glyph-name="circle" unicode="&#x25cb;" horiz-adv-x="831" 
d="M784 354q0 -154 -108 -262t-262 -108t-262.5 108t-108.5 262t108.5 262.5t262.5 108.5t262 -108.5t108 -262.5zM683 354q0 113 -78.5 193t-190.5 80t-191.5 -80t-79.5 -193t79.5 -193t191.5 -80t190.5 80t78.5 193z" />
    <glyph glyph-name="H18533" unicode="&#x25cf;" horiz-adv-x="831" 
d="M43 354q0 154 108 262.5t262 108.5t262.5 -108.5t108.5 -262.5t-108.5 -262t-262.5 -108t-262 108t-108 262z" />
    <glyph glyph-name="uni262E" unicode="&#x262e;" horiz-adv-x="818" 
d="M771 355q0 -153 -107.5 -261.5t-260.5 -108.5q-152 0 -259 108.5t-107 261.5t107 261t259 108q153 0 260.5 -108t107.5 -261zM672 355q0 102 -62.5 178.5t-158.5 93.5v-215l195 -178q26 58 26 121zM133 355q0 -65 26 -120l193 177v215q-95 -18 -157 -94t-62 -178zM451 81
q81 15 138 71l-138 128v-199zM215 154q57 -57 137 -72v198z" />
    <glyph glyph-name="uni2713" unicode="&#x2713;" horiz-adv-x="816" 
d="M886 656l-627 -673l-288 321l73 68l219 -239l551 594z" />
    <glyph glyph-name="uni2715" unicode="&#x2715;" horiz-adv-x="781" 
d="M105 -5l-70 70l285 289l-285 288l71 70l283 -287l283 287l71 -70l-284 -288l287 -289l-70 -70l-286 289z" />
    <glyph glyph-name="uni2780" unicode="&#x2780;" horiz-adv-x="818" 
d="M37 355q0 153 107 261t259 108t260 -108.5t108 -260.5q0 -153 -108 -261.5t-260 -108.5t-259 108.5t-107 261.5zM119 355q0 -124 82 -209t202 -85q119 0 201.5 85t82.5 209t-82.5 208.5t-201.5 84.5q-120 0 -202 -84.5t-82 -208.5zM461 173h-91v232h-89v60q40 1 66 22.5
t32 51.5h82v-366z" />
    <glyph glyph-name="uni2781" unicode="&#x2781;" horiz-adv-x="818" 
d="M403 724q152 0 260 -108.5t108 -260.5q0 -153 -108 -261.5t-260 -108.5t-259 108.5t-107 261.5t107 261t259 108zM119 355q0 -124 82 -209t202 -85q119 0 201.5 85t82.5 209t-82.5 208.5t-201.5 84.5q-120 0 -202 -84.5t-82 -208.5zM348 344l60 36q40 25 40 57
q0 18 -12.5 31t-35.5 13q-24 0 -38 -14t-15 -37q0 -12 3 -26h-84q-3 14 -3 29q0 51 37 86t101 35q63 0 100.5 -34.5t37.5 -83.5q0 -66 -75 -112l-71 -43q-18 -11 -21 -25h169v-76h-281v15q0 97 88 149z" />
    <glyph glyph-name="uni2782" unicode="&#x2782;" horiz-adv-x="818" 
d="M37 355q0 153 107 261t259 108t260 -108.5t108 -260.5q0 -153 -108 -261.5t-260 -108.5t-259 108.5t-107 261.5zM119 355q0 -124 82 -209t202 -85q119 0 201.5 85t82.5 209t-82.5 208.5t-201.5 84.5q-120 0 -202 -84.5t-82 -208.5zM247 272l80 23q4 -25 23 -41t46 -16
t44 13.5t17 34.5q0 26 -17.5 38.5t-43.5 12.5q-19 0 -34 -6l-32 61l94 70h-164v75h279v-73l-94 -68q46 -5 74.5 -34t28.5 -76q0 -52 -41.5 -88t-109.5 -36q-63 0 -102.5 32t-47.5 78z" />
    <glyph glyph-name="uni2783" unicode="&#x2783;" horiz-adv-x="818" 
d="M37 355q0 153 107 261t259 108t260 -108.5t108 -260.5q0 -153 -108 -261.5t-260 -108.5t-259 108.5t-107 261.5zM119 355q0 -124 82 -209t202 -85q119 0 201.5 85t82.5 209t-82.5 208.5t-201.5 84.5q-120 0 -202 -84.5t-82 -208.5zM226 249v85l173 210h98v-222h62v-73
h-62v-71h-90v71h-181zM407 322v121l-98 -121h98z" />
    <glyph glyph-name="uni2784" unicode="&#x2784;" horiz-adv-x="818" 
d="M37 355q0 153 107 261t259 108t260 -108.5t108 -260.5q0 -153 -108 -261.5t-260 -108.5t-259 108.5t-107 261.5zM119 355q0 -124 82 -209t202 -85q119 0 201.5 85t82.5 209t-82.5 208.5t-201.5 84.5q-120 0 -202 -84.5t-82 -208.5zM247 263l79 26q4 -24 22.5 -38.5
t43.5 -14.5q27 0 43 14t16 39q0 28 -16.5 42t-43.5 14q-34 0 -58 -24l-74 25l47 188h214v-75h-158l-19 -74q24 25 72 25q57 0 91.5 -32t34.5 -87q0 -56 -40 -93t-109 -37q-56 0 -96 30t-49 72z" />
    <glyph glyph-name="uni2785" unicode="&#x2785;" horiz-adv-x="818" 
d="M37 355q0 153 107 261t259 108t260 -108.5t108 -260.5q0 -153 -108 -261.5t-260 -108.5t-259 108.5t-107 261.5zM119 355q0 -124 82 -209t202 -85q119 0 201.5 85t82.5 209t-82.5 208.5t-201.5 84.5q-120 0 -202 -84.5t-82 -208.5zM529 529l-18 -68q-29 12 -64 12
q-45 0 -77.5 -23.5t-42.5 -68.5q32 37 88 37q58 0 94 -32t36 -90t-43 -94.5t-109 -36.5q-65 0 -110.5 44.5t-45.5 123.5q0 97 57.5 155.5t146.5 58.5q49 0 88 -18zM333 294q0 -25 17.5 -40t42.5 -15t42.5 15t17.5 40t-18 40.5t-42 15.5t-42 -15.5t-18 -40.5z" />
    <glyph glyph-name="uni2786" unicode="&#x2786;" horiz-adv-x="818" 
d="M37 355q0 153 107 261t259 108t260 -108.5t108 -260.5q0 -153 -108 -261.5t-260 -108.5t-259 108.5t-107 261.5zM119 355q0 -124 82 -209t202 -85q119 0 201.5 85t82.5 209t-82.5 208.5t-201.5 84.5q-120 0 -202 -84.5t-82 -208.5zM554 532v-78q-18 -14 -36 -32.5
t-43 -53t-43.5 -87.5t-24.5 -116h-96q4 53 19 102.5t33.5 82.5t36.5 58t30 36l12 12h-191v76h303z" />
    <glyph glyph-name="uni2787" unicode="&#x2787;" horiz-adv-x="818" 
d="M37 355q0 153 107 261t259 108t260 -108.5t108 -260.5q0 -153 -108 -261.5t-260 -108.5t-259 108.5t-107 261.5zM119 355q0 -124 82 -209t202 -85q119 0 201.5 85t82.5 209t-82.5 208.5t-201.5 84.5q-120 0 -202 -84.5t-82 -208.5zM403 392q23 0 36.5 12t13.5 31
q0 17 -13 28.5t-37 11.5t-37.5 -11.5t-13.5 -28.5q0 -19 14 -31t37 -12zM403 238q30 0 45 12.5t15 33.5q0 19 -15.5 31.5t-44.5 12.5t-45 -12.5t-16 -31.5q0 -20 15.5 -33t45.5 -13zM403 165q-70 0 -110.5 30.5t-40.5 78.5q0 29 19.5 52.5t51.5 34.5q-28 10 -44 32.5
t-16 48.5q0 46 38.5 75.5t101.5 29.5t101 -29.5t38 -75.5q0 -26 -15.5 -48.5t-43.5 -32.5q32 -11 51.5 -34t19.5 -51q0 -49 -40 -80t-111 -31z" />
    <glyph glyph-name="uni2788" unicode="&#x2788;" horiz-adv-x="818" 
d="M37 355q0 153 107 261t259 108t260 -108.5t108 -260.5q0 -153 -108 -261.5t-260 -108.5t-259 108.5t-107 261.5zM119 355q0 -124 82 -209t202 -85q119 0 201.5 85t82.5 209t-82.5 208.5t-201.5 84.5q-120 0 -202 -84.5t-82 -208.5zM273 181l17 70q31 -13 64 -13
q47 0 79.5 22.5t39.5 69.5q-29 -37 -88 -37q-56 0 -93.5 32.5t-37.5 89.5q0 58 42.5 94.5t109.5 36.5q64 0 109.5 -44t45.5 -121q0 -103 -55 -160t-145 -57q-51 0 -88 17zM464 416q0 25 -17.5 40.5t-43.5 15.5q-25 0 -42.5 -15.5t-17.5 -40.5t17.5 -40.5t42.5 -15.5
q26 0 43.5 15.5t17.5 40.5z" />
    <glyph glyph-name="uniE000" unicode="&#xe000;" horiz-adv-x="776" 
d="M222 -16l-207 241h157v484h572v-100h-471v-384h156z" />
    <glyph glyph-name="uni21B5" unicode="&#xe001;" horiz-adv-x="1097" 
d="M239 122l-199 233h143q1 154 109 261.5t261 107.5q95 0 177 -44l-45 -90q-62 34 -131 34q-112 0 -191 -78.5t-79 -190.5h153zM921 354q-1 -153 -109 -261t-261 -108q-94 0 -177 44l45 90q62 -34 132 -34q112 0 190 78.5t78 190.5h-150l199 232l199 -232h-146z" />
    <glyph glyph-name="uniE002" unicode="&#xe002;" horiz-adv-x="953" 
d="M531 354l198 232l199 -232h-142q0 -153 -108 -261t-262 -108q-153 0 -261 108t-108 261q0 154 108 262t261 108q91 0 169 -40l-42 -91q-59 31 -126 31q-112 0 -190.5 -78.5t-78.5 -191.5t78.5 -192t190.5 -79t190 79t78 192h-154z" />
    <glyph glyph-name="uniFB00" unicode="&#xfb00;" horiz-adv-x="652" 
d="M144 0h-117l82 387h-82l21 100h83l18 86q33 157 184 157q47 0 73 -15l-21 -96l-5 1q-4 2 -14.5 4.5t-21.5 2.5q-66 0 -81 -69l-16 -71h187l18 86q33 157 184 157q47 0 73 -15l-21 -96l-4 1q-5 2 -15.5 4.5t-21.5 2.5q-66 0 -81 -69l-15 -71h106l-21 -100h-107l-81 -387
h-118l82 387h-186z" />
    <glyph glyph-name="fi" unicode="&#xfb01;" horiz-adv-x="612" 
d="M226 387l-82 -387h-117l82 387h-82l21 100h83l19 89q32 154 183 154q47 0 73 -15l-21 -96l-5 1q-4 2 -15 4.5t-22 2.5q-66 0 -81 -72l-15 -68h316l-104 -487h-115l82 387h-200zM465 653q0 34 25 58t58 24q30 0 49 -19t19 -47q0 -35 -25 -59t-58 -24q-30 0 -49 19.5
t-19 47.5z" />
    <glyph glyph-name="fl" unicode="&#xfb02;" horiz-adv-x="610" 
d="M226 387l-82 -387h-117l82 387h-82l21 100h83l19 89q32 154 183 154q47 0 73 -15l-21 -96l-5 1q-4 2 -15 4.5t-22 2.5q-66 0 -81 -72l-15 -68h200l51 237h115l-154 -724h-115l82 387h-200z" />
    <glyph glyph-name="uniFB03" unicode="&#xfb03;" horiz-adv-x="909" 
d="M762 653q0 34 25 58t58 24q30 0 49 -19t19 -47q0 -35 -25 -59t-58 -24q-30 0 -49 19.5t-19 47.5zM144 0h-117l82 387h-82l21 100h83l18 86q33 157 184 157q47 0 73 -15l-21 -96l-5 1q-4 2 -14.5 4.5t-21.5 2.5q-66 0 -81 -69l-16 -71h187l18 86q33 157 184 157
q47 0 73 -15l-21 -96l-4 1q-5 2 -15.5 4.5t-21.5 2.5q-66 0 -81 -69l-15 -71h309l-104 -487h-115l83 387h-195l-81 -387h-118l82 387h-186z" />
    <glyph glyph-name="uniFB04" unicode="&#xfb04;" horiz-adv-x="914" 
d="M144 0h-117l82 387h-82l21 100h83l18 86q33 157 184 157q47 0 73 -15l-21 -96l-5 1q-4 2 -14.5 4.5t-21.5 2.5q-66 0 -81 -69l-16 -71h187l18 86q33 157 184 157q47 0 73 -15l-21 -96l-4 1q-5 2 -15.5 4.5t-21.5 2.5q-66 0 -81 -69l-15 -71h200l51 237h115l-154 -724
h-115l82 387h-201l-81 -387h-118l82 387h-186z" />
    <glyph glyph-name="uniFEFF" unicode="&#xfeff;" horiz-adv-x="0" 
 />
    <glyph glyph-name="zero.numr" horiz-adv-x="415" 
d="M50 416q0 41 11 81.5t32 77t58.5 59t84.5 22.5q70 0 107 -40t37 -101q0 -97 -48 -169t-138 -72q-63 0 -103.5 39t-40.5 103zM137 418q0 -28 15.5 -47t45.5 -19q46 0 70.5 52t24.5 109q0 66 -61 66q-26 0 -46 -18.5t-30 -46t-14.5 -52t-4.5 -44.5z" />
    <glyph glyph-name="one.numr" horiz-adv-x="298" 
d="M179 282h-91l53 238h-85l12 59q39 1 68.5 21t41.5 48h80z" />
    <glyph glyph-name="two.numr" horiz-adv-x="389" 
d="M162 453l64 28q52 23 52 59q0 16 -11.5 29t-33.5 13q-28 0 -44 -18t-16 -51l-84 3q0 63 40.5 101t106.5 38q63 0 98 -31.5t35 -78.5q0 -83 -102 -127l-76 -33q-22 -10 -28 -27h171l-16 -76h-278q8 121 122 171z" />
    <glyph glyph-name="three.numr" horiz-adv-x="427" 
d="M188 448l-27 64l111 62h-163l16 74h272l-17 -85l-108 -59q37 -8 59.5 -34.5t22.5 -64.5q0 -53 -43 -91.5t-110 -38.5q-62 0 -101.5 33.5t-39.5 85.5q0 8 2 16l82 6q-1 -5 -1 -10q0 -23 16.5 -39.5t41.5 -16.5q29 0 46 15t17 42q0 21 -15 33.5t-36 12.5q-13 0 -25 -5z" />
    <glyph glyph-name="four.numr" horiz-adv-x="430" 
d="M50 356l19 96l204 196h101l-47 -219h63l-16 -73h-62l-2 -8q-1 -8 -5.5 -26.5t-8.5 -39.5h-89l15 74h-172zM237 429l28 122l-127 -122h99z" />
    <glyph glyph-name="five.numr" horiz-adv-x="402" 
d="M50 398l85 8q0 -24 14.5 -39.5t40.5 -15.5q25 0 43 15.5t18 43.5q0 23 -15 36t-38 13q-26 0 -46 -16l-73 37l74 168h219l-16 -75h-155l-28 -62q20 12 54 12q52 0 83 -28t31 -78q0 -59 -43.5 -100.5t-108.5 -41.5q-61 0 -100 34.5t-39 88.5z" />
    <glyph glyph-name="six.numr" horiz-adv-x="391" 
d="M382 631l-31 -67q-31 17 -75 17q-37 0 -70.5 -20t-47.5 -56q24 23 73 23q53 0 84.5 -30t31.5 -79q0 -65 -46 -105t-110 -40q-60 0 -100.5 40t-40.5 109q0 100 65 166t162 66q67 0 105 -24zM205 459q-26 0 -45 -16.5t-19 -43.5q0 -23 15 -37t39 -14q25 0 43.5 16.5
t18.5 46.5q0 21 -14.5 34.5t-37.5 13.5z" />
    <glyph glyph-name="seven.numr" horiz-adv-x="364" 
d="M385 648l-16 -74q-159 -112 -213 -292h-95q15 60 46 116.5t64.5 92.5t55.5 55.5t32 25.5h-186l15 76h297z" />
    <glyph glyph-name="eight.numr" horiz-adv-x="398" 
d="M183 539q0 -15 11.5 -26t29.5 -11q22 0 38.5 12.5t16.5 33.5q0 15 -11 26t-33 11q-24 0 -38 -13t-14 -33zM141 385q0 -19 15.5 -30t37.5 -11q28 0 44.5 14t16.5 37q0 17 -13.5 29t-39.5 12q-27 0 -44 -15t-17 -36zM193 274q-69 0 -106 28t-37 73q0 34 26 61t69 37
q-21 8 -34.5 28.5t-13.5 41.5q0 49 39.5 81t104.5 32q59 0 93 -27t34 -69q0 -31 -21 -56.5t-57 -37.5q22 -7 38 -29t16 -45q0 -52 -43 -85t-108 -33z" />
    <glyph glyph-name="nine.numr" horiz-adv-x="409" 
d="M45 305l32 67q34 -23 83 -23q37 0 69.5 20.5t42.5 58.5q-27 -27 -71 -27q-53 0 -87 31t-34 80q0 63 45.5 102.5t109.5 39.5q60 0 99.5 -38t39.5 -106q0 -106 -59.5 -171.5t-157.5 -65.5q-65 0 -112 32zM220 468q26 0 43.5 18t17.5 45q0 22 -14.5 36t-35.5 14
q-25 0 -43 -17t-18 -46q0 -22 14 -36t36 -14z" />
    <glyph glyph-name="zero.dnom" horiz-adv-x="415" 
d="M30 134q0 41 11 81.5t32 77t58.5 59t84.5 22.5q70 0 107 -40t37 -101q0 -97 -48 -169t-138 -72q-63 0 -103.5 39t-40.5 103zM117 136q0 -28 15.5 -47t45.5 -19q46 0 70.5 52t24.5 109q0 66 -61 66q-26 0 -46 -18.5t-30 -46t-14.5 -52t-4.5 -44.5z" />
    <glyph glyph-name="one.dnom" horiz-adv-x="298" 
d="M149 0h-91l53 238h-85l12 59q39 1 68.5 21t41.5 48h80z" />
    <glyph glyph-name="two.dnom" horiz-adv-x="382" 
d="M122 171l64 28q52 23 52 59q0 16 -11.5 29t-33.5 13q-28 0 -44 -18t-16 -51l-84 3q0 63 40.5 101t106.5 38q63 0 98 -31.5t35 -78.5q0 -83 -102 -127l-76 -33q-22 -10 -28 -27h171l-16 -76h-278q8 121 122 171z" />
    <glyph glyph-name="three.dnom" horiz-adv-x="427" 
d="M148 167l-27 64l111 62h-163l16 74h272l-17 -85l-108 -59q37 -8 59.5 -34.5t22.5 -64.5q0 -53 -43 -91.5t-110 -38.5q-62 0 -101.5 33.5t-39.5 85.5q0 8 2 16l82 6q-1 -5 -1 -10q0 -23 16.5 -39.5t41.5 -16.5q29 0 46 15t17 42q0 21 -15 33.5t-36 12.5q-13 0 -25 -5z" />
    <glyph glyph-name="four.dnom" horiz-adv-x="430" 
d="M5 74l19 96l204 196h101l-47 -219h63l-16 -73h-62l-1 -8q-2 -8 -6.5 -26.5t-8.5 -39.5h-89l15 74h-172zM192 147l28 122l-127 -122h99z" />
    <glyph glyph-name="five.dnom" horiz-adv-x="402" 
d="M10 116l85 8q0 -24 14.5 -39.5t40.5 -15.5q25 0 43 15.5t18 43.5q0 23 -15 36t-38 13q-26 0 -46 -16l-73 37l74 168h219l-16 -75h-155l-28 -62q20 12 54 12q52 0 83 -28t31 -78q0 -59 -43.5 -100.5t-108.5 -41.5q-61 0 -100 34.5t-39 88.5z" />
    <glyph glyph-name="six.dnom" horiz-adv-x="391" 
d="M342 350l-31 -67q-31 17 -75 17q-37 0 -70.5 -20t-47.5 -56q24 23 73 23q53 0 84.5 -30t31.5 -79q0 -65 -46 -105t-110 -40q-60 0 -100.5 40t-40.5 109q0 100 65 166t162 66q67 0 105 -24zM165 178q-26 0 -45 -16.5t-19 -43.5q0 -23 15 -37t39 -14q25 0 43.5 16.5
t18.5 46.5q0 21 -14.5 34.5t-37.5 13.5z" />
    <glyph glyph-name="seven.dnom" horiz-adv-x="364" 
d="M343 366l-16 -74q-159 -112 -213 -292h-95q15 60 46 116.5t64.5 92.5t55.5 55.5t32 25.5h-186l15 76h297z" />
    <glyph glyph-name="eight.dnom" horiz-adv-x="398" 
d="M143 257q0 -15 11.5 -26t29.5 -11q22 0 38.5 12.5t16.5 33.5q0 15 -11 26t-33 11q-24 0 -38 -13t-14 -33zM101 103q0 -19 15.5 -30t37.5 -11q28 0 44.5 14t16.5 37q0 17 -13.5 29t-39.5 12q-27 0 -44 -15t-17 -36zM153 -8q-69 0 -106 28t-37 73q0 34 26 61t69 37
q-21 8 -34.5 28.5t-13.5 41.5q0 49 39.5 81t104.5 32q59 0 93 -27t34 -69q0 -31 -21 -56.5t-57 -37.5q22 -7 38 -29t16 -45q0 -52 -43 -85t-108 -33z" />
    <glyph glyph-name="nine.dnom" horiz-adv-x="409" 
d="M10 24l32 67q34 -23 83 -23q37 0 69.5 20.5t42.5 58.5q-27 -27 -71 -27q-53 0 -87 31t-34 80q0 63 45.5 102.5t109.5 39.5q60 0 99.5 -38t39.5 -106q0 -106 -59.5 -171.5t-157.5 -65.5q-65 0 -112 32zM185 187q26 0 43.5 18t17.5 45q0 22 -14.5 36t-35.5 14
q-25 0 -43 -17t-18 -46q0 -22 14 -36t36 -14z" />
    <glyph glyph-name="space.frac" horiz-adv-x="52" 
 />
    <glyph glyph-name="a.ordn" horiz-adv-x="459" 
d="M238 577q-43 0 -68.5 -37.5t-25.5 -84.5q0 -37 18.5 -58t50.5 -21q39 0 65.5 34.5t26.5 91.5q0 35 -17.5 55t-49.5 20zM340 649h87l-56 -267q-6 -32 -6 -59v-18h-83q-1 11 -1 18q0 13 1 24q-32 -48 -93 -48t-97.5 43.5t-36.5 108.5q0 87 50.5 146.5t125.5 59.5
q77 0 100 -48z" />
    <glyph glyph-name="b.ordn" horiz-adv-x="487" 
d="M168 305h-87l106 507h89l-40 -191q32 35 94 35q63 0 98 -40.5t35 -102.5q0 -94 -51 -155t-129 -61q-38 0 -66 16.5t-39 40.5zM298 577q-40 0 -67.5 -34.5t-27.5 -85.5q0 -37 19.5 -59t51.5 -22q38 0 68 33t30 89q0 39 -19.5 59t-54.5 20z" />
    <glyph glyph-name="c.ordn" horiz-adv-x="426" 
d="M395 544l-81 -24q-5 24 -23.5 40.5t-49.5 16.5q-39 0 -68.5 -31.5t-29.5 -87.5q0 -38 22 -60t57 -22q52 0 80 52l74 -29q-22 -48 -64 -76.5t-95 -28.5q-70 0 -116.5 45t-46.5 116q0 90 57 147t137 57q64 0 101 -34t46 -81z" />
    <glyph glyph-name="d.ordn" horiz-adv-x="456" 
d="M238 577q-43 0 -68.5 -37.5t-25.5 -84.5q0 -37 18.5 -58t50.5 -21q39 0 65.5 34.5t26.5 91.5q0 35 -17.5 55t-49.5 20zM282 347q-32 -48 -93 -48t-97.5 43.5t-36.5 108.5q0 87 50.5 146.5t125.5 59.5q71 0 99 -45l42 200h90l-91 -430q-6 -32 -6 -59v-18h-83q-1 9 -1 18
q0 11 1 24z" />
    <glyph glyph-name="e.ordn" horiz-adv-x="419" 
d="M143 516h154q1 0 1 9q0 23 -16.5 41.5t-49.5 18.5q-34 0 -56.5 -19.5t-32.5 -49.5zM374 453h-240q0 -41 22.5 -62t54.5 -21q55 0 80 46l69 -35q-19 -37 -58.5 -61.5t-94.5 -24.5q-67 0 -112.5 43.5t-45.5 114.5q0 91 55.5 148.5t129.5 57.5q70 0 109.5 -39.5t39.5 -104.5
q0 -31 -9 -62z" />
    <glyph glyph-name="f.ordn" horiz-adv-x="335" 
d="M313 572h-74l-56 -267h-91l57 267h-58l17 77h58l13 57q24 111 133 111q33 0 55 -12l-16 -74q-14 6 -31 6q-45 0 -55 -48l-9 -40h74z" />
    <glyph glyph-name="g.ordn" horiz-adv-x="463" 
d="M338 507q0 29 -18.5 49.5t-50.5 20.5q-40 0 -65.5 -28.5t-25.5 -75.5q0 -33 18 -53.5t52 -20.5q39 0 64.5 29.5t25.5 78.5zM46 292l80 16q0 -29 19 -49t56 -20q82 0 102 97l5 24q-25 -36 -81 -36q-64 0 -102 40t-38 103q0 79 50 134t124 55t101 -48l9 41h89l-66 -314
q-16 -76 -64 -124.5t-129 -48.5q-74 0 -114.5 39t-40.5 91z" />
    <glyph glyph-name="h.ordn" horiz-adv-x="456" 
d="M367 305h-90l43 200q2 14 2 20q0 53 -54 53q-29 0 -49 -21t-26 -53l-42 -199h-90l107 507h90l-40 -191q31 37 91 37q51 0 79 -30t28 -78q0 -12 -4 -36z" />
    <glyph glyph-name="i.ordn" horiz-adv-x="261" 
d="M155 759q0 26 18.5 43.5t43.5 17.5q22 0 36 -14t14 -35q0 -26 -18.5 -43.5t-42.5 -17.5q-22 0 -36.5 14t-14.5 35zM159 305h-89l73 344h90z" />
    <glyph glyph-name="j.ordn" horiz-adv-x="271" 
d="M93 281l79 368h89l-82 -389q-10 -48 -40.5 -73t-73.5 -25q-38 0 -61 14l15 71l2 -1q2 0 4.5 -1t6.5 -2t9 -1.5t10 -0.5q35 0 42 40zM184 759q0 26 18 43.5t44 17.5q22 0 36 -14t14 -35q0 -26 -18.5 -43.5t-43.5 -17.5q-22 0 -36 14t-14 35z" />
    <glyph glyph-name="k.ordn" horiz-adv-x="432" 
d="M287 305l-67 140l-54 -46l-20 -94h-89l107 507h90l-61 -286l140 123h126l-170 -145l98 -199h-100z" />
    <glyph glyph-name="l.ordn" horiz-adv-x="246" 
d="M150 305h-89l108 507h89z" />
    <glyph glyph-name="m.ordn" horiz-adv-x="665" 
d="M363 305h-90l43 204q2 14 2 20q0 22 -13 36t-38 14q-56 0 -71 -72l-44 -202h-89l59 285q8 37 8 59h88q0 -14 -3 -35q34 44 94 44q65 0 90 -52q42 52 118 52q46 0 75.5 -30.5t29.5 -77.5q0 -12 -4 -34l-45 -211h-90l43 204q2 14 2 20q0 22 -13 36t-38 14q-55 0 -71 -71z
" />
    <glyph glyph-name="n.ordn" horiz-adv-x="456" 
d="M374 305h-90l43 200q2 14 2 20q0 53 -54 53q-29 0 -49 -21t-26 -53l-42 -199h-90l59 285q8 37 8 59h88q0 -15 -3 -35q33 44 97 44q50 0 77.5 -29.5t27.5 -78.5q0 -18 -3 -36z" />
    <glyph glyph-name="o.ordn" horiz-adv-x="441" 
d="M240 577q-40 0 -67.5 -34t-27.5 -85q0 -38 20 -60t52 -22q38 0 67 32t29 88q0 38 -19.5 59.5t-53.5 21.5zM403 500q0 -85 -54 -145t-137 -60q-71 0 -114 45.5t-43 113.5q0 89 55.5 147t136.5 58q71 0 113.5 -45.5t42.5 -113.5z" />
    <glyph glyph-name="p.ordn" horiz-adv-x="479" 
d="M288 577q-40 0 -67.5 -34.5t-27.5 -85.5q0 -39 19.5 -60t52.5 -21q37 0 67 33t30 89q0 38 -20.5 58.5t-53.5 20.5zM222 612q34 44 98 44t98.5 -41.5t34.5 -106.5q0 -89 -50.5 -150t-129.5 -61q-75 0 -106 51l-37 -176h-89l89 418q7 32 7 59h87q0 -24 -2 -37z" />
    <glyph glyph-name="q.ordn" horiz-adv-x="469" 
d="M431 649l-101 -478h-90l34 160q-32 -32 -81 -32q-61 0 -98.5 43.5t-37.5 108.5q0 87 50.5 146t125.5 59t102 -47l9 40h87zM241 577q-43 0 -68.5 -37.5t-25.5 -84.5q0 -37 19 -58t52 -21q38 0 64.5 34.5t26.5 89.5q0 36 -17.5 56.5t-50.5 20.5z" />
    <glyph glyph-name="r.ordn" horiz-adv-x="289" 
d="M310 557q-13 4 -30 4q-84 0 -104 -97l-34 -159h-89l60 285q7 32 7 59h88q0 -27 -5 -44q33 46 97 46q17 0 29 -3z" />
    <glyph glyph-name="s.ordn" horiz-adv-x="377" 
d="M56 411l76 14q0 -27 14.5 -44.5t41.5 -17.5q22 0 33.5 10.5t11.5 25.5q0 21 -27 33l-40 18q-71 31 -71 95q0 47 36.5 80.5t93.5 33.5q67 0 96.5 -33t30.5 -72l-77 -13q0 19 -13 34.5t-40 15.5q-19 0 -31 -10t-12 -25q0 -21 23 -31l44 -19q75 -33 75 -100q0 -43 -34.5 -77
t-96.5 -34q-39 0 -67.5 12t-42 31.5t-19 37t-5.5 35.5z" />
    <glyph glyph-name="t.ordn" horiz-adv-x="310" 
d="M226 569l-31 -148q-2 -10 -2 -14q0 -29 37 -29q14 0 24 2l-15 -72q-17 -7 -43 -7q-44 0 -69.5 23t-25.5 63q0 13 3 28l32 154h-61l17 80h14q54 0 67 55l11 48h81l-22 -103h67l-17 -80h-67z" />
    <glyph glyph-name="u.ordn" horiz-adv-x="428" 
d="M109 649h89l-42 -197q-3 -14 -3 -24q0 -52 53 -52q28 0 47.5 20.5t25.5 51.5l42 201h89l-56 -272q-8 -40 -8 -72h-86q-1 9 -1 18q0 8 1 18q-29 -44 -87 -44q-53 0 -82.5 31.5t-29.5 81.5q0 20 4 37z" />
    <glyph glyph-name="v.ordn" horiz-adv-x="380" 
d="M411 649l-201 -344h-88l-61 344h93l31 -233l126 233h100z" />
    <glyph glyph-name="w.ordn" horiz-adv-x="587" 
d="M281 649h96l27 -225l108 225h93l-177 -344h-89l-30 237l-122 -237h-93l-34 344h88l17 -224z" />
    <glyph glyph-name="x.ordn" horiz-adv-x="414" 
d="M232 410l-94 -105h-109l163 176q-7 14 -45.5 85.5t-44.5 82.5h99q33 -69 51 -102l90 102h110q-150 -162 -161 -173l92 -171h-98z" />
    <glyph glyph-name="y.ordn" horiz-adv-x="399" 
d="M144 172h-100l120 188l-77 289h96l47 -196l118 196h101z" />
    <glyph glyph-name="z.ordn" horiz-adv-x="409" 
d="M333 305h-284l17 80l202 186h-157l16 78h275l-16 -77l-207 -189h171z" />
    <glyph glyph-name="space.tf" 
 />
    <glyph glyph-name="numbersign.tf" 
d="M46 400v87h105l34 161h95l-35 -161h108l35 161h95l-35 -161h91v-87h-109l-32 -149h91v-87h-110l-35 -164h-95l35 164h-108l-35 -164h-95l35 164h-84v87h103l32 149h-86zM227 400l-32 -149h108l32 149h-108z" />
    <glyph glyph-name="dollar.tf" 
d="M148 -109l24 111q-77 21 -116.5 78t-39.5 121q0 19 1 19l106 17q-1 -6 -1 -17q0 -39 17.5 -71t52.5 -48l39 186l-11 6q-120 58 -120 168q0 81 60.5 136t149.5 59l21 101h92l-23 -112q70 -20 103 -71t33 -102l-105 -19q0 64 -53 92l-39 -188l7 -3q129 -63 129 -171
q0 -77 -59 -133t-154 -59l-21 -100h-93zM211 471q0 -47 44 -73l33 158q-35 -7 -56 -30.5t-21 -54.5zM362 175q0 40 -46 70l-33 -153q77 14 79 83z" />
    <glyph glyph-name="percent.tf" 
d="M238 530q0 23 -14 37.5t-38 14.5q-26 0 -45.5 -20t-19.5 -50q0 -22 14.5 -37.5t37.5 -15.5q26 0 45.5 19.5t19.5 51.5zM193 658q53 0 89 -36t36 -88q0 -63 -46.5 -106t-105.5 -43q-54 0 -89 35t-35 87q0 63 45 107t106 44zM545 543l-21 -99l-500 -324l21 98zM434 140
q0 24 -13.5 38t-37.5 14q-26 0 -45.5 -19.5t-19.5 -49.5q0 -24 13.5 -38.5t37.5 -14.5q26 0 45.5 19.5t19.5 50.5zM514 144q0 -63 -46 -106t-106 -43q-53 0 -88 35t-35 88q0 62 45 106t106 44q53 0 88.5 -36t35.5 -88z" />
    <glyph glyph-name="plus.tf" 
d="M313 244v-197h-99v197h-188v95h188v195h99v-195h189v-95h-189z" />
    <glyph glyph-name="comma.tf" 
d="M154 71q0 42 29.5 70t72.5 28q42 0 69 -28.5t27 -74.5q0 -100 -70.5 -173.5t-172.5 -79.5l15 69q45 7 85 40t49 77q-12 -5 -26 -5q-34 0 -56 21.5t-22 55.5z" />
    <glyph glyph-name="period.tf" 
d="M226 -7q-37 0 -61 24.5t-24 58.5q0 41 30.5 71t72.5 30q38 0 61 -24t23 -58q0 -42 -30 -72t-72 -30z" />
    <glyph glyph-name="zero.tf" 
d="M129 228q0 -136 109 -136q46 0 81.5 36t54.5 90t28.5 107.5t9.5 98.5q0 133 -109 133q-51 0 -88 -39.5t-54 -98.5t-24.5 -107t-7.5 -84zM231 -15q-109 1 -164.5 67.5t-55.5 169.5q0 68 16 140t49 142t94 114.5t141 44.5q109 0 164.5 -67.5t55.5 -170.5q0 -73 -17.5 -147
t-51.5 -141.5t-94 -109.5t-137 -42z" />
    <glyph glyph-name="one.tf" 
d="M27 104h165l75 349h-150l17 78q62 4 114.5 36t73.5 81h104l-115 -544h180l-22 -104h-463z" />
    <glyph glyph-name="two.tf" 
d="M-30 0q4 24 4 27q35 182 207 261l120 55q109 50 109 126q0 38 -25.5 64t-74.5 26q-58 0 -91.5 -39t-33.5 -106v-8l-114 11v6q0 103 67 171.5t178 68.5q105 0 159.5 -52.5t54.5 -133.5q0 -143 -170 -222l-140 -64q-64 -30 -89 -85h334l-23 -106h-472z" />
    <glyph glyph-name="three.tf" 
d="M208 305l-42 98l216 140h-300l21 105h450l-26 -125l-204 -133q64 -7 107.5 -53.5t43.5 -118.5q0 -94 -70.5 -163.5t-181.5 -69.5q-107 0 -169 61.5t-62 145.5q0 14 2 23l117 13q-2 -16 -2 -22q0 -49 31 -83t84 -34q56 0 92.5 34.5t36.5 88.5q0 49 -31.5 74t-74.5 25
q-16 0 -38 -6z" />
    <glyph glyph-name="four.tf" 
d="M-14 142l27 132l352 374h149l-87 -400h99l-22 -106h-99l-28 -142h-118l28 142h-301zM310 248l59 271l-252 -271h193z" />
    <glyph glyph-name="five.tf" 
d="M8 193v6l114 22q-1 -6 -1 -14q0 -49 30 -84t86 -35q54 0 92 35.5t38 97.5q0 49 -30 77t-80 28q-56 0 -97 -34l-103 56l137 300h357l-22 -105h-271l-68 -145q41 25 99 25q91 0 145.5 -50.5t54.5 -138.5q0 -104 -71 -176.5t-183 -72.5q-100 0 -163.5 60t-63.5 148z" />
    <glyph glyph-name="six.tf" 
d="M574 625l-47 -93q-52 26 -119 26q-88 0 -154 -49.5t-91 -135.5q55 57 145 57q93 0 147.5 -52t54.5 -137q0 -113 -76 -184.5t-184 -71.5q-98 0 -163.5 66.5t-65.5 179.5q0 115 47 212t137.5 157t206.5 60q109 0 162 -35zM275 331q-57 0 -95 -37t-38 -94q0 -49 32 -80.5
t81 -31.5q54 0 93 37t39 99q0 49 -30 78t-82 29z" />
    <glyph glyph-name="seven.tf" 
d="M43 543l22 105h509l-22 -105q-27 -18 -55.5 -41t-77 -72.5t-90.5 -106t-86 -142.5t-72 -181h-126q26 99 72.5 190.5t88 147.5t94.5 108.5t72 67t40 29.5h-369z" />
    <glyph glyph-name="eight.tf" 
d="M298 376q51 0 84 29.5t33 75.5q0 34 -25.5 59t-69.5 25q-56 0 -87.5 -30t-31.5 -75q0 -35 25.5 -59.5t71.5 -24.5zM127 175q0 -42 31 -67t82 -25q55 0 91 31.5t36 78.5q0 40 -28.5 66.5t-82.5 26.5q-57 0 -93 -31.5t-36 -79.5zM485 186q0 -91 -73.5 -146t-179.5 -55
q-102 0 -163 49t-61 129q0 63 43 110t117 63q-34 15 -58.5 51.5t-24.5 78.5q0 88 68.5 142.5t169.5 54.5q99 0 155.5 -47.5t56.5 -119.5q0 -60 -38 -106t-104 -64q42 -15 67 -54.5t25 -85.5z" />
    <glyph glyph-name="nine.tf" 
d="M152 428q0 -48 30.5 -77.5t80.5 -29.5q56 0 92.5 36.5t36.5 93.5q0 49 -31 79t-79 30q-53 0 -91.5 -35.5t-38.5 -96.5zM-35 38l48 92q57 -38 135 -38q90 0 153 53.5t78 142.5q-48 -65 -145 -65q-88 0 -145.5 54.5t-57.5 141.5q0 110 75.5 177t181.5 67q102 0 166 -64
t64 -181q0 -193 -101 -313t-270 -120q-115 0 -182 53z" />
    <glyph glyph-name="colon.tf" 
d="M210 -10q-35 0 -57 22.5t-22 54.5q0 39 28 67t68 28q35 0 56.5 -22t21.5 -55q0 -39 -28.5 -67t-66.5 -28zM281 324q-35 0 -57 22.5t-22 54.5q0 39 28 66.5t68 27.5q35 0 56.5 -22t21.5 -54q0 -40 -28 -67.5t-67 -27.5z" />
    <glyph glyph-name="semicolon.tf" 
d="M140 67q0 39 27 64t67 25q39 0 63.5 -26t24.5 -69q0 -91 -64.5 -158.5t-157.5 -73.5l13 64q41 6 77.5 36.5t45.5 70.5q-8 -4 -24 -4q-32 0 -52 20t-20 51zM290 325q-35 0 -57.5 22.5t-22.5 54.5q0 39 28.5 67t68.5 28q36 0 57.5 -22t21.5 -54q0 -40 -28.5 -68t-67.5 -28z
" />
    <glyph glyph-name="less.tf" 
d="M61 244v94l422 212v-111l-302 -147l302 -148v-111z" />
    <glyph glyph-name="equal.tf" 
d="M29 343v94h475v-94h-475zM29 146v95h475v-95h-475z" />
    <glyph glyph-name="greater.tf" 
d="M483 338v-94l-422 -211v110l303 148l-303 147v112z" />
    <glyph glyph-name="cent.tf" 
d="M171 0l20 97q-64 22 -101 74.5t-37 123.5q0 112 68 186t169 82l18 86h90l-20 -93q56 -15 89 -54t43 -85l-100 -31q-12 49 -53 69l-58 -273q58 10 94 75l92 -37q-27 -57 -79.5 -95t-126.5 -40l-18 -85h-90zM163 297q0 -69 49 -99l56 264q-45 -14 -75 -56.5t-30 -108.5z
" />
    <glyph glyph-name="sterling.tf" horiz-adv-x="595" 
d="M44 273l20 95h71q-9 41 -9 75q0 93 59.5 156.5t158.5 63.5q90 0 138.5 -46t48.5 -119q0 -22 -4 -30l-108 -14q3 10 3 27q0 35 -21.5 58.5t-61.5 23.5q-45 0 -73 -30t-28 -87q0 -26 10 -78h184l-20 -95h-154q-4 -56 -35 -101.5t-85 -68.5h184q44 0 72 27.5t34 69.5
l103 -20q-14 -83 -69.5 -131.5t-134.5 -48.5h-345l23 113q64 15 100 59t40 101h-101z" />
    <glyph glyph-name="currency.tf" 
d="M57 242q0 62 33 114l-74 75l72 71l74 -76q51 30 110 30q58 0 106 -28l73 74l71 -71l-70 -72q35 -53 35 -117q0 -63 -34 -116l69 -70l-70 -70l-72 72q-49 -29 -108 -29q-61 0 -112 31l-73 -74l-71 70l73 74q-32 49 -32 112zM156 242q0 -51 33 -84t83 -33t82.5 33t32.5 84
t-32.5 84t-82.5 33t-83 -33t-33 -84z" />
    <glyph glyph-name="yen.tf" 
d="M36 302l18 83h108l-96 263h128l82 -252l183 252h134l-204 -263h112l-17 -83h-169l-16 -74h169l-19 -85h-167l-30 -143h-115l30 143h-165l19 85h163l16 74h-164z" />
    <glyph glyph-name="section.tf" 
d="M7 1l111 8q-4 -18 -4 -34q0 -39 23.5 -61.5t66.5 -22.5q38 0 66 24t28 64q0 39 -35 64l-90 63q-50 35 -77.5 71.5t-27.5 83.5q0 55 32 91t78 53q-56 50 -56 123q0 87 67 141t153 54q92 0 142.5 -47t50.5 -118q0 -22 -4 -39l-112 -9q4 16 4 34q0 39 -23.5 61t-65.5 22
q-38 0 -66.5 -24.5t-28.5 -62.5t37 -64l89 -63q51 -36 78 -70.5t27 -81.5q0 -56 -32.5 -93.5t-76.5 -54.5q55 -52 55 -121q0 -88 -67 -142.5t-155 -54.5q-90 0 -140 47t-50 119q0 26 3 40zM322 299l-88 63q-55 -26 -55 -79q0 -37 36 -63l89 -63q55 27 55 79q0 36 -37 63z
" />
    <glyph glyph-name="logicalnot.tf" 
d="M495 142h-101v195h-356v97h457v-292z" />
    <glyph glyph-name="plusminus.tf" 
d="M317 311v-128h-99v128h-177v94h177v129h99v-129h178v-94h-178zM41 47v96h454v-96h-454z" />
    <glyph glyph-name="multiply.tf" 
d="M111 51l-69 69l168 172l-167 171l69 69l166 -171l166 171l69 -69l-167 -171l168 -172l-69 -69l-167 171z" />
    <glyph glyph-name="divide.tf" 
d="M23 243v98h474v-98h-474zM186 111q0 29 21.5 50.5t51.5 21.5q29 0 50 -21.5t21 -50.5t-21 -50.5t-50 -21.5q-30 0 -51.5 21.5t-21.5 50.5zM186 473q0 29 21.5 50t51.5 21q29 0 50 -21t21 -50t-21 -51t-50 -22q-30 0 -51.5 22t-21.5 51z" />
    <glyph glyph-name="florin.tf" 
d="M147 24l73 364h-103v99h123l21 101q16 76 65 114t112 38q45 0 83 -12v-101q-27 8 -57 8q-74 0 -91 -84l-13 -64h122v-99h-142l-80 -401q-16 -76 -65.5 -114t-112.5 -38q-44 0 -85 12v101q28 -7 61 -7q73 0 89 83z" />
    <glyph glyph-name="uni2007.tf" 
 />
    <glyph glyph-name="uni2008.tf" 
 />
    <glyph glyph-name="perthousand.tf" 
d="M174 105q0 -19 12 -31.5t31 -12.5q20 0 36.5 15.5t16.5 38.5q0 48 -43 48q-21 0 -37 -16.5t-16 -41.5zM40 527q0 55 38.5 93t92.5 38q48 0 79 -31.5t31 -77.5q0 -56 -39.5 -93.5t-92.5 -37.5q-47 0 -78 31.5t-31 77.5zM210 -8q-47 0 -78 31t-31 77q0 55 39.5 94t93.5 39
q51 0 78 -37q35 37 88 37q47 0 78.5 -31.5t31.5 -77.5q0 -56 -39.5 -94t-91.5 -38q-53 0 -81 36q-38 -36 -88 -36zM536 586l-21 -101l-498 -310l21 100zM436 120q0 19 -11.5 31t-31.5 12t-35.5 -15t-16.5 -38q0 -4 -1 -6q1 -19 12.5 -31t30.5 -12q21 0 37 16t16 43zM165 589
q-21 0 -37 -16.5t-16 -41.5q0 -19 11.5 -31.5t30.5 -12.5q22 0 38 16.5t16 42.5q0 19 -11.5 30.5t-31.5 12.5z" />
    <glyph glyph-name="Euro.tf" 
d="M45 359l19 87h73q45 98 133.5 158t198.5 60q80 0 146 -32l-50 -95q-44 23 -106 23q-56 0 -110.5 -29t-88.5 -85h258l-45 -87h-246q-8 -35 -8 -72h223l-44 -88h-164q23 -53 72 -80t113 -27q28 0 56 6l6 -101q-39 -11 -77 -11q-104 0 -185 57.5t-107 155.5h-101l19 88h72
q0 30 7 72h-64z" />
    <glyph glyph-name="minus.tf" 
d="M39 244v96h451v-96h-451z" />
    <glyph glyph-name="approxequal.tf" 
d="M426 250l61 -53q-56 -92 -155 -92q-50 0 -104 30l-47 26q-29 15 -58 15q-51 0 -88 -46l-64 54q58 93 153 93q50 0 106 -30l47 -25q34 -18 63 -18q50 0 86 46zM426 447l61 -52q-56 -92 -155 -92q-50 0 -104 30l-47 26q-29 15 -58 15q-51 0 -88 -46l-64 54q58 93 153 93
q50 0 106 -30l47 -25q31 -18 63 -18q50 0 86 45z" />
    <glyph glyph-name="notequal.tf" 
d="M32 343v94h292l66 95h109l-66 -95h74v-94h-138l-71 -102h209v-95h-274l-68 -98h-109l68 98h-92v95h157l71 102h-228z" />
    <glyph glyph-name="lessequal.tf" 
d="M62 47v96h422v-96h-422zM62 311v97l422 141v-99l-292 -89l292 -91v-99z" />
    <glyph glyph-name="greaterequal.tf" 
d="M472 143v-96h-422v96h422zM472 408v-97l-422 -140v98l292 90l-292 90v100z" />
    <glyph glyph-name="parenleft.case" horiz-adv-x="304" 
d="M29 247q0 175 77.5 318.5t228.5 237.5l53 -68q-128 -92 -195.5 -208t-67.5 -280q0 -159 94 -302l-75 -53q-50 69 -82.5 162t-32.5 193z" />
    <glyph glyph-name="parenright.case" horiz-adv-x="305" 
d="M275 448q0 -173 -78.5 -315.5t-227.5 -240.5l-53 68q61 47 106 94.5t82 106.5t56 131t19 156q0 159 -94 302l75 53q50 -69 82.5 -162t32.5 -193z" />
    <glyph glyph-name="hyphen.case" horiz-adv-x="362" 
d="M307 291h-282l22 103h281z" />
    <glyph glyph-name="bracketleft.case" horiz-adv-x="305" 
d="M204 -100h-214l193 910h213l-18 -90h-116l-155 -730h115z" />
    <glyph glyph-name="bracketright.case" horiz-adv-x="308" 
d="M122 -100h-213l18 90h116l155 730h-116l19 90h214z" />
    <glyph glyph-name="braceleft.case" horiz-adv-x="362" 
d="M31 306l21 100q107 0 127 95l25 117q22 105 76.5 147.5t148.5 42.5h25l-19 -89h-22q-89 0 -110 -96l-31 -144q-11 -51 -44 -85t-85 -42q37 -9 56.5 -36.5t19.5 -66.5q0 -15 -4 -35l-26 -126q-4 -20 -4 -32q0 -66 75 -66h20l-19 -89h-21q-72 0 -112.5 37.5t-40.5 104.5
q0 27 6 53l23 112q3 18 3 26q0 36 -24.5 54t-63.5 18z" />
    <glyph glyph-name="braceright.case" horiz-adv-x="363" 
d="M331 403l-21 -100q-47 0 -82 -22.5t-45 -72.5l-24 -117q-21 -105 -77 -147.5t-149 -42.5h-25l19 89h22q91 0 111 96l31 144q11 51 44 85.5t84 41.5q-36 10 -56 37.5t-20 66.5q0 18 4 34l26 126q4 18 4 33q0 65 -75 65h-20l19 89h22q71 0 111.5 -37.5t40.5 -104.5
q0 -24 -6 -53l-23 -112q-3 -15 -3 -26q0 -36 24.5 -54t63.5 -18z" />
    <glyph glyph-name="exclamdown.case" horiz-adv-x="307" 
d="M223 499l-75 -499h-143l135 499h83zM282 651q0 -33 -23.5 -57t-57.5 -24q-29 0 -47.5 18.5t-18.5 46.5q0 33 24 57t55 24q30 0 49 -18.5t19 -46.5z" />
    <glyph glyph-name="guillemotleft.case" horiz-adv-x="501" 
d="M217 150h-108l-99 196l174 191h119l-180 -200zM425 150h-108l-99 196l174 191h119l-180 -200z" />
    <glyph glyph-name="uni00AD.case" horiz-adv-x="362" 
d="M310 302h-282l22 103h281z" />
    <glyph glyph-name="guillemotright.case" horiz-adv-x="506" 
d="M49 537h108l99 -196l-174 -191h-119l181 200zM266 537h108l99 -196l-174 -191h-119l181 200z" />
    <glyph glyph-name="questiondown.case" horiz-adv-x="503" 
d="M248 501h97q-5 -128 -113 -190l-54 -31q-66 -37 -66 -103q0 -36 24 -61t72 -25q62 0 95 41.5t33 100.5l111 -13q-2 -102 -70.5 -168t-177.5 -66q-98 0 -153 51t-55 122q0 130 137 208l50 29q64 36 70 105zM385 652q0 -33 -23.5 -57t-56.5 -24q-30 0 -48.5 18.5
t-18.5 46.5q0 33 24.5 57t55.5 24q30 0 48.5 -18.5t18.5 -46.5z" />
    <glyph glyph-name="endash.case" horiz-adv-x="633" 
d="M552 292h-514l21 101h514z" />
    <glyph glyph-name="emdash.case" horiz-adv-x="1085" 
d="M994 292h-946l21 101h946z" />
    <glyph glyph-name="guilsinglleft.case" horiz-adv-x="293" 
d="M217 150h-108l-99 196l174 191h119l-180 -200z" />
    <glyph glyph-name="guilsinglright.case" horiz-adv-x="290" 
d="M49 537h108l99 -196l-174 -191h-119l181 200z" />
    <glyph glyph-name="G.ss01" horiz-adv-x="745" 
d="M418 725q125 0 200.5 -64.5t93.5 -159.5l-116 -34q-13 63 -60.5 103.5t-128.5 40.5q-110 0 -181 -86.5t-71 -213.5q0 -97 54 -155.5t146 -58.5q81 0 136.5 42.5t72.5 108.5h-252l22 106h369q-7 -159 -101 -264t-254 -105q-137 0 -226 90t-89 229q0 98 33 179.5t87.5 133
t123 80t141.5 28.5z" />
    <glyph glyph-name="r.ss03" horiz-adv-x="380" 
d="M215 461l-6 -29q9 27 33 44t54 17q33 0 53.5 -21t20.5 -51q0 -37 -26.5 -63.5t-64.5 -26.5q-33 0 -54 21t-21 51v7l-87 -410h-115l97 460q3 15 3 27h116q0 -13 -3 -26z" />
    <glyph glyph-name="ampersand.ss04" horiz-adv-x="681" 
d="M638 217h-85q-20 -100 -95.5 -166t-184.5 -66q-116 0 -183.5 58.5t-67.5 144.5q0 96 61 151.5t136 65.5q-35 18 -56.5 51.5t-21.5 74.5q0 83 65 138t150 55q92 0 147 -49t55 -122q0 -19 -2 -33l-117 -8q2 12 2 27q0 37 -22.5 59.5t-65.5 22.5q-37 0 -66 -25.5t-29 -67.5
q0 -38 27 -58.5t67 -20.5l-22 -103h-24q-25 0 -50.5 -6.5t-51.5 -21.5t-42.5 -44.5t-16.5 -69.5q0 -45 35.5 -78.5t100.5 -33.5q55 0 97 33.5t57 91.5h-93l21 102h296z" />
    <glyph glyph-name="one.ss05" horiz-adv-x="441" 
d="M-15 104h136l75 349h-140l17 78q61 4 109 35.5t69 81.5h104l-115 -544h158l-22 -104h-413z" />
    <glyph glyph-name="registered.ss06" horiz-adv-x="416" 
d="M50 526q0 79 55.5 134.5t134.5 55.5t135 -55.5t56 -134.5t-56 -134.5t-135 -55.5t-134.5 55.5t-55.5 134.5zM101 526q0 -59 40.5 -100.5t98.5 -41.5t99 41.5t41 100.5t-41 100.5t-99 41.5t-98.5 -41.5t-40.5 -100.5zM252 431l-16 66h-14l-14 -66h-53l41 196h74
q28 0 44.5 -16t16.5 -39q0 -24 -13.5 -42.5t-34.5 -24.5l23 -74h-54zM231 540h16q13 0 21.5 6.5t8.5 16.5q0 20 -23 20h-13z" />
    <glyph glyph-name="caron.alt" horiz-adv-x="198" 
d="M147 709l-108 -189h-83l68 189h123z" />
    <glyph glyph-name="commaaccent" horiz-adv-x="191" 
d="M-36 535l9 45h9q56 0 74 39q-8 -4 -21 -4q-25 0 -39.5 14.5t-14.5 36.5q0 27 20 45t49 18q30 0 49 -18t19 -50q0 -56 -39.5 -91.5t-95.5 -35.5q-13 0 -19 1z" />
    <glyph glyph-name="commaturn" horiz-adv-x="170" 
d="M102 606q0 -27 -20 -46.5t-49 -19.5q-30 0 -49 21t-19 48q0 62 42.5 95t94.5 33q9 0 17 -1l-9 -45q-6 1 -11 1q-26 0 -47 -11.5t-25 -28.5q10 4 21 4q26 0 40 -14.5t14 -35.5z" />
    <glyph glyph-name="dieresis.narrow" horiz-adv-x="305" 
d="M-37 618q0 27 19.5 47.5t47.5 20.5q24 0 40 -16t16 -39q0 -28 -20.5 -47t-47.5 -19q-25 0 -40 15t-15 38zM119 618q0 27 19.5 47.5t47.5 20.5q24 0 40 -16t16 -39q0 -28 -20.5 -47t-47.5 -19q-25 0 -40 15t-15 38z" />
    <glyph glyph-name="dieresis.uc.narrow" horiz-adv-x="324" 
d="M-36 814q0 28 20 48.5t49 20.5q24 0 39.5 -16t15.5 -38q0 -30 -20 -49.5t-48 -19.5q-24 0 -40 15.5t-16 38.5zM136 814q0 29 20 49t49 20q24 0 39.5 -16t15.5 -38q0 -30 -20.5 -49.5t-48.5 -19.5q-24 0 -39.5 15.5t-15.5 38.5z" />
    <glyph glyph-name="grave.uc" horiz-adv-x="273" 
d="M92 759l-112 124h138l75 -124h-101z" />
    <glyph glyph-name="dieresis.uc" horiz-adv-x="418" 
d="M-31 814q0 30 21.5 52t52.5 22q26 0 42.5 -17t16.5 -42q0 -32 -22 -53t-51 -21q-26 0 -43 16.5t-17 42.5zM215 814q0 30 21.5 52t52.5 22q26 0 42.5 -17t16.5 -42q0 -32 -22 -53t-51 -21q-26 0 -43 16.5t-17 42.5z" />
    <glyph glyph-name="macron.uc" horiz-adv-x="330" 
d="M256 776h-299l20 93h299z" />
    <glyph glyph-name="acute.uc" horiz-adv-x="273" 
d="M228 883l-162 -124h-114l123 124h153z" />
    <glyph glyph-name="circumflex.uc" horiz-adv-x="398" 
d="M63 759h-108l141 124h129l92 -124h-100l-64 64z" />
    <glyph glyph-name="caron.uc" horiz-adv-x="398" 
d="M234 883h112l-145 -124h-129l-89 124h100l60 -65z" />
    <glyph glyph-name="breve.uc" horiz-adv-x="359" 
d="M122 754q-64 0 -102.5 31.5t-38.5 82.5q0 11 2 19h87q-1 -4 -1 -8q0 -19 14.5 -32t44.5 -13q34 0 54.5 15.5t25.5 37.5h93q-15 -55 -61.5 -94t-117.5 -39z" />
    <glyph glyph-name="dotaccent.uc" horiz-adv-x="177" 
d="M-34 821q0 32 23.5 55.5t56.5 23.5q29 0 48 -18.5t19 -45.5q0 -34 -24.5 -58t-56.5 -24q-29 0 -47.5 19.5t-18.5 47.5z" />
    <glyph glyph-name="ring.uc" horiz-adv-x="275" 
d="M90 907q-20 0 -36 -14.5t-16 -36.5q0 -19 12 -30.5t32 -11.5q21 0 36.5 14.5t15.5 36.5q0 19 -12 30.5t-32 11.5zM-36 848q0 55 40 93t93 38q48 0 80.5 -31t32.5 -77q0 -53 -40 -91.5t-92 -38.5q-48 0 -81 31t-33 76z" />
    <glyph glyph-name="tilde.uc" horiz-adv-x="362" 
d="M317 886q-22 -132 -119 -132q-34 0 -72 24l-8 5q-26 17 -42 17q-31 0 -38 -43h-78q7 68 40 99.5t81 31.5q37 0 71 -23l8 -6q26 -17 41 -17q29 0 38 44h78z" />
    <glyph glyph-name="hungarumlaut.uc" horiz-adv-x="366" 
d="M152 883l-120 -124h-81l79 124h122zM315 883l-131 -124h-83l92 124h122z" />
    <glyph glyph-name="caron.alt.uc" horiz-adv-x="198" 
d="M147 709l-112 -200h-88l69 200h131z" />
    <glyph glyph-name="undercommaaccent" horiz-adv-x="221" 
d="M16 -102q0 27 20.5 45t50.5 18q29 0 48.5 -19t19.5 -50q0 -61 -40.5 -93.5t-92.5 -32.5q-10 0 -22 2l10 45q4 -1 14 -1q53 0 68 39q-8 -4 -20 -4q-26 0 -41 14.5t-15 36.5z" />
    </font>
</defs>
</svg>
