<?xml version="1.0" standalone="no"?>
<!DOCTYPE svg PUBLIC "-//W3C//DTD SVG 1.1//EN" "http://www.w3.org/Graphics/SVG/1.1/DTD/svg11.dtd" >
<svg xmlns="http://www.w3.org/2000/svg" xmlns:xlink="http://www.w3.org/1999/xlink" version="1.1">
<metadata>
Created by FontForge 20170731 at Thu Jan 20 22:46:20 2022
 By Aleksey,,,
(c) 2005 Adobe Systems Incorporated. All Rights Reserved.
</metadata>
<defs>
<font id="GaramondPremrPro-It" horiz-adv-x="819" >
  <font-face 
    font-family="Garamond Premr Pro"
    font-weight="400"
    font-style="italic"
    font-stretch="normal"
    units-per-em="2048"
    panose-1="2 2 4 2 5 5 6 9 4 3"
    ascent="1485"
    descent="-563"
    x-height="827"
    cap-height="1325"
    bbox="-469 -868 3377 1934.33"
    underline-thickness="102"
    underline-position="-307"
    slope="-18"
    unicode-range="U+0020-FB04"
  />
<missing-glyph horiz-adv-x="1024" 
d="M0 0v1434h1024v-1434h-1024zM512 809l348 522h-696zM573 717l349 -522v1044zM164 102h696l-348 523zM102 1239v-1044l349 522z" />
    <glyph glyph-name="T_h" unicode="Th" horiz-adv-x="2037" 
d="M1962 678q0 -111 -51.5 -247t-98.5 -214q-41 -64 -72 -98.5t-81 -73.5q-109 -84 -143 -84q-48 0 -74.5 19.5t-26.5 42.5q0 7 4.5 15.5t17 25.5t13.5 18q18 24 37 14q21 -13 50 -23t42 -10q20 0 34 10.5t32 41.5q64 123 113.5 296.5t49.5 258.5q0 36 -15 55.5t-36 19.5
q-60 0 -123 -63t-196 -236q-65 -87 -146.5 -227t-115.5 -207q-9 -19 -27 -32t-35 -13q-6 0 -21 5t-22 10q-17 20 -6 55q73 228 214 684t153 496q3 7 -4.5 15.5t-14.5 10.5q-42 1 -206.5 4t-205.5 4q-12 0 -22 -24q-205 -645 -299 -1008q-10 -38 -10.5 -64.5t6.5 -44
t26.5 -29.5t43 -19t63.5 -15q47 -10 47 -27q0 -28 -59 -28q-7 0 -110 4t-173 4q-81 0 -169.5 -6t-94.5 -6q-47 0 -47 22q0 11 13.5 20t29.5 11q66 10 100 20t65.5 33t50.5 58.5t42 99.5q34 91 131.5 408.5t169.5 566.5q3 9 1 17.5t-15 8.5q-207 2 -293 -8q-52 -5 -110.5 -59
t-100.5 -119q-23 -39 -47 -39q-6 0 -12 12t-3 19q3 10 46.5 104t62.5 164q2 8 16 21.5t23 13.5q7 0 16 -12q4 -9 28.5 -18.5t65.5 -12.5q53 -2 314 -2h456q162 0 193 4q8 3 12 5.5t14.5 17.5t28.5 45q9 18 51.5 29.5t69.5 11.5q6 0 11 -5.5t7 -17.5t-4 -29
q-43 -137 -118 -357.5t-129 -379.5t-58 -172q-10 -29 3 -28q11 0 26 20q60 78 135.5 159t136.5 125q67 48 111.5 65t93.5 17q35 0 61 -15.5t39 -40t19 -48t6 -45.5z" />
    <glyph glyph-name="T_h.swash" unicode="&#xe0ea;h" horiz-adv-x="2234" 
d="M758 1337q131 0 542 -30q147 -11 211 -11q75 1 105.5 16t56.5 58q7 9 20 29.5t15 23.5q14 21 54 37.5t79 16.5q10 0 13.5 -15.5t-1.5 -25.5q-33 -90 -175.5 -520.5t-151.5 -464.5q-3 -10 -0.5 -14.5t7.5 -4t9 5.5q161 212 287 307q67 49 110.5 65.5t92.5 16.5
q35 0 62 -15t41 -38t21 -44t7 -38q0 -141 -73.5 -315.5t-143.5 -255.5q-50 -55 -136 -111q-71 -49 -100 -49q-22 0 -44 7.5t-32 17.5q-20 23 -20 39q0 9 20.5 38t30.5 35q9 6 14 4q10 -4 31 -15t40 -17.5t38 -6.5q23 0 43 31q47 66 111.5 273.5t64.5 296.5q0 81 -57 81
q-52 0 -121 -67t-195 -232q-43 -60 -133.5 -212t-126.5 -224q-9 -17 -29.5 -30t-29.5 -13q-23 0 -40 22.5t-11 41.5q113 345 372 1222q-63 -49 -231 -49q-64 0 -211 10q-26 3 -39 -10q-17 -21 -31 -65q-65 -187 -154.5 -475t-138.5 -461q-24 -87 3 -116t141 -44
q51 -8 51 -31q-3 -24 -65 -24q-8 0 -118 6t-175 6q-52 0 -146.5 -9t-111.5 -9q-26 0 -48 7.5t-22 20.5q0 12 19.5 19.5t48.5 9.5q115 13 153 41t78 127t137 380.5t191 571.5q7 23 6 37.5t-5 21t-10 7.5q-47 7 -142.5 15.5t-160.5 8.5q-158 0 -245 -53q-66 -41 -66 -139
q0 -57 39 -142q7 -14 -8 -24q-28 -17 -64 -17q-26 0 -59 35.5t-33 89.5q0 56 40 114.5t91 98.5q142 125 408 125z" />
    <glyph glyph-name="Tcaron_h" unicode="&#x164;h" horiz-adv-x="2037" 
d="M1962 678q0 -111 -51.5 -247t-98.5 -214q-41 -64 -72 -98.5t-81 -73.5q-109 -84 -143 -84q-48 0 -74.5 19.5t-26.5 42.5q0 7 4.5 15.5t17 25.5t13.5 18q18 24 37 14q21 -13 50 -23t42 -10q20 0 34 10.5t32 41.5q64 123 113.5 296.5t49.5 258.5q0 36 -15 55.5t-36 19.5
q-60 0 -123 -63t-196 -236q-65 -87 -146.5 -227t-115.5 -207q-9 -19 -27 -32t-35 -13q-6 0 -21 5t-22 10q-17 20 -6 55q73 228 214 684t153 496q3 7 -4.5 15.5t-14.5 10.5q-42 1 -206.5 4t-205.5 4q-12 0 -22 -24q-205 -645 -299 -1008q-10 -38 -10.5 -64.5t6.5 -44
t26.5 -29.5t43 -19t63.5 -15q47 -10 47 -27q0 -28 -59 -28q-7 0 -110 4t-173 4q-81 0 -169.5 -6t-94.5 -6q-47 0 -47 22q0 11 13.5 20t29.5 11q66 10 100 20t65.5 33t50.5 58.5t42 99.5q34 91 131.5 408.5t169.5 566.5q3 9 1 17.5t-15 8.5q-207 2 -293 -8q-52 -5 -110.5 -59
t-100.5 -119q-23 -39 -47 -39q-6 0 -12 12t-3 19q3 10 46.5 104t62.5 164q2 8 16 21.5t23 13.5q7 0 16 -12q4 -9 28.5 -18.5t65.5 -12.5q53 -2 314 -2h456q162 0 193 4q8 3 12 5.5t14.5 17.5t28.5 45q9 18 51.5 29.5t69.5 11.5q6 0 11 -5.5t7 -17.5t-4 -29
q-43 -137 -118 -357.5t-129 -379.5t-58 -172q-10 -29 3 -28q11 0 26 20q60 78 135.5 159t136.5 125q67 48 111.5 65t93.5 17q35 0 61 -15.5t39 -40t19 -48t6 -45.5zM913 1405q-8 0 -21 14t-20 27q-16 27 -55 88.5t-59 93.5q-13 23 -11.5 38t15.5 15q22 0 47 -18
q14 -11 59.5 -45.5t71.5 -56.5q13 -10 27 0q105 52 233 104q29 14 53 14q13 0 15 -13q2 -17 -31 -40q-184 -133 -236 -174q-60 -47 -88 -47z" />
    <glyph glyph-name="Tcaron_h.swash" unicode="&#xe0f1;h" horiz-adv-x="2234" 
d="M758 1337q131 0 542 -30q147 -11 211 -11q75 1 105.5 16t56.5 58q7 9 20 29.5t15 23.5q14 21 54 37.5t79 16.5q10 0 13.5 -15.5t-1.5 -25.5q-33 -90 -175.5 -520.5t-151.5 -464.5q-3 -10 -0.5 -14.5t7.5 -4t9 5.5q161 212 287 307q67 49 110.5 65.5t92.5 16.5
q35 0 62 -15t41 -38t21 -44t7 -38q0 -141 -73.5 -315.5t-143.5 -255.5q-50 -55 -136 -111q-71 -49 -100 -49q-22 0 -44 7.5t-32 17.5q-20 23 -20 39q0 9 20.5 38t30.5 35q9 6 14 4q10 -4 31 -15t40 -17.5t38 -6.5q23 0 43 31q47 66 111.5 273.5t64.5 296.5q0 81 -57 81
q-52 0 -121 -67t-195 -232q-43 -60 -133.5 -212t-126.5 -224q-9 -17 -29.5 -30t-29.5 -13q-23 0 -40 22.5t-11 41.5q113 345 372 1222q-63 -49 -231 -49q-64 0 -211 10q-26 3 -39 -10q-17 -21 -31 -65q-65 -187 -154.5 -475t-138.5 -461q-24 -87 3 -116t141 -44
q51 -8 51 -31q-3 -24 -65 -24q-8 0 -118 6t-175 6q-52 0 -146.5 -9t-111.5 -9q-26 0 -48 7.5t-22 20.5q0 12 19.5 19.5t48.5 9.5q115 13 153 41t78 127t137 380.5t191 571.5q7 23 6 37.5t-5 21t-10 7.5q-47 7 -142.5 15.5t-160.5 8.5q-158 0 -245 -53q-66 -41 -66 -139
q0 -57 39 -142q7 -14 -8 -24q-28 -17 -64 -17q-26 0 -59 35.5t-33 89.5q0 56 40 114.5t91 98.5q142 125 408 125zM1081 1401q-8 0 -21 14t-20 27q-16 27 -55 88.5t-59 93.5q-13 23 -11.5 38t15.5 15q22 0 47 -18q12 -10 58.5 -45t72.5 -58q13 -10 27 0q115 58 233 105
q29 14 53 14q13 0 15 -13q2 -17 -31 -40q-184 -133 -236 -174q-60 -47 -88 -47z" />
    <glyph glyph-name="Tcommaaccent_h" unicode="&#x162;h" horiz-adv-x="2037" 
d="M1962 678q0 -111 -51.5 -247t-98.5 -214q-41 -64 -72 -98.5t-81 -73.5q-109 -84 -143 -84q-48 0 -74.5 19.5t-26.5 42.5q0 7 4.5 15.5t17 25.5t13.5 18q18 24 37 14q21 -13 50 -23t42 -10q20 0 34 10.5t32 41.5q64 123 113.5 296.5t49.5 258.5q0 36 -15 55.5t-36 19.5
q-60 0 -123 -63t-196 -236q-65 -87 -146.5 -227t-115.5 -207q-9 -19 -27 -32t-35 -13q-6 0 -21 5t-22 10q-17 20 -6 55q73 228 214 684t153 496q3 7 -4.5 15.5t-14.5 10.5q-42 1 -206.5 4t-205.5 4q-12 0 -22 -24q-205 -645 -299 -1008q-10 -38 -10.5 -64.5t6.5 -44
t26.5 -29.5t43 -19t63.5 -15q47 -10 47 -27q0 -28 -59 -28q-7 0 -110 4t-173 4q-81 0 -169.5 -6t-94.5 -6q-47 0 -47 22q0 11 13.5 20t29.5 11q66 10 100 20t65.5 33t50.5 58.5t42 99.5q34 91 131.5 408.5t169.5 566.5q3 9 1 17.5t-15 8.5q-207 2 -293 -8q-52 -5 -110.5 -59
t-100.5 -119q-23 -39 -47 -39q-6 0 -12 12t-3 19q3 10 46.5 104t62.5 164q2 8 16 21.5t23 13.5q7 0 16 -12q4 -9 28.5 -18.5t65.5 -12.5q53 -2 314 -2h456q162 0 193 4q8 3 12 5.5t14.5 17.5t28.5 45q9 18 51.5 29.5t69.5 11.5q6 0 11 -5.5t7 -17.5t-4 -29
q-43 -137 -118 -357.5t-129 -379.5t-58 -172q-10 -29 3 -28q11 0 26 20q60 78 135.5 159t136.5 125q67 48 111.5 65t93.5 17q35 0 61 -15.5t39 -40t19 -48t6 -45.5zM492 -92q46 0 76 -32.5t30 -90.5q0 -59 -27 -107t-67.5 -74.5t-80.5 -40.5t-73 -14q-26 0 -26 17
q0 16 30 26q56 20 95.5 56t39.5 84q0 16 -6.5 25t-27.5 12q-58 7 -58 61q0 29 27.5 53.5t67.5 24.5z" />
    <glyph glyph-name="Tcommaaccent_h.swash" unicode="&#xe0f5;h" horiz-adv-x="2234" 
d="M758 1337q131 0 542 -30q147 -11 211 -11q75 1 105.5 16t56.5 58q7 9 20 29.5t15 23.5q14 21 54 37.5t79 16.5q10 0 13.5 -15.5t-1.5 -25.5q-33 -90 -175.5 -520.5t-151.5 -464.5q-3 -10 -0.5 -14.5t7.5 -4t9 5.5q161 212 287 307q67 49 110.5 65.5t92.5 16.5
q35 0 62 -15t41 -38t21 -44t7 -38q0 -141 -73.5 -315.5t-143.5 -255.5q-50 -55 -136 -111q-71 -49 -100 -49q-22 0 -44 7.5t-32 17.5q-20 23 -20 39q0 9 20.5 38t30.5 35q9 6 14 4q10 -4 31 -15t40 -17.5t38 -6.5q23 0 43 31q47 66 111.5 273.5t64.5 296.5q0 81 -57 81
q-52 0 -121 -67t-195 -232q-43 -60 -133.5 -212t-126.5 -224q-9 -17 -29.5 -30t-29.5 -13q-23 0 -40 22.5t-11 41.5q113 345 372 1222q-63 -49 -231 -49q-64 0 -211 10q-26 3 -39 -10q-17 -21 -31 -65q-65 -187 -154.5 -475t-138.5 -461q-24 -87 3 -116t141 -44
q51 -8 51 -31q-3 -24 -65 -24q-8 0 -118 6t-175 6q-52 0 -146.5 -9t-111.5 -9q-26 0 -48 7.5t-22 20.5q0 12 19.5 19.5t48.5 9.5q115 13 153 41t78 127t137 380.5t191 571.5q7 23 6 37.5t-5 21t-10 7.5q-47 7 -142.5 15.5t-160.5 8.5q-158 0 -245 -53q-66 -41 -66 -139
q0 -57 39 -142q7 -14 -8 -24q-28 -17 -64 -17q-26 0 -59 35.5t-33 89.5q0 56 40 114.5t91 98.5q142 125 408 125zM627 -96q46 0 76 -32.5t30 -90.5q0 -59 -27 -107t-67.5 -74.5t-80.5 -40.5t-73 -14q-26 0 -26 17q0 16 30 26q56 20 96 56t40 84q0 16 -7 24.5t-28 11.5
q-58 7 -58 62q0 29 27.5 53.5t67.5 24.5z" />
    <glyph glyph-name="f_f_b" unicode="ffb" horiz-adv-x="1964" 
d="M1384 1468q48 0 91 -14.5t67 -36.5q18 -18 29 -2q13 13 34.5 29t32.5 16t15.5 -14.5t-2.5 -36.5q-34 -66 -148 -388.5t-174 -506.5q-3 -5 4 -5.5t10 5.5q240 313 404 313q70 0 118 -51t48 -121q0 -146 -121 -330t-289 -282q-131 -76 -227 -76q-70 0 -121 48.5t-51 142.5
q0 62 98 360q5 21 112 332t138 397q23 68 0 101q-45 57 -117 57q-57 0 -103 -19t-95 -81q-97 -128 -195 -465q-1 -4 0 -9t3 -8.5t3 -3.5q9 0 82 3.5t103 4.5q7 0 12.5 -10t5.5 -16q0 -12 -15 -27t-34 -16q-108 -10 -178 -10q-12 0 -17 -13q-123 -428 -245 -839
q-62 -203 -220 -314q-53 -37 -131.5 -66.5t-120.5 -29.5q-60 0 -117.5 22.5t-86.5 57.5q-47 -53 -125.5 -94t-145.5 -41q-63 0 -104 29.5t-39 58.5q0 24 13 54t36 44q21 9 33.5 8t19.5 -4q84 -90 146 -90q85 0 149 184q12 35 55.5 185t119 413.5t114.5 397.5q3 10 -2.5 14
t-24.5 4q-36 -3 -129 -6q-16 0 -16 14q1 22 15 38t26 16q19 0 70 3t65 3q20 0 29 26q69 187 137 302.5t182 197.5q120 86 242 86q113 0 188 -78q4 -2 9.5 -1t7.5 3q3 2 25.5 19.5t30 23.5t31 21.5t38 22.5t40.5 18.5t48.5 16.5t52.5 9t61 4zM453 803l311 10q19 0 31 29
q72 215 159 356q6 6 9.5 18t1.5 15q-20 55 -64 81.5t-94 26.5q-155 0 -248 -184q-66 -126 -125 -332q-2 -6 2.5 -13t16.5 -7zM735 745l-305 -12q-15 0 -29 -24q-96 -302 -231 -799q-18 -59 -48.5 -132t-45.5 -100q-3 -3 -2 -14t4 -14q63 -84 205 -84q61 0 120 67.5
t101 204.5q24 80 108.5 377.5t147.5 511.5q3 10 -1.5 14t-23.5 4zM1712 760q-141 0 -344 -320q-127 -201 -127 -317q0 -24 25 -61t55 -37q48 0 133 77q109 102 217.5 287.5t108.5 306.5q0 27 -20 45.5t-48 18.5z" />
    <glyph glyph-name="f_f_h" unicode="ffh" horiz-adv-x="2045" 
d="M852 1409q114 0 190 -76q3 -2 9.5 -1.5t9.5 3.5q37 31 55.5 45t62 39.5t94 37t111.5 11.5q48 0 93 -15t69 -38q2 -2 12 -2.5t13 2.5q13 13 34.5 29t32.5 16t14.5 -14.5t-3.5 -36.5q-43 -137 -120 -370.5t-133.5 -403.5t-60.5 -184q-3 -10 -0.5 -14.5t8 -4t9.5 5.5
q168 217 288 307q66 49 109 65.5t92 16.5q35 0 62 -15t41 -38t21 -44t7 -38q0 -141 -73.5 -315.5t-143.5 -255.5q-52 -56 -135 -111q-71 -49 -100 -49q-47 0 -76 25q-21 24 -21 39q0 9 21.5 38t32.5 35q8 5 12 4q10 -4 31 -15t40 -17.5t39 -6.5q21 0 41 31q47 66 112 273.5
t65 296.5q0 81 -58 81q-52 0 -120 -66.5t-195 -232.5q-43 -60 -133.5 -212t-126.5 -224q-9 -17 -29.5 -30t-28.5 -13q-24 0 -41 22t-12 42q197 605 383 1224q18 60 -4 91q-48 61 -117 61q-57 0 -103 -19.5t-95 -82.5q-97 -128 -195 -465q-1 -4 0 -8t3 -6.5t3 -2.5
q148 4 185 4q7 0 12.5 -10t5.5 -16q0 -12 -15 -27t-34 -16q-65 -10 -178 -10q-12 0 -17 -13q-107 -374 -245 -837q-62 -203 -220 -314q-52 -38 -130.5 -67t-121.5 -29q-63 0 -119.5 23t-80.5 63q-48 -54 -128 -97.5t-147 -43.5q-63 0 -104 29.5t-39 58.5q0 23 13 51.5
t36 42.5q38 23 53 8q84 -90 146 -90q85 0 149 184q10 29 289 992q3 6 0 12t-12 6q-31 -1 -80 -1t-64 -1q-16 0 -16 14q1 21 15 36.5t26 15.5q19 0 73 3t68 3t23 26q69 187 137 302.5t182 197.5q120 86 242 86zM807 1339q-155 0 -248 -184q-66 -126 -125 -332q-2 -5 1 -12.5
t7 -7.5l328 12q14 0 25 27q72 215 159 356q4 4 8 15t3 16q-20 55 -64 82.5t-94 27.5zM283 -432q61 0 120 67.5t101 204.5q23 80 108 376.5t148 510.5q4 16 -8 16l-330 -12q-10 0 -21 -22q-38 -119 -231 -797q-18 -60 -48 -131t-46 -100q-10 -14 2 -29q63 -84 205 -84z" />
    <glyph glyph-name="f_f_j" unicode="ffj" horiz-adv-x="1486" 
d="M854 1401q60 0 109.5 -23.5t74.5 -56.5q7 -10 23 6q28 25 48 40t61 40.5t89 39t99 13.5q113 0 167 -39.5t54 -93.5q0 -43 -34 -69.5t-66 -26.5q-17 0 -25.5 12t-15.5 37q-15 62 -39.5 90.5t-79.5 28.5q-60 0 -125.5 -48t-116.5 -141q-64 -120 -139 -370q-2 -7 0 -17
t6 -10q213 0 336 10q69 7 115 17q14 0 18.5 -25.5t-0.5 -56.5q-14 -61 -117.5 -411t-134.5 -429q-51 -130 -110.5 -205.5t-139.5 -118.5q-86 -47 -157 -47q-57 0 -88 25.5t-31 52.5q0 33 53 74q32 20 55 6q6 -4 23.5 -17t25.5 -18.5t22 -13.5t26.5 -11t25.5 -3q33 0 62 30
t57 111q70 204 150 490.5t106 394.5q12 46 5.5 66t-34.5 20q-54 0 -168 -4.5t-118 -4.5q-5 0 -15 -14t-14 -24q-38 -126 -90 -302.5t-94 -320.5l-49 -168q-38 -122 -92 -199.5t-142 -140.5q-49 -36 -125.5 -61t-120.5 -25q-112 0 -196 84q-46 -51 -130 -97t-139 -46
q-70 0 -108.5 33.5t-38.5 62.5q0 21 14.5 46t38.5 42q38 23 49 8q80 -86 146 -86q41 0 75 38t68 138q24 68 117 379t178 619q3 9 -3 12.5t-26 3.5q-23 0 -67 -1t-51 -1q-17 0 -17 14q1 21 17 35.5t30 16.5q19 2 69 3.5t58 2.5q5 0 12 9.5t9 16.5q115 347 315 492
q120 86 250 86zM788 1333q-59 0 -123 -45t-110 -139q-58 -112 -121 -332q-2 -5 1 -9.5t7 -4.5l328 10q9 0 21 18q67 213 155 355q5 5 7.5 19t0.5 18q-22 58 -61 84t-105 26zM262 -428q26 0 54 11t61 36.5t64 77.5t53 123q34 113 126.5 432t137.5 473q4 18 -10 18l-322 -10
q-17 0 -27 -24q-86 -288 -231 -795q-18 -60 -49 -133.5t-47 -102.5q-3 -4 -2.5 -8t1.5 -6t5.5 -7.5t5.5 -6.5q67 -78 180 -78z" />
    <glyph glyph-name="f_f_k" unicode="ffk" horiz-adv-x="1951" 
d="M805 1333q-157 0 -248 -184q-65 -125 -123 -326q-2 -5 1 -12.5t7 -7.5l322 10q19 0 31 29q67 202 159 350q4 6 6.5 20t0.5 17q-39 104 -156 104zM283 -432q61 0 120 67.5t101 206.5q23 79 108 374.5t148 510.5q3 10 -1.5 14t-23.5 4l-305 -12q-15 0 -29 -24
q-33 -104 -76 -251.5t-92 -320.5t-63 -223q-18 -60 -48.5 -132.5t-45.5 -100.5q-7 -11 2 -29q66 -84 205 -84zM850 1403q119 0 192 -76q6 -6 21 6q36 31 55 44.5t61 38t92 35.5t111 11q48 0 95 -15.5t71 -37.5q2 -2 12 -2.5t13 2.5q13 13 34.5 29t32.5 16t14 -15t-3 -38
q-5 -15 -58.5 -163t-128.5 -357t-121 -340q-5 -15 7 -14q14 2 24 16q117 164 258 237q52 26 83.5 35.5t88.5 9.5q48 0 78.5 -25t30.5 -59q0 -38 -44.5 -103.5t-115.5 -115.5q-44 -29 -117 -65.5t-102 -48.5q-5 -1 -8.5 -9.5t-3.5 -11.5q28 -132 67 -221q18 -42 35 -58
t39 -16q25 0 72 35.5t82 81.5q18 24 32 24q22 0 5 -43q-8 -18 -19 -34q-54 -79 -120.5 -135t-115.5 -56q-63 0 -116 125q-21 48 -74 199q-11 35 -33.5 56.5t-38.5 21.5q-33 0 -51 -41q-9 -22 -59.5 -141.5t-81.5 -186.5q-9 -27 -37 -27q-23 0 -43.5 15t-20.5 30q0 13 19 68
q11 27 155.5 458t235.5 709q18 58 -4 90q-22 28 -53 44t-62 16q-57 0 -104 -20t-96 -83q-98 -128 -193 -458q-1 -4 0 -9t3 -8.5t3 -3.5l185 4q7 0 12.5 -10t5.5 -16q0 -10 -14 -24t-33 -15q-108 -10 -180 -10q-12 0 -17 -13q-198 -691 -245 -837q-62 -201 -220 -312
q-51 -38 -130 -68t-122 -30q-63 0 -119.5 23t-80.5 63q-48 -54 -128 -97.5t-147 -43.5q-63 0 -104 30.5t-39 59.5q0 22 13 51t36 43q39 24 53 6q82 -88 148 -88q84 0 147 182q7 19 289 994q3 5 0 11.5t-10 6.5l-146 -6q-16 0 -16 14q1 22 15 38t26 16q19 0 72.5 3t68.5 3
q10 0 23 26q68 185 135.5 299t181.5 197q117 84 242 84zM1698 739q-47 0 -105 -34q-56 -35 -114 -103.5t-95 -142.5q-6 -13 1.5 -25t19.5 -10q78 5 164 52t141 109.5t55 110.5q0 8 -1.5 13t-7 13t-20.5 12.5t-38 4.5z" />
    <glyph glyph-name="f_f_t" unicode="fft" horiz-adv-x="1564" 
d="M838 1403q61 0 109.5 -22t68.5 -54q13 -20 35 2q139 133 278 133q70 0 111 -37t39 -79q0 -46 -35 -86q-15 -17 -38.5 -26t-35.5 -9q-8 0 -14 6.5t-2 17.5q4 18 4 51q2 44 -18 72.5t-64 28.5q-56 0 -104 -41.5t-99 -138.5q-21 -40 -41 -91.5t-33 -90.5t-34 -106t-33 -102
q-3 -13 2 -15.5t22 -2.5q45 1 157.5 3t148.5 3q7 0 14.5 7t9.5 12q40 78 80 143q20 33 41 46t53 13q13 0 15.5 -10t-5.5 -35q-3 -14 -22 -82t-21 -75q-2 -5 3.5 -11t15.5 -6q15 0 180 -6q12 0 12 -16q2 -11 -12.5 -28.5t-28.5 -18.5q-130 -9 -182 -9q-19 0 -24 -16
q-21 -48 -87.5 -225.5t-111.5 -306.5q-17 -58 12 -58q28 0 98.5 46.5t106.5 84.5q15 15 26.5 18.5t14.5 -12.5q0 -20 -16 -49q-62 -87 -187 -170.5t-198 -83.5q-13 0 -31.5 17.5t-18.5 29.5q0 15 9 52q2 5 42.5 119.5t97.5 271.5t95 256q3 13 0.5 19.5t-8.5 6.5
q-17 -1 -80 -1t-141 0.5t-92 0.5q-17 0 -27 -24q-235 -794 -252 -848q-33 -111 -84 -176t-123 -115q-50 -36 -128.5 -62t-125.5 -26q-63 0 -115.5 22t-76.5 62q-44 -49 -138 -96t-147 -47t-95 30t-42 66q0 24 13.5 50.5t33.5 39.5q11 8 24 9t19 -5q87 -96 164 -96
q36 0 65.5 41.5t71.5 146.5q65 169 299 996q3 9 -2 12.5t-25 3.5h-127q-16 0 -16 14q1 21 21.5 36.5t33.5 15.5q19 0 61 3t56 3q24 0 29 24q117 356 307 496q117 84 242 84zM778 1339q-58 0 -119 -49t-108 -145q-66 -127 -119 -326q-2 -6 1.5 -11t15.5 -5l309 4q13 0 18 3.5
t8 16.5q71 226 156 363q17 25 8 45q-20 55 -68.5 79.5t-101.5 24.5zM250 -432q161 0 237 250q233 791 263 895q8 24 -23 24l-305 -4q-15 0 -25 -24q-70 -232 -229 -791q-18 -60 -49 -133t-47 -102q-14 -22 -2 -37q33 -41 83 -59.5t97 -18.5z" />
    <glyph glyph-name="f_h" unicode="fh" horiz-adv-x="1533" 
d="M1135 1454q10 0 10 -17t-8 -40q-42 -129 -121.5 -366t-134 -400.5t-58.5 -179.5q-3 -9 0 -14t8.5 -4.5t8.5 5.5q185 234 290 307q66 49 109 65.5t92 16.5q45 0 76 -26.5t42 -55.5t11 -53q0 -142 -72.5 -316.5t-142.5 -254.5q-49 -56 -133 -111q-77 -49 -104 -49
q-47 0 -72 25q-23 23 -23 39q0 9 21.5 38t32.5 35q8 5 12 4q9 -3 30 -14.5t40 -18t38 -6.5q26 0 43 31q47 66 112 273.5t65 296.5q0 39 -15.5 60t-42.5 21q-51 0 -121.5 -68.5t-193.5 -230.5q-42 -57 -131.5 -206.5t-130.5 -229.5q-8 -17 -29 -30t-29 -13q-23 0 -39 22.5
t-10 41.5q173 541 379 1224q21 70 6 88q-20 27 -54.5 43.5t-66.5 16.5q-49 0 -93 -23.5t-97 -89.5q-113 -153 -205 -463q-1 -4 0 -8.5t3 -8t3 -3.5q25 1 92 3t93 3q7 0 12.5 -10.5t5.5 -16.5q0 -11 -15.5 -28t-33.5 -17q-21 0 -84 -3t-94 -3q-9 0 -15 -16
q-26 -86 -118.5 -413t-100.5 -355q-99 -339 -256 -440q-127 -78 -219 -78q-51 0 -92 32t-41 60q0 54 45 94q29 23 49 0q32 -44 77 -70t79 -26q47 0 83.5 54.5t76.5 189.5q70 222 268 927q6 19 4 26t-14 7h-123q-35 0 -35 14q0 11 16.5 32t36.5 22q10 1 64.5 3t62.5 3
q20 2 27 26q31 89 60 158t70.5 144.5t85.5 130.5t104.5 102.5t129.5 73.5q47 19 75.5 25.5t70.5 6.5q50 0 95 -14.5t69 -36.5q8 -8 16 0q10 10 33.5 23.5t34.5 13.5z" />
    <glyph glyph-name="f_j" unicode="fj" horiz-adv-x="974" 
d="M872 1462q61 0 105 -13.5t63.5 -34t27 -37t7.5 -29.5q0 -37 -34 -74t-74 -37q-18 0 -27 11.5t-16 35.5q-7 34 -12.5 51t-17 34t-30 23.5t-47.5 6.5q-114 0 -211 -148q-92 -146 -166 -411q-5 -15 -1 -22t7.5 -8t12.5 -1q27 0 153.5 5t175.5 9q22 2 65.5 9t51.5 8
q9 1 14.5 -7t6.5 -26.5t-8 -48.5q-37 -137 -131 -467.5t-123 -405.5q-55 -134 -115.5 -209t-136.5 -114q-39 -22 -84 -34.5t-74 -12.5q-56 0 -86.5 25t-30.5 52q0 14 17.5 38.5t33.5 35.5q29 20 52 6q86 -61 131 -61q32 0 59.5 29t54.5 110q70 204 154.5 506.5t110.5 411.5
q13 46 5.5 64t-36.5 18q-167 0 -291 -13q-21 -2 -33 -37q-122 -415 -215 -761q-52 -183 -112.5 -282t-155.5 -161q-105 -69 -203 -69q-43 0 -89 31t-46 73t47 80q12 9 25.5 11t19.5 -5q82 -96 156 -96q24 0 43.5 10.5t42 42t47.5 94t53 160.5q10 32 47.5 167t93.5 335.5
t103 363.5q7 19 5 28t-15 9q-27 -1 -57 -2t-46.5 -1.5t-25.5 -0.5q-13 0 -20 6.5t-7 14.5t17 26t32 19q12 1 62.5 5.5t60.5 4.5t14 0.5t10.5 6t10.5 17.5q105 339 278 504q18 18 42 36.5t63 42t90.5 38t105.5 14.5z" />
    <glyph glyph-name="f_k" unicode="fk" horiz-adv-x="1433" 
d="M1130 1450q21 0 5 -59q-5 -16 -58.5 -160.5t-130.5 -352t-123 -337.5q-5 -15 7 -14q15 1 24 16q117 164 260 237q52 26 83 35.5t85 9.5q50 0 81.5 -25t31.5 -59q0 -38 -45.5 -103.5t-116.5 -115.5q-45 -30 -119 -67t-102 -47q-3 -1 -7 -10t-4 -11q19 -110 68 -221
q18 -41 35.5 -57.5t38.5 -16.5q26 0 71.5 35.5t81.5 81.5q21 24 35 24q22 0 5 -43q-8 -18 -19 -34q-59 -81 -123.5 -136t-114.5 -55q-63 0 -116 125q-15 38 -72 199q-12 35 -35 56.5t-39 21.5t-27 -8t-22 -33q-13 -30 -41 -95.5t-53 -123.5t-49 -109q-9 -27 -35 -27
q-24 0 -44 14.5t-20 28.5q0 15 19 70q13 31 161.5 468t233.5 697q22 66 4 88q-20 27 -53 43.5t-64 16.5q-49 0 -93 -23.5t-97 -87.5q-114 -158 -203 -459q-1 -4 0 -8.5t3 -8t3 -3.5q25 1 92 3t93 3q7 0 12.5 -10.5t5.5 -16.5q0 -11 -15.5 -28t-33.5 -17q-20 0 -84 -3t-94 -3
q-9 0 -15 -16q-25 -86 -118 -415t-101 -357q-100 -340 -256 -441q-126 -77 -219 -77q-51 0 -92 32t-41 60q0 54 45 94q26 19 41 4q38 -43 85 -71.5t79 -28.5q47 0 83.5 54t76.5 189q97 307 268 932q11 33 -10 33h-123q-35 0 -35 14q0 11 16.5 32t36.5 22q10 1 64.5 3t62.5 3
q20 2 27 26q31 89 59 157t68.5 142.5t84 129t103.5 101t129 73.5q78 32 148 32q49 0 91.5 -15t65.5 -38q4 -2 12.5 -2t12.5 4q11 11 32.5 25t32.5 14zM1180 739q-46 0 -107 -34q-56 -34 -113 -102t-96 -144q-6 -13 1.5 -25t19.5 -10q78 5 163.5 52t140 109.5t54.5 110.5
q0 8 -1 13t-6.5 13t-19.5 12.5t-36 4.5z" />
    <glyph glyph-name="f_r" unicode="fr" horiz-adv-x="1179" 
d="M829 1462q46 0 79.5 -12t49.5 -32.5t22.5 -40.5t6.5 -42q0 -45 -35 -77.5t-63 -32.5q-10 0 -14.5 1.5t-8 8t-4.5 20.5q-2 8 -5.5 29.5t-6 33t-9 29t-15 27t-23 16.5t-33.5 7q-84 0 -162 -123q-87 -142 -170 -436q-2 -8 -0.5 -15t3.5 -11.5t3 -4.5q167 0 332 10
q39 1 62.5 -21t23.5 -55q0 -23 -67 -231q-8 -22 -0.5 -27.5t22.5 17.5q93 138 156 211q97 116 174 116q41 0 60.5 -26t19.5 -58q0 -57 -34.5 -104t-59.5 -47q-23 0 -25 43q-13 70 -41 70q-50 0 -141 -142q-19 -30 -40 -65.5t-38 -65t-39.5 -72.5t-35.5 -67t-36 -70.5
t-30.5 -62t-30.5 -62.5t-25 -51q-22 -42 -48.5 -62t-43.5 -20q-27 0 -39.5 22t0.5 48q127 334 205 588q12 43 9 70.5t-15 41.5q-38 6 -78 6q-53 -1 -225 -8q-12 0 -17 -22q-32 -107 -117.5 -413t-107.5 -374q-62 -181 -120.5 -272t-153.5 -152q-100 -67 -191 -67
q-43 0 -88 26.5t-45 67.5q0 14 14 39.5t29 38.5q33 18 45 6q97 -80 158 -80q33 0 56 19t55.5 87.5t76.5 202.5q11 35 48 167t95 338t103 362q3 11 1.5 19.5t-5.5 8.5q-21 0 -72 -1t-74 -1q-10 0 -14.5 9.5t-1.5 17.5q7 16 20 27.5t21 11.5q62 4 135 4q5 0 12 5t7 7
q113 362 280 522q29 27 46.5 41t53.5 37.5t77 35t87 11.5z" />
    <glyph glyph-name="f_t" unicode="ft" horiz-adv-x="1073" 
d="M975 1034q13 0 15.5 -9.5t-5.5 -35.5q-3 -14 -25.5 -87t-25.5 -83q-2 -4 0.5 -10t9.5 -6h195q6 0 6 -17q2 -10 -11.5 -28t-29.5 -19q-93 -6 -191 -6q-10 0 -18 -20q-85 -200 -197 -518q-20 -58 13 -58q28 0 97.5 46.5t106.5 84.5q14 14 27.5 18t15.5 -12q0 -22 -18 -49
q-62 -87 -187 -170.5t-196 -83.5q-15 0 -34 17.5t-19 29.5q0 21 10 52q2 5 43 117.5t98.5 268t96.5 255.5q4 11 2.5 17.5t-6.5 6.5h-334q-11 0 -17 -16q-65 -222 -243 -909q-13 -48 -31.5 -88.5t-32.5 -64.5t-38.5 -50.5t-34 -34.5t-36 -28t-28.5 -21q-52 -37 -123.5 -63.5
t-105.5 -26.5q-66 0 -105 26.5t-39 65.5q0 21 33.5 57.5t54.5 36.5q6 2 16.5 -2.5t16.5 -11.5q61 -80 133 -80q24 0 44 9.5t44 35.5t47 83t43 142q177 687 246 922q2 5 -1 10.5t-11 5.5h-125q-9 0 -15 8t-6 15q0 18 13 31.5t26 13.5q19 0 69 1t64 1q8 0 15 14
q37 114 79.5 215.5t111 206.5t140.5 154q108 75 201 75q73 0 113.5 -38.5t40.5 -90.5q0 -60 -34.5 -99.5t-64.5 -39.5q-16 0 -16 21q0 5 1 21t1 22q0 59 -25 102t-65 43q-49 0 -91.5 -36.5t-98.5 -137.5q-75 -142 -150 -410q-1 -5 2.5 -12.5t5.5 -7.5q93 -1 207 -0.5
t127 2.5q14 0 23 18q50 96 84 150q21 33 42 46t54 13z" />
    <glyph glyph-name="gamma_gamma" unicode="&#x3b3;&#x3b3;" horiz-adv-x="1593" 
d="M291 838q30 0 56 -13.5t50.5 -44.5t36.5 -93t8 -148q-4 -66 -18.5 -173.5t-32.5 -168.5q-2 -6 6 -6t13 8q85 155 195 301t194 223q124 115 243 115q24 0 46.5 -7.5t46 -29t40 -54t25.5 -87t6 -123.5q-3 -58 -20.5 -172.5t-34.5 -176.5q-1 -5 5 -6q10 -1 18 8
q209 311 268 402q108 164 151 266q3 4 17.5 1.5t17.5 -5.5q12 -13 24.5 -46t12.5 -56q0 -12 -23 -50t-34 -51q-34 -49 -145.5 -185.5t-208.5 -267.5t-138 -221q-28 -65 -35 -98q-79 -251 -120 -338q-5 -10 -24.5 -24t-27.5 -11q-56 21 -78 101q-2 8 2.5 33.5t8.5 35.5
q38 80 176 304q22 34 50 108t34 113q10 57 16 98.5t10 95t1.5 91.5t-12 78t-28.5 64.5t-50.5 40t-75.5 15.5q-56 0 -120 -39t-124 -103.5t-117 -140t-105 -156t-82 -143t-55 -108.5q-5 -12 -14 -32t-15 -34t-9 -22q-110 -275 -175 -420q-5 -10 -24.5 -23t-28.5 -10
q-28 11 -43.5 31.5t-27.5 64.5q-2 10 1 35t9 35q21 42 53 97.5t53 88.5t65 100t52 79q23 34 50 103t32 106q24 181 25 255q1 238 -136 238q-34 0 -71.5 -19.5t-57.5 -37.5t-35 -35q-10 -11 -18.5 -15.5t-13.5 1.5t0 32q3 49 47 103q97 123 213 123z" />
    <glyph glyph-name="lambda_lambda" unicode="&#x3bb;&#x3bb;" horiz-adv-x="1525" 
d="M330 1409q57 0 98.5 -27t65 -75.5t34.5 -103.5t13 -122q1 -75 -4 -365t-5 -366q0 -50 3 -87.5t12 -74t28 -56t48 -19.5q9 0 36.5 24t45.5 49q323 412 352 447q21 24 57 71t39 50q6 5 12 32.5t6 36.5q-1 16 -1.5 59.5t-1.5 66t-4 65t-7.5 67.5t-13 61.5t-20.5 58.5
t-30 47.5t-41 39.5t-54 23.5t-68 9.5q-36 0 -70 -8.5t-52 -17t-45 -24.5t-32 -18q-7 -3 -15.5 4.5t-6.5 12.5q0 17 28 57q107 133 254 133q105 0 159.5 -84t74.5 -246q7 -69 8.5 -363t-2.5 -417q-1 -72 4.5 -117t18.5 -65.5t25.5 -26.5t33.5 -6q72 0 157 105q2 2 6 -1
t7.5 -8t3.5 -10q0 -19 -21 -63q-96 -193 -217 -193q-49 0 -73.5 48.5t-22.5 117.5q0 55 10 238.5t13 216.5q0 16 -11 20q-6 3 -10 -6q-14 -25 -196 -268.5t-226 -284.5q-76 -82 -158 -82q-56 0 -85 48.5t-29 111.5q0 55 9 241.5t11 213.5q0 11 -7.5 17.5t-14.5 -5.5
q-3 -7 -52 -88t-104 -172t-106 -175.5t-52 -86.5q-1 -1 -11.5 -17.5t-18.5 -28.5t-20 -27.5t-22 -24.5t-16 -9q-16 0 -48 10t-54 23q-4 4 -7 17t1 20q6 10 211.5 303t220.5 319q73 114 82 121q6 5 11 32.5t5 37.5q1 61 -1 105.5t-9 97.5t-22 89t-38.5 68t-61 48t-87.5 16
q-26 0 -52.5 -7t-42 -14.5t-38 -20t-29.5 -16.5q-6 -4 -14 3t-8 14q0 17 28 55q39 52 99.5 88.5t126.5 36.5z" />
    <glyph glyph-name="longs_b" unicode="&#x17f;b" horiz-adv-x="1394" 
d="M1196 827q49 0 98 -34q26 -20 43 -58t17 -76q0 -83 -36.5 -177t-95 -174.5t-128.5 -148.5t-138 -108q-140 -84 -237 -84q-73 0 -122.5 46t-49.5 141q0 62 104 385q27 85 126 381.5t114 343.5q16 43 -6 71q-41 41 -111 41q-104 0 -177 -109.5t-171 -381.5
q-55 -161 -124.5 -421.5t-113.5 -469.5q-39 -182 -97.5 -296.5t-149.5 -176.5q-136 -88 -238 -88q-59 0 -109.5 34t-50.5 76q0 13 12 33.5t31 36.5q13 12 32 12.5t26 -8.5q44 -48 81.5 -70t84.5 -22q74 0 122 97t101 335q36 160 101 402t118 403q163 480 379 627
q110 73 225 73q75 0 125 -30q11 -7 41 10q40 28 65 28q33 0 0 -71q-34 -67 -149 -394t-164 -483q-2 -4 0.5 -7.5t6 -3.5t5.5 3q46 59 84.5 103.5t95 97.5t115.5 82.5t115 29.5zM1155 760q-40 0 -89.5 -31.5t-97 -82t-86 -100t-71.5 -100.5q-127 -205 -127 -311
q0 -46 21.5 -75t60.5 -29q43 0 135 80q106 101 213 280t107 305q0 26 -19 45t-47 19z" />
    <glyph glyph-name="longs_h" unicode="&#x17f;h" horiz-adv-x="1503" 
d="M872 1462q40 0 80.5 -12t57.5 -23q3 -2 16.5 2.5t20.5 10.5q36 30 65 30q20 0 6 -46q-2 -5 -5 -17l-3 -8q-39 -119 -121 -364t-135 -406.5t-57 -177.5q-3 -10 -1 -14.5t6.5 -4t8.5 5.5q187 236 291 312q65 48 108.5 64.5t92.5 16.5q35 0 61.5 -16.5t40 -41.5t19.5 -47.5
t6 -39.5q0 -142 -73.5 -313.5t-144.5 -251.5q-61 -69 -131 -115q-71 -45 -100 -45q-49 0 -70 25q-16 13 -16 37q0 10 11.5 35.5t19.5 33.5q10 10 22 6q9 -3 30.5 -13.5t39.5 -16t37 -5.5q21 0 45 31q47 64 112.5 268.5t65.5 292.5q0 39 -15.5 60.5t-43.5 21.5
q-60 0 -128.5 -64t-189.5 -227q-24 -32 -52.5 -76t-52 -84t-50.5 -88.5t-43 -78t-34.5 -65t-19.5 -38.5q-11 -19 -30.5 -34t-34.5 -15q-24 0 -39.5 22t-9.5 42q122 380 385 1237q15 46 0 61q-53 49 -132 49q-110 0 -195.5 -120.5t-172.5 -385.5q-53 -166 -119 -416.5
t-108 -449.5q-74 -358 -248 -479q-145 -94 -242 -94q-62 0 -112 36.5t-50 75.5q0 11 12.5 33.5t30.5 38.5q20 16 30.5 17.5t23.5 -11.5q44 -49 84 -71.5t88 -22.5q74 0 122.5 95t102.5 333q32 145 95.5 383t115.5 410q42 134 95.5 246t106.5 187t98.5 123t88.5 78
q118 78 237 78z" />
    <glyph glyph-name="longs_i" unicode="&#x17f;i" horiz-adv-x="944" 
d="M842 1462q68 0 119 -39.5t51 -95.5q0 -26 -25 -53t-45 -27q-33 0 -55 27q-20 28 -31.5 42t-41 32t-62.5 18q-66 0 -122.5 -50t-117 -178t-123.5 -345q-81 -283 -203 -781q-54 -214 -107.5 -323t-137.5 -168q-140 -88 -244 -88q-63 0 -111.5 32.5t-48.5 71.5q0 22 18 47
t35 33q13 6 30 6.5t24 -6.5q76 -88 166 -88q74 0 119 93t100 335q83 370 229 842q147 442 365 585q113 78 219 78zM827 827q26 0 40 -16t14 -33q0 -16 -21 -69q-44 -105 -119 -287.5t-112 -269.5q-15 -35 8 -35q21 0 95.5 56t109.5 91q25 29 45 29q4 0 8 -5t4 -12
q0 -9 -11 -29.5t-28 -39.5q-68 -78 -182.5 -159t-173.5 -81q-23 0 -39 13t-16 30q0 18 12 45q136 335 252 604q10 23 3.5 29t-22.5 -2q-37 -17 -147 -88q-9 -6 -16 -1.5t-7 13.5q0 13 23 43q38 44 134.5 109t145.5 65z" />
    <glyph glyph-name="longs_k" unicode="&#x17f;k" horiz-adv-x="1388" 
d="M872 1462q38 0 76 -11.5t58 -23.5q10 -6 30 11q41 32 66 32q32 0 6 -65q-4 -12 -283 -793q-6 -16 3 -18t20 8q49 47 72 68.5t68 55t93 58.5q49 25 83 34t91 9q48 0 76.5 -28t28.5 -64q0 -90 -156 -200q-46 -30 -112 -66.5t-88 -46.5q-26 -12 -21 -33q14 -83 72 -219
q18 -41 35.5 -57.5t39.5 -16.5q30 0 71.5 32t76.5 83q19 25 31 25q14 -2 9.5 -26t-20.5 -52q-51 -84 -118 -137.5t-121 -53.5q-62 0 -115 125q-25 59 -76 213q-12 34 -33.5 49t-39.5 15q-34 0 -52 -41t-59.5 -153t-69.5 -175q-6 -12 -20.5 -19.5t-28.5 -7.5
q-22 0 -41.5 14.5t-19.5 28.5q0 18 18 70q6 16 73.5 216.5t174 519.5t148.5 446q6 15 7.5 34t-3.5 23q-20 24 -58.5 38.5t-77.5 14.5q-108 0 -194 -121t-172 -385q-53 -166 -119 -416.5t-108 -449.5q-74 -358 -248 -479q-145 -94 -242 -94q-62 0 -112 36.5t-50 75.5
q0 11 12.5 33.5t30.5 38.5q20 16 30.5 17.5t23.5 -11.5q44 -49 84 -71.5t88 -22.5q74 0 122.5 95t102.5 333q70 313 211 793q138 458 387 634q118 78 239 78zM1141 731q-54 0 -167.5 -83.5t-166.5 -188.5q-8 -14 -2 -24t29 -9q57 2 143 41.5t156 102t73 118.5
q0 12 -2.5 19.5t-18 15.5t-44.5 8z" />
    <glyph glyph-name="longs_l" unicode="&#x17f;l" horiz-adv-x="1009" 
d="M872 1462q67 0 134 -37q10 -5 30 9q46 36 76 36q8 0 11.5 -5.5t1.5 -16.5t-5.5 -22t-9.5 -27q-101 -272 -259 -714t-187 -533q-13 -43 -8 -58.5t26 -15.5q28 0 101.5 58t138.5 130q6 6 12 7.5t10 -1.5t4 -10q0 -32 -10 -47q-68 -109 -166 -178.5t-186 -69.5q-36 0 -64 23
t-28 61q0 8 7 30t27.5 78t34.5 97q46 135 184.5 522t174.5 490q5 16 1.5 36t-8.5 25q-63 49 -127 49q-109 0 -195.5 -121t-172.5 -385q-53 -166 -119 -416.5t-108 -449.5q-74 -358 -248 -479q-145 -94 -242 -94q-62 0 -112 36.5t-50 75.5q0 11 12.5 33.5t30.5 38.5
q10 8 28 10.5t26 -4.5q44 -49 84 -71.5t88 -22.5q74 0 122.5 95t102.5 333q32 145 95.5 383t115.5 410q42 134 95.5 246t106.5 187t98.5 123t88.5 78q118 78 237 78z" />
    <glyph glyph-name="longs_longs" unicode="&#x17f;s" horiz-adv-x="917" 
d="M836 1413q57 0 105 -21.5t75 -52.5q9 -9 18 0q141 123 262 123q65 0 111 -36t45 -85q-1 -28 -25.5 -56t-40.5 -28q-6 0 -11.5 3.5t-8.5 8l-9 13.5t-9 14q-52 68 -136 68q-48 0 -84 -19t-77 -74t-83 -164.5t-91 -281.5q-157 -560 -201 -753q-45 -206 -104 -320.5
t-148 -175.5q-137 -94 -248 -94q-44 0 -98.5 20.5t-83.5 48.5q-6 6 -21 -4q-58 -46 -135 -80t-139 -34t-111 31t-49 73q0 10 14 34t31 40q13 10 31.5 14.5t24.5 -0.5q13 -10 36.5 -30t34 -28t28 -19t33.5 -15t35 -4q75 0 124.5 97t103.5 333q34 152 105 406t124 409
q76 221 161.5 354.5t195.5 206.5q113 78 215 78zM766 1329q-107 0 -189.5 -126.5t-181.5 -436.5q-136 -434 -211 -768q-48 -213 -106 -322q-8 -16 2 -26q84 -84 186 -84q77 0 140 116t120 349q102 417 205 751q79 274 193 443q3 3 5 12t-1 12q-41 80 -162 80z" />
    <glyph glyph-name="longs_longs_i" unicode="&#x17f;si" horiz-adv-x="1466" 
d="M766 1329q-107 0 -189.5 -126.5t-181.5 -436.5q-134 -427 -209 -762q-48 -215 -106 -323q-8 -15 4 -27q79 -82 184 -82q147 0 260 465q102 419 203 745q79 275 193 449q11 11 4 18q-21 34 -65 57t-97 23zM1341 827q12 0 30 -18t18 -31q0 -16 -21 -69
q-47 -110 -121.5 -291t-111.5 -266q-4 -10 1.5 -22.5t20.5 -12.5q22 0 84.5 50t106.5 97q29 29 47 29q10 0 10 -12q0 -34 -37 -74q-77 -86 -185 -163t-167 -77q-21 0 -40.5 17.5t-19.5 33.5q0 12 11 37q40 100 252 604q6 13 -1.5 22.5t-15.5 6.5q-70 -23 -153 -94
q-7 -7 -16 -3t-9 13q0 20 27 51q36 43 137.5 107.5t152.5 64.5zM836 1413q121 0 180 -72q6 -10 18 -2q141 123 264 123q70 0 121 -39.5t49 -87.5q-1 -30 -27.5 -62t-43.5 -32q-33 0 -54 35q-16 27 -27.5 42.5t-38 31.5t-58.5 16q-50 0 -87 -19.5t-79 -75.5t-84.5 -165
t-91.5 -281q-154 -548 -199 -747q-45 -206 -104 -320.5t-148 -175.5q-137 -94 -248 -94q-44 0 -96 21t-82 49q-4 3 -12 1t-13 -5q-59 -47 -140 -84t-142 -37t-106.5 33.5t-45.5 76.5q0 10 14 34t31 38q19 16 31.5 16.5t24.5 -10.5q5 -4 21 -17t20.5 -16.5t17.5 -13.5
t18 -12.5t16 -9.5t17.5 -9t17 -5t20 -4t20.5 -1q74 0 123.5 97.5t103.5 334.5q34 152 104 403t123 406q76 221 161.5 354.5t195.5 206.5q113 78 215 78z" />
    <glyph glyph-name="longs_longs_l" unicode="&#x17f;sl" horiz-adv-x="1462" 
d="M766 1331q-107 0 -189 -125t-182 -436q-133 -424 -211 -772q-48 -213 -106 -322q-2 -3 -2 -13.5t2 -12.5q81 -84 188 -84q75 0 138.5 116t121.5 349q104 426 205 753q79 274 193 445q3 3 4.5 11t-0.5 9q-40 82 -162 82zM836 1415q116 0 180 -74q9 -9 18 0q56 49 134 85
t159 36q38 0 79.5 -12.5t61.5 -24.5q11 -5 27 7q49 41 72 41q5 0 7.5 -10t1 -27.5t-8.5 -34.5q-100 -265 -259.5 -709.5t-189.5 -539.5q-24 -72 19 -72q27 0 100.5 57t138.5 129q6 6 12.5 7.5t10.5 -1.5t4 -10q0 -32 -10 -47q-68 -108 -167 -177t-188 -69q-35 0 -62.5 23
t-27.5 61q0 8 8 31t26.5 75.5t33.5 98.5q40 113 168.5 472.5t191.5 537.5q16 55 8 65q-17 15 -59.5 31t-77.5 16q-39 0 -71.5 -12t-71.5 -47.5t-74 -95t-74.5 -160.5t-78.5 -238q-163 -581 -201 -755q-47 -208 -105.5 -322t-148.5 -174q-52 -37 -118.5 -65.5t-127.5 -28.5
q-44 0 -97.5 21.5t-82.5 50.5q-9 7 -23 -7q-60 -46 -136.5 -80t-137.5 -34q-64 0 -113 31t-49 73q0 11 14.5 34.5t32.5 37.5q13 12 29.5 13t26.5 -7q4 -4 18.5 -15.5t18.5 -14.5t15.5 -12t16 -11.5t15 -9t16 -8.5t14.5 -6t16.5 -5.5t17 -2.5t19.5 -1q74 0 123 96.5
t103 333.5q37 158 108 411.5t123 405.5q75 221 160 353.5t194 207.5q121 78 218 78z" />
    <glyph glyph-name="longs_t" unicode="&#x17f;t" horiz-adv-x="1052" 
d="M883 1419q93 0 142.5 -44.5t49.5 -86.5q0 -12 -27 -89t-69 -191t-61 -172q-8 -35 10 -35q22 0 91.5 -1t94.5 -1q6 0 10 -7t2 -12q2 -11 -11.5 -30t-29.5 -19h-186q-12 0 -22 -20q-60 -121 -189 -508q-20 -58 10 -58q28 0 96.5 46.5t104.5 84.5q30 30 40 18q3 -3 3 -11
q0 -23 -16 -50q-62 -86 -187 -168.5t-196 -82.5q-17 0 -33.5 13t-17.5 34q0 26 8 51q2 5 42.5 115t97 263t95.5 253q4 7 2 13.5t-8 6.5h-104q-21 0 -29 4t-8 15q0 16 11.5 31.5t21.5 15.5q81 0 135 4q4 0 10.5 6.5t9.5 13.5q20 51 82 218.5t70 195.5q5 33 3 46t-13 24
q-37 34 -113 34q-54 0 -104 -29t-86 -70.5t-71 -105t-56.5 -114t-45.5 -115.5q-111 -305 -256 -901q-47 -187 -104.5 -302t-144.5 -175q-145 -94 -242 -94q-64 0 -114 36t-50 74q0 9 13.5 31.5t31.5 38.5q17 15 29 16.5t24 -10.5q90 -90 172 -90q72 0 120 100.5t110 345.5
q122 483 215 754q36 102 70.5 181t81 161t106.5 149.5t133 118.5q119 80 246 80z" />
    <glyph glyph-name="n_t.end" unicode="n&#xe26c;" horiz-adv-x="2416" 
d="M371 827q42 0 66.5 -28t4.5 -72q-3 -7 -52.5 -132.5t-61.5 -150.5q-9 -26 0.5 -29t21.5 19q37 54 118.5 153.5t127.5 139.5q122 100 213 100q57 0 90 -34.5t33 -79.5q0 -49 -29 -121q-29 -79 -100.5 -230t-93.5 -192q-32 -65 8 -68q71 -6 269 190.5t370 438.5
q-17 1 -41 1h-42t-35 -0.5t-19 -0.5q-29 0 -29 27q0 13 12.5 27t26.5 14q4 0 85 1t85 1q13 0 43 43q26 36 65 97t62 92.5t35 31.5q14 0 24 -14t10 -25q3 -24 -63 -205q-5 -20 10 -20h205q31 0 31 -21t-11.5 -35t-31.5 -14h-197q-28 0 -35.5 -6t-25.5 -39q-7 -14 -19 -43.5
t-30.5 -80t-37 -101.5t-48.5 -133.5t-54 -149.5q-24 -66 6 -76q10 -2 65 -7t162 -11t208 -6q199 0 310 44t111 134q0 32 -9 46.5t-44 25.5q-41 14 -57.5 31t-16.5 40q0 44 29.5 76.5t71.5 32.5q54 0 89.5 -50t35.5 -118q0 -96 -51.5 -166t-129.5 -106q-92 -42 -194 -63
t-264 -21q-56 0 -211.5 8t-163.5 8q-42 2 -104 -4q-31 -3 -37.5 7t10.5 65q123 324 221 544q7 17 -3 17q-8 -1 -15 -11q-204 -266 -404 -452q-112 -107 -204.5 -151t-155.5 -44q-49 0 -68 31q-11 16 -12 28.5t10 41.5q43 84 158.5 320t128.5 278q30 82 -35 82
q-86 0 -227 -172q-37 -44 -105.5 -143.5t-141 -209.5t-91.5 -137q-44 -69 -67.5 -97t-39.5 -28q-19 0 -38 21t-19 37q-2 11 7 38t19.5 51t24.5 52t14 29q18 41 65 141.5t87 190.5t66 159q16 31 -19 31q-28 0 -58 -14.5t-47.5 -29t-50.5 -44.5q-21 -21 -28 -21q-4 -1 -8.5 6
t-4.5 13q0 23 18 56t49.5 66t84.5 56.5t113 23.5z" />
    <glyph glyph-name="f_f" unicode="ff" horiz-adv-x="1009" 
d="M838 1409q59 0 108 -24.5t76 -57.5q1 -3 9 0t11 8q139 133 281 133q68 0 107.5 -37.5t37.5 -80.5q0 -42 -34 -84q-15 -17 -38.5 -27t-35.5 -10q-8 0 -15 6.5t-4 17.5q5 22 5 54q4 100 -78 100q-54 0 -102 -41.5t-99 -138.5q-21 -40 -41 -91.5t-33 -90t-34 -105.5
t-33 -102q-4 -11 1.5 -15t20.5 -4l178 8q27 0 27 -16q0 -11 -18.5 -29.5t-36.5 -19.5q-4 0 -76.5 -5t-106.5 -5q-15 0 -28 -27q-115 -397 -252 -856q-33 -110 -84 -173.5t-125 -117.5q-51 -37 -124.5 -62.5t-119.5 -25.5q-61 0 -111.5 21.5t-80.5 58.5q-44 -49 -136 -94
t-145 -45t-95 30t-42 66q0 23 13 50t32 40q32 20 45 4q51 -56 88.5 -75t75.5 -19q36 0 65.5 40.5t71.5 145.5q48 125 295 998q3 9 -2 12.5t-25 3.5l-127 -2q-16 0 -16 14q1 21 21.5 37.5t33.5 16.5q19 0 61 3t56 3q24 0 29 24q119 363 309 500q120 86 240 86zM449 803
l301 10q14 0 19 4t9 19q66 218 154 360q4 6 7 23t1 22q-20 54 -64.5 78t-95.5 24q-58 0 -120 -48t-109 -144q-63 -121 -119 -332q-2 -6 1.5 -11t15.5 -5zM721 745l-299 -12q-15 0 -25 -24q-20 -66 -227 -793q-17 -60 -50.5 -140t-49.5 -110q-2 -1 -0.5 -10t4.5 -12
q34 -40 82.5 -59t93.5 -19q71 0 128 55t99 195q262 889 266 903q5 9 0.5 18t-22.5 8z" />
    <glyph glyph-name="f_i" unicode="fi" horiz-adv-x="978" 
d="M1075 1350q0 -36 -33.5 -74.5t-74.5 -38.5q-37 0 -43 47q-6 60 -29 87.5t-80 27.5q-111 0 -211 -152q-85 -135 -168 -428q0 -16 15 -16q25 0 147.5 5t177.5 9q25 2 51 7t49 11t27 7q12 2 19 -5.5t0 -21.5q-37 -75 -125 -316t-119 -347q-7 -17 -4.5 -26t10.5 -9
q29 0 96 53.5t101 87.5q33 33 47 33q8 0 8 -19q0 -22 -37 -69q-66 -82 -175.5 -159t-168.5 -77q-22 0 -37.5 19.5t-15.5 38.5q0 13 22 79q12 31 114.5 308t115.5 309q4 11 -1.5 19t-15.5 8q-54 -1 -177.5 -7t-133.5 -6q-16 0 -27 -26q-29 -99 -117 -408.5t-110 -380.5
q-64 -190 -119.5 -281.5t-150.5 -144.5q-117 -65 -195 -65q-43 0 -89 30t-46 70q0 13 15 43t28 43q36 20 47 6q35 -45 79 -71.5t81 -26.5q33 0 55.5 19.5t54.5 88t76 205.5q12 36 48 163.5t94 334.5t102 360q4 13 5 19.5t-2.5 10t-12.5 3.5h-136q-22 0 -22 21q0 8 18.5 26
t36.5 19q122 8 123 8q8 0 17 6t10 12q113 350 280 510q27 27 63 53t105.5 53t139.5 27q61 0 103.5 -13t61.5 -33.5t26 -36t7 -29.5z" />
    <glyph glyph-name="f_l" unicode="fl" horiz-adv-x="1013" 
d="M881 1462q97 0 153 -43q17 -12 25 -2q11 11 32.5 24t32.5 13q20 0 2 -51q-79 -206 -235 -668t-207 -629q-6 -18 1 -32.5t17 -14.5q24 0 105 65.5t135 133.5q14 19 29 18q8 -1 8 -10q0 -11 -12 -43q-66 -120 -162 -188t-191 -68q-44 0 -64.5 40t-12.5 69q2 8 7.5 24
t15.5 44t18 53q19 57 83.5 249t96.5 287q3 8 1 11t-3.5 3.5t-5.5 0.5h-2l-322 -11q-4 0 -14 -8.5t-13 -17.5q-204 -720 -217 -764q-99 -342 -256 -443q-126 -77 -219 -77q-51 0 -92 32t-41 60q0 54 45 94q8 7 23 10t20 -2q37 -44 83.5 -74t78.5 -30q47 0 83 54.5t77 188.5
q43 135 270 945q3 8 0.5 15t-6.5 7h-129q-37 0 -37 16q2 12 18.5 31.5t36.5 22.5q10 1 66.5 3t64.5 3q7 1 14 9.5t9 16.5q32 90 59.5 157.5t68.5 143.5t84.5 130t103 101t128.5 73q68 28 146 28zM827 1399q-51 0 -94 -22t-96 -87q-110 -149 -203 -463q-2 -7 1 -14.5t9 -7.5
q12 0 150 5t158 5q26 0 39 19q3 7 30.5 86t62 180.5t48.5 140.5q5 16 9 40t5 41t0 19q-20 27 -53.5 42.5t-65.5 15.5z" />
    <glyph glyph-name="f_f_i" unicode="ffi" horiz-adv-x="1503" 
d="M860 1409q43 0 97.5 -24.5t84.5 -55.5q6 -6 17 2q153 137 307 137q111 0 163 -41.5t52 -97.5q0 -43 -34 -69.5t-66 -26.5q-35 0 -41 41q-8 67 -34 100t-81 33q-63 0 -126 -43.5t-114 -136.5q-67 -126 -147 -387q-2 -8 -0.5 -17.5t4.5 -9.5q33 0 171.5 4t186.5 8
q69 7 115 17q11 2 15 -5t-3 -22q-45 -95 -127.5 -323t-111.5 -334q-6 -31 -4 -38t14 -7q17 0 82.5 48t114.5 105q8 10 12.5 12.5t9 0t6.5 -2.5q13 0 -3 -43q-3 -8 -7 -16q-39 -74 -154.5 -160t-187.5 -86q-22 0 -37.5 16.5t-15.5 49.5q0 21 4.5 40t16 50.5t16.5 46.5
q172 459 200 545q6 26 2.5 30.5t-26.5 4.5q-47 0 -174.5 -5.5t-134.5 -5.5q-15 0 -27 -36q-32 -110 -90.5 -312.5t-98 -338t-51.5 -171.5q-59 -193 -215 -303q-52 -36 -131 -64t-121 -28q-59 0 -110 18t-78 52q-2 2 -8.5 3t-11.5 -3q-62 -59 -139 -93t-134 -34
q-65 0 -101 34.5t-34 65.5q0 19 14 43.5t31 38.5q38 26 51 10q81 -90 150 -90q85 0 149 182q25 74 115.5 381.5t175.5 612.5q3 9 -3 12.5t-19 3.5l-125 -4q-10 0 -16.5 5t-6.5 11q1 21 17.5 36.5t29.5 15.5q111 6 131 6q5 0 11.5 4t7.5 10q117 363 317 508q122 90 258 90z
M805 1339q-158 0 -254 -194q-49 -93 -117 -324q-2 -5 0 -11.5t6 -6.5l324 10q18 0 22 14q68 211 162 363q4 6 7 21t1 18q-41 110 -151 110zM266 -430q66 0 127 55.5t103 192.5q32 106 262 907q2 8 -2 14t-11 6l-319 -12q-17 0 -27 -24q-155 -529 -229 -787
q-17 -60 -50.5 -140t-49.5 -110q-5 -8 4 -20q38 -44 91.5 -63t100.5 -19z" />
    <glyph glyph-name="f_f_l" unicode="ffl" horiz-adv-x="1525" 
d="M1386 1470q103 0 156 -53q19 -15 29 0q45 45 63 45q11 0 15.5 -14.5t-2.5 -36.5q-91 -240 -252 -700.5t-199 -591.5q-11 -41 16 -41q35 0 107 54t131 126q17 20 32 17q7 -1 7 -9q0 -23 -12 -47q-61 -113 -161 -181.5t-198 -68.5q-38 0 -60 21.5t-22 58.5q0 29 54 176
q135 388 174 506q3 7 1 18t-8 11l-333 -19q-14 -2 -25 -24q-176 -615 -237 -819q-62 -203 -220 -314q-52 -38 -130.5 -67t-121.5 -29q-60 0 -114.5 20.5t-81.5 57.5q-6 6 -10 2q-49 -53 -127 -94t-142 -41q-63 0 -104 29.5t-39 58.5q0 26 16.5 55t32.5 39q14 10 31 12t22 -4
q84 -90 146 -90q85 0 149 184q12 34 57 188t115.5 397.5t116.5 399.5q2 6 -0.5 12.5t-9.5 6.5l-148 -6q-16 0 -16 14q1 22 15 37.5t26 15.5q3 0 143 9q6 0 12.5 8.5t8.5 15.5q34 93 61 154.5t65.5 132.5t86.5 125.5t108 97.5q117 84 242 84q112 0 182 -70q11 -10 15.5 -9.5
t15.5 11.5q75 60 117 82q90 47 204 47zM440 797l328 12q15 0 25 27q78 230 161 364q10 15 11.5 19.5t-2.5 17.5q-39 104 -156 104q-155 0 -248 -184q-69 -133 -125 -342q-2 -5 0.5 -11.5t5.5 -6.5zM283 -432q61 0 120 67.5t101 204.5q23 80 107 372t147 507q2 5 -1 11.5
t-7 6.5l-324 -12q-14 0 -25 -23q-95 -296 -231 -790q-17 -54 -47.5 -126.5t-46.5 -104.5q-3 -5 -1.5 -16t3.5 -13q63 -84 205 -84zM1335 1407q-58 0 -104 -18.5t-94 -81.5q-97 -128 -201 -480q-1 -6 2 -11t8 -5q12 0 166 9t174 9q3 0 12 7.5t9 9.5q3 4 145 403q22 65 0 101
q-45 57 -117 57z" />
    <glyph glyph-name=".notdef" horiz-adv-x="1024" 
d="M0 0v1434h1024v-1434h-1024zM512 809l348 522h-696zM573 717l349 -522v1044zM164 102h696l-348 523zM102 1239v-1044l349 522z" />
    <glyph glyph-name=".null" horiz-adv-x="0" 
 />
    <glyph glyph-name="nonmarkingreturn" horiz-adv-x="682" 
 />
    <glyph glyph-name="space" unicode=" " horiz-adv-x="407" 
 />
    <glyph glyph-name="exclam" unicode="!" horiz-adv-x="571" 
d="M559 1255q34 0 51.5 -33t17 -78.5t-15.5 -86.5q-20 -64 -132 -332t-132 -305q-6 -15 -19.5 -26t-25.5 -11t-17.5 14t-2.5 33q10 67 57.5 310t73.5 352q21 84 62 123.5t83 39.5zM244 209q50 0 77 -28.5t27 -80.5q0 -58 -38 -93.5t-87 -35.5q-50 0 -76 30t-26 73
q0 58 39 96.5t84 38.5z" />
    <glyph glyph-name="quotedbl" unicode="&#x22;" horiz-adv-x="598" 
d="M492 1436q26 0 14 -52q-13 -60 -70.5 -174t-107.5 -186q-11 -14 -32 -28.5t-38 -14.5q-9 0 -9.5 16t5.5 31q88 252 98 328q6 19 23 30q81 50 117 50zM788 1436q10 0 14 -15.5t1 -36.5q-13 -61 -73 -180t-109 -186q-11 -15 -31 -29t-37 -14q-9 0 -9.5 15t5.5 30
q84 245 96 336q0 12 19 28q23 18 61.5 35t62.5 17z" />
    <glyph glyph-name="numbersign" unicode="#" horiz-adv-x="997" 
d="M1018 874q-1 -3 -6.5 -14t-9 -17.5t-8.5 -15t-9.5 -12.5t-9.5 -4l-150 -6q-3 0 -10 -7.5t-10 -13.5l-92 -217q-2 -5 0 -9t8 -3l164 6q7 0 7.5 -20t-3.5 -29q-9 -24 -24.5 -49t-30.5 -25l-158 -6q-5 0 -11 -3t-9 -6.5t-3 -4.5l-145 -355q-4 -12 -19 -20t-32 -8
q-10 0 -17.5 5.5t-3.5 16.5l139 355q3 7 -1.5 10.5t-10.5 3.5l-196 -4q-3 0 -13 -6.5t-10 -9.5l-151 -359q-4 -10 -23 -16t-29 -6t-16 9.5t-4 16.5l141 348q4 6 2 13.5t-12 7.5l-143 -4q-4 0 -7.5 14.5t-1.5 18.5q11 33 27.5 59.5t28.5 26.5l151 8q16 0 21 14l86 215
q3 8 -0.5 15t-10.5 6l-161 -7q0 43 6 66q3 11 20.5 32.5t26.5 22.5l156 6q20 0 24 13l127 321q3 9 24 17t40 8q6 0 12.5 -8.5t3.5 -12.5l-129 -323q-1 -4 0.5 -8.5t3.5 -4.5l199 7q19 0 26 18l140 328q10 20 61 20q2 0 5 -3t5 -9t-2 -16l-127 -316q-9 -18 4 -18l154 2
q5 -38 -4 -54zM725 780q2 7 2.5 12t-1.5 7.5t-7 1.5l-205 -6q-6 0 -11 -5.5t-7 -11.5l-90 -217q-2 -4 1.5 -10.5t8.5 -5.5l194 6q19 0 27 18z" />
    <glyph glyph-name="dollar" unicode="$" horiz-adv-x="997" 
d="M745 1286l46 127q6 12 24 12q33 0 33 -18l-41 -123q-3 -12 8 -16q113 -47 125 -54q21 -14 43 -10q10 0 30 5t25 5q6 0 11.5 -13.5t1.5 -20.5q-77 -154 -88 -224q-4 -23 -14 -35t-19 -12q-28 0 -21 60q11 84 -13 141t-97 96q-3 2 -9.5 0t-7.5 -6l-147 -469q-3 -13 8 -24
q234 -186 234 -365q0 -82 -51 -160.5t-140 -124.5q-103 -57 -262 -57q-14 0 -21 -14l-51 -154q-6 -20 -37 -20q-9 0 -15.5 7t-6.5 13l49 160q1 3 -3 8.5t-7 5.5q-45 10 -99 29t-77 35q-22 13 -34.5 12t-35.5 -14q-3 -1 -10 -4t-9.5 -4t-8 -3t-8 -2h-6.5t-7 1t-6 3
q-13 13 -6 39q40 89 94 287q11 49 35 49q23 0 20 -59q-4 -80 8 -136.5t41 -90.5t56 -51t69 -34q17 -6 21 15l153 489q4 11 -6 23q-53 46 -81 73.5t-67.5 75.5t-58 97t-18.5 102q0 157 126.5 255t313.5 83q7 0 14 10zM586 768l135 436l1 2v5.5t-0.5 5.5t-2 4.5t-4.5 1.5
q-109 11 -194 -55.5t-85 -178.5q0 -22 3.5 -42t13.5 -40t16.5 -32.5t24 -32t23.5 -26.5t27.5 -28t24.5 -24q12 -10 17 4zM573 524l-141 -456q-1 -2 -1 -5.5t3.5 -7.5t9.5 -4q84 1 148 40t94.5 95t30.5 117q0 95 -129 227q-3 4 -8 2t-7 -8z" />
    <glyph glyph-name="percent" unicode="%" horiz-adv-x="1476" 
d="M610 1292q88 0 137.5 -70.5t49.5 -164.5q0 -141 -80.5 -274.5t-186.5 -186.5q-65 -35 -137 -35q-84 0 -132 65t-48 146q-2 110 48 228.5t147 209.5q94 82 202 82zM596 1241q-52 0 -119 -84q-55 -73 -93.5 -191.5t-37.5 -232.5q0 -29 4.5 -53t22 -45t45.5 -21q53 0 108 74
q56 73 104 200t48 232q0 52 -20 86.5t-62 34.5zM1309 1294q9 0 19 -8t15 -18q10 -17 0 -27q-459 -555 -1034 -1278q-16 -18 -33 -18q-8 0 -19.5 10t-14.5 20q-3 14 6 23q152 186 321.5 396t389.5 485t313 391q21 24 37 24zM1202 709q88 0 139.5 -72t51.5 -166
q0 -140 -82 -273t-187 -188q-75 -35 -137 -35q-85 0 -132.5 66.5t-47.5 146.5q0 110 48.5 228.5t143.5 208.5q96 84 203 84zM1190 655q-56 0 -121 -82q-54 -73 -92 -193.5t-37 -232.5q0 -46 15.5 -82t54.5 -36q53 0 110 73q55 72 101.5 199.5t46.5 233.5q0 120 -78 120z" />
    <glyph glyph-name="ampersand" unicode="&#x26;" horiz-adv-x="1626" 
d="M571 995q47 0 88 -47t48 -135q0 -2 3 -4.5t7.5 -3t9.5 3.5q97 83 175.5 199t78.5 206q0 50 -45 111q-6 7 -6 22.5t8 28.5q13 19 36.5 32t39.5 13q38 0 64 -40t26 -93q0 -67 -34.5 -144t-94 -151.5t-119 -135.5t-129.5 -122q-60 -54 -140 -112t-167.5 -116t-108.5 -73
q-17 -17 -14 -33q15 -140 112 -234.5t230 -94.5q164 0 295 92q122 91 208.5 236t92.5 262q2 20 -6 43q-2 5 -15 11t-39.5 11.5t-56.5 5.5q-133 0 -133 -110q2 -48 31 -111q9 -22 2 -31q-13 -20 -60 -20q-34 0 -66 26.5t-32 59.5q0 48 24.5 86t86.5 102q116 101 223 101
q140 0 276 -127q29 -33 58 -33q15 0 24 14.5t9 36.5q0 31 -13.5 70t-27.5 61q-16 23 -11.5 33t31.5 10q50 0 83.5 -44.5t33.5 -94.5q0 -36 -14.5 -67t-38.5 -38q-3 -1 -142 -73q-25 -10 -31.5 -9t-17.5 11q-46 52 -98 88q-5 3 -13 -2.5t-8 -12.5q0 -36 -10 -84
q-20 -105 -71.5 -214.5t-110.5 -176.5q-114 -128 -248.5 -192t-249.5 -64q-104 0 -185.5 32t-130 81t-80 114t-43 124t-11.5 118q0 279 190 463q49 47 115.5 91t111.5 44zM291 516q0 -8 4.5 -11t11.5 1q36 20 144 96t120 88q4 3 7 7t5 9t3 8.5t1.5 11.5t0.5 11.5v14v14.5
q-2 38 -28.5 82.5t-67.5 44.5q-56 0 -105 -57t-74.5 -144t-21.5 -176z" />
    <glyph glyph-name="quotesingle" unicode="'" horiz-adv-x="309" 
d="M500 1436q26 0 14 -52q-13 -60 -72.5 -174.5t-111.5 -185.5q-8 -14 -30.5 -28.5t-39.5 -14.5q-10 0 -11.5 16t5.5 31q80 236 92 328q4 18 23 30q25 19 65.5 34.5t65.5 15.5z" />
    <glyph glyph-name="parenleft" unicode="(" horiz-adv-x="724" 
d="M920 1499q18 0 18 -14q0 -16 -35 -43q-309 -246 -448.5 -546t-139.5 -697q0 -178 36 -340t69 -226q8 -19 4.5 -27.5t-12.5 -8.5q-33 0 -66 47q-12 16 -27 40t-40 80.5t-43.5 121t-33 163.5t-14.5 207q0 372 160.5 686t454.5 506q78 51 117 51z" />
    <glyph glyph-name="parenright" unicode=")" horiz-adv-x="724" 
d="M-74 -403q-18 0 -18 18q0 13 35 41q310 244 448.5 543.5t138.5 699.5q0 176 -35.5 339t-68.5 226q-7 12 -7 20t3.5 11.5t9.5 3.5q37 0 68 -45q16 -21 36 -59t50 -112.5t49.5 -191t19.5 -249.5q0 -372 -160 -687t-454 -505q-29 -19 -56 -32t-40 -17t-19 -4z" />
    <glyph glyph-name="asterisk" unicode="*" horiz-adv-x="714" 
d="M817 1151q43 7 43 -18q0 -22 -33 -33q-63 -25 -170 -58q-12 -3 0 -18q25 -25 70 -79.5t55 -65.5q17 -27 17 -45q0 -9 -17 -10.5t-32 7.5q-56 36 -160 140q-13 13 -17 -2q-35 -119 -63 -178q-19 -43 -41 -43q-23 0 -14 57q2 34 18.5 104t18.5 78q2 6 -1.5 8.5t-15.5 -0.5
q-167 -43 -199 -43q-40 -3 -40 19q0 5 9 15.5t23 17.5q34 15 98.5 36t92.5 31q10 3 11.5 6.5t-7.5 14.5q-2 3 -66.5 61t-81.5 88q-14 21 -6.5 33t35.5 2q5 -1 23.5 -12.5t59 -42t87.5 -72.5q18 -14 21 2q13 51 57 168q17 43 39 43q6 0 11.5 -15.5t4.5 -33.5q-4 -37 -24 -172
q-2 -13 1.5 -17.5t16.5 -3.5q113 23 176 31z" />
    <glyph glyph-name="plus" unicode="+" horiz-adv-x="1277" 
d="M608 1022q0 11 31.5 20t56.5 9q15 0 25 -8.5t10 -16.5v-432q0 -19 19 -19l417 -2q5 0 11 -9.5t6 -18.5q0 -34 -9.5 -56t-19.5 -22h-407q-17 0 -17 -18l-6 -447q0 -12 -26.5 -22.5t-65.5 -10.5q-8 0 -16.5 8t-8.5 15v452q0 23 -16 23l-397 2q-26 0 -33.5 5.5t-7.5 27.5
t9 46.5t19 24.5l412 2q14 0 14 15v432z" />
    <glyph glyph-name="comma" unicode="," horiz-adv-x="462" 
d="M147 260q62 0 93.5 -51t31.5 -111q0 -55 -25.5 -106t-62.5 -87.5t-84.5 -67.5t-84.5 -48.5t-70 -28.5q-19 -6 -35 -2t-16 15q0 15 47 41q192 114 192 243q0 33 -22.5 48.5t-59.5 25.5q-9 4 -18.5 14t-9.5 21q0 34 34.5 64t89.5 30z" />
    <glyph glyph-name="hyphen" unicode="-" horiz-adv-x="624" 
d="M133 481q22 4 212 26.5t200 22.5q7 0 13 -9.5t5 -22.5q-4 -30 -22 -61t-43 -34q-49 -8 -210.5 -24.5t-181.5 -16.5q-8 -1 -13 8t-5 17q0 17 17 55t28 39z" />
    <glyph glyph-name="period" unicode="." horiz-adv-x="462" 
d="M150 209q49 0 75.5 -29t26.5 -80q0 -58 -38.5 -93.5t-86.5 -35.5q-52 0 -77 30.5t-25 74.5q0 58 40 95.5t85 37.5z" />
    <glyph glyph-name="slash" unicode="/" horiz-adv-x="692" 
d="M-57 -92q137 243 411.5 713t403.5 698q16 22 37 22q30 0 45 -6q7 -3 10 -11t-2 -17q-93 -166 -205.5 -362.5t-193 -335t-213.5 -367t-199 -342.5q-20 -35 -41 -35t-41 10q-8 3 -12 14.5t0 18.5z" />
    <glyph glyph-name="zero" unicode="0" horiz-adv-x="997" 
d="M725 1292q67 0 119 -24t83.5 -61.5t51.5 -89t27.5 -100.5t7.5 -102q0 -191 -67.5 -396t-178.5 -345q-168 -199 -354 -199q-71 0 -125.5 24t-87 61.5t-53 88.5t-28 98.5t-7.5 98.5q0 197 70.5 402.5t176.5 336.5q76 92 171 149.5t194 57.5zM715 1233q-124 0 -242 -215
q-84 -158 -139 -373t-55 -377q0 -233 133 -233q36 0 70.5 16t61 39t54 62.5t45.5 71t40 81t32.5 76t27.5 72.5q47 133 78 284t31 273q0 63 -12.5 111t-44 80t-80.5 32z" />
    <glyph glyph-name="one" unicode="1" horiz-adv-x="997" 
d="M121 12q0 25 65 33q77 10 104.5 36t57.5 97q7 17 17.5 49t28 90.5t34 114t47.5 158t55 184.5q22 70 56 199t37 157q0 9 -6.5 17t-12.5 8q-23 3 -50.5 9.5t-51.5 9.5q-18 4 -31 10t-12 14q0 22 43 27q19 3 70 8.5t81.5 10t68 13t58.5 19.5q31 16 43 16q7 0 10.5 -11
t0.5 -19l-13 -39t-32.5 -99.5t-40.5 -130.5q-3 -10 -55.5 -192t-94 -331.5t-68.5 -260.5q-27 -87 -11 -116t120 -48q41 -8 41 -25q0 -24 -66 -24q-34 0 -94.5 2t-89.5 2q-62 0 -137 -4t-105 -4q-67 0 -67 20z" />
    <glyph glyph-name="two" unicode="2" horiz-adv-x="997" 
d="M664 1292q125 0 215 -87.5t90 -223.5q0 -38 -9 -76t-19.5 -66.5t-35 -64.5t-39.5 -55.5t-50 -55.5t-48.5 -49t-52.5 -49q-93 -89 -270.5 -230.5t-223.5 -180.5q-9 -8 -6 -15.5t10 -7.5q431 0 492 10q20 3 31 6t32.5 13t42 30t41.5 50q14 21 21 25.5t18 4.5q4 0 6.5 -6.5
t2 -19t-4.5 -27.5q-10 -44 -43.5 -110.5t-56.5 -92.5q-19 -22 -59 -22q-8 0 -228.5 4t-275.5 4q-65 0 -138.5 -1t-74.5 -1q-15 0 -21.5 0.5t-12 5.5t-5.5 14q0 8 12 24t25 28q76 51 202.5 158t231.5 206q65 63 106 105t89 99.5t74.5 105.5t44.5 107.5t18 119.5
q0 93 -58.5 145.5t-130.5 52.5q-157 0 -274 -120q-40 -43 -56 -43t-16 14q3 25 25 57q67 93 166.5 154t212.5 61z" />
    <glyph glyph-name="three" unicode="3" horiz-adv-x="997" 
d="M672 1292q62 0 113 -22t83 -56.5t49 -75t17 -79.5q0 -44 -15 -82.5t-47.5 -72t-56.5 -53t-67 -50.5q-25 -17 -72.5 -43.5t-61.5 -34.5q-21 -11 -2 -16q133 -32 219 -136q58 -66 58 -184q0 -128 -101.5 -243.5t-295.5 -192.5q-137 -53 -273 -53q-89 0 -140.5 37t-51.5 112
q7 34 24 37q11 6 41 -18q97 -82 240 -82q153 0 235 65q142 116 142 307q0 120 -66.5 182t-159.5 62q-45 0 -110 -12q-7 -1 -30.5 -7t-29.5 -6q-10 0 -16 5t-6 12q0 11 11.5 28t29.5 25q1 0 76.5 29t126.5 55q231 122 231 293q0 77 -47 128.5t-129 51.5q-80 0 -147 -57.5
t-95 -128.5q-1 -4 -10 -8t-14 -2q-43 26 -43 69q0 7 14 27t35 37q178 153 342 153z" />
    <glyph glyph-name="four" unicode="4" horiz-adv-x="997" 
d="M575 387q-7 0 -487 -20q-27 0 -37 12t2 31q112 112 315 312.5t351.5 347.5t179.5 179q9 10 41 26.5t49 16.5q7 0 10.5 -12t-0.5 -27q-103 -371 -211 -743q-3 -7 1 -12.5t8 -5.5q27 1 99.5 3.5t94.5 2.5q3 1 6 -1.5t5 -9t2 -16.5q0 -14 -17.5 -41t-25.5 -27q-4 0 -85 -5
t-104 -5q-19 0 -22 -16q-19 -65 -119 -428q-5 -24 -33 -35q-30 -12 -111 -12q-9 0 -22 7.5t-12 14.5q3 12 54 176t79 273q6 14 -11 14zM602 479q18 4 21 19q45 140 101.5 311t76.5 235q4 9 -1 18q-5 8 -14 -3q-57 -59 -184 -188.5t-225 -230.5t-162 -165q-5 -5 -2 -11t12 -5
q67 1 205.5 9.5t171.5 10.5z" />
    <glyph glyph-name="five" unicode="5" horiz-adv-x="997" 
d="M535 1241q61 12 240 31.5t210 19.5q6 0 13.5 -9t7.5 -15q-3 -26 -34 -72.5t-57 -65.5q-12 -11 -49 -18q-45 -4 -360 -4q-5 0 -18 -8t-13 -10q-28 -37 -65 -101t-37 -84q0 -8 10.5 -20.5t26.5 -20.5q21 -11 77.5 -39t101 -52t77.5 -46q104 -69 159.5 -147.5t55.5 -184.5
q0 -181 -183 -332q-79 -66 -208.5 -115.5t-251.5 -49.5q-63 0 -117.5 33t-57.5 104q0 21 13 37q5 7 17 8.5t26 -6.5q50 -33 117 -54.5t129 -21.5q158 0 257 79.5t99 235.5q0 68 -27 126t-78 104t-107 80t-130 67q-51 22 -81.5 46.5t-37 37t-6.5 21.5q0 25 33 98
q32 72 82.5 157.5t97.5 139.5q17 21 39 36t29 15z" />
    <glyph glyph-name="six" unicode="6" horiz-adv-x="997" 
d="M707 844q72 0 128.5 -46t83.5 -111.5t27 -133.5q0 -142 -59 -263.5t-156 -205.5q-134 -113 -289 -113q-130 0 -218.5 92.5t-88.5 276.5q0 156 81 327.5t222 323.5t316 258q107 67 202 105.5t148 38.5q21 0 31 -8.5t10 -16.5v-2t-0.5 -2l-1 -2t-2 -1.5t-2.5 -1.5t-3.5 -2
t-4.5 -1.5t-6 -2.5t-7 -3q-206 -86 -367.5 -225t-269.5 -308q-4 -6 0.5 -11t12.5 -3q135 41 213 41zM588 774q-98 0 -164 -80q-50 -63 -90.5 -180t-40.5 -240q0 -126 40.5 -187.5t112.5 -61.5q104 0 187 112q65 86 105 199.5t40 216.5q0 100 -51.5 160.5t-138.5 60.5z" />
    <glyph glyph-name="seven" unicode="7" horiz-adv-x="997" 
d="M700 1268q146 0 284 3t159 3q24 0 24 -17q0 -34 -63 -118q-374 -500 -862 -1205q-21 -34 -43 -34q-13 0 -24 12t-11 31q0 21 55 90q426 569 770 1061q5 9 2 14.5t-10 5.5q-36 4 -274 4q-183 0 -275 -6q-15 -1 -29 -4.5t-24 -7t-22.5 -14t-18 -14.5t-18 -19.5t-15.5 -19
t-17 -24t-16 -22.5q-25 -35 -45 -35q-27 0 -12 49q4 14 71.5 121.5t88.5 134.5q17 17 33 17q3 0 100 -3t192 -3z" />
    <glyph glyph-name="eight" unicode="8" horiz-adv-x="997" 
d="M727 1319q129 0 205 -80.5t76 -187.5q0 -110 -107 -201q-85 -72 -227 -160q-7 -7 0 -14q103 -116 133 -161q65 -94 65 -181q0 -168 -170 -279q-129 -80 -292 -80q-136 0 -226 76t-90 182q0 44 11.5 80.5t36.5 67t46 50t58 48.5q31 24 67.5 49t92.5 61.5t67 43.5
q2 2 3.5 8.5t0.5 9.5q-72 78 -115 152.5t-43 157.5q0 78 42 152t118 128q115 78 248 78zM678 1257q-88 0 -152.5 -60t-64.5 -175q0 -82 45 -152.5t117 -140.5q13 -8 22 -2q223 162 223 313q0 98 -53 157.5t-137 59.5zM479 41q107 0 171.5 65t64.5 162q0 68 -43.5 142.5
t-139.5 175.5q-16 16 -28 8q-128 -87 -195 -164.5t-67 -161.5q0 -106 69 -166.5t168 -60.5z" />
    <glyph glyph-name="nine" unicode="9" horiz-adv-x="997" 
d="M711 1292q76 0 135.5 -32t93.5 -84t51 -113t17 -125q0 -139 -61 -294t-161 -290q-59 -77 -136 -151t-150 -126.5t-124 -85.5t-87 -52q-93 -52 -142 -52q-30 0 -30 13q-3 9 16 20q151 80 310 234t249 309q3 3 1 10t-11 6q-55 -17 -125 -29t-98 -12q-98 0 -173 82.5
t-75 235.5q0 88 44.5 189.5t121.5 178.5q80 82 167.5 125t166.5 43zM696 1235q-36 0 -87 -28.5t-107 -96.5q-58 -68 -91.5 -167t-33.5 -193q0 -115 55.5 -176.5t136.5 -61.5q125 0 185 92q33 55 67.5 180.5t34.5 223.5q0 227 -160 227z" />
    <glyph glyph-name="colon" unicode=":" horiz-adv-x="542" 
d="M354 791q49 0 76 -29t27 -80q0 -57 -38.5 -92t-84.5 -35q-51 0 -76 29t-25 73q0 58 38.5 96t82.5 38zM186 207q49 0 77 -29t28 -80q0 -57 -38.5 -92t-86.5 -35q-50 0 -75 29t-25 74q0 57 38.5 95t81.5 38z" />
    <glyph glyph-name="semicolon" unicode=";" horiz-adv-x="542" 
d="M354 791q49 0 76 -29t27 -80q0 -57 -38.5 -92t-84.5 -35q-51 0 -76 29t-25 73q0 58 38.5 96t82.5 38zM186 260q63 0 95 -50.5t32 -111.5q0 -55 -25.5 -106t-62.5 -87.5t-85 -67.5t-85.5 -48.5t-70.5 -28.5q-19 -6 -34.5 -2t-15.5 15q0 15 48 41q192 114 192 243
q0 33 -22.5 48.5t-59.5 25.5q-9 4 -19 14t-10 21q0 34 35 64t88 30z" />
    <glyph glyph-name="less" unicode="&#x3c;" horiz-adv-x="1220" 
d="M1032 164q4 -6 3.5 -19.5t-11 -36t-27.5 -38.5q-8 -9 -15 -9t-24 9l-665 372q-54 30 -70 42.5t-16 23.5q0 12 14 33q22 31 64 53l669 377q25 8 35 -2q14 -14 25 -30t17 -34.5t-9 -25.5l-631 -342q-4 -2 -5.5 -10t3.5 -13z" />
    <glyph glyph-name="equal" unicode="=" horiz-adv-x="1277" 
d="M1153 764q19 0 25 -5.5t6 -19.5q0 -34 -9.5 -58t-19.5 -24h-960q-26 0 -33.5 5t-7.5 26q0 22 9 49t19 27h971zM1153 385q19 0 25 -5.5t6 -19.5q0 -35 -9.5 -58t-19.5 -23h-960q-27 0 -34 4t-7 24q0 23 9 50.5t19 27.5h971z" />
    <glyph glyph-name="greater" unicode="&#x3e;" horiz-adv-x="1220" 
d="M1079 526q0 -11 -14 -32q-23 -33 -64 -54l-661 -372q-19 -11 -25 -11.5t-14 6.5q-14 13 -26.5 30.5t-18 36t9.5 26.5q279 154 629 342q19 10 4 20q-489 267 -643 352q-4 6 -3 21t11.5 39t26.5 41q13 8 16 7t23 -11q291 -163 667 -377q53 -31 67.5 -42.5t14.5 -21.5z" />
    <glyph glyph-name="question" unicode="?" horiz-adv-x="741" 
d="M547 1268q81 0 170 -72q36 -28 64 -88t28 -123q0 -60 -35.5 -113.5t-77.5 -74.5q-57 -41 -213 -133q-67 -41 -71 -115q-2 -56 61 -164q2 -4 -0.5 -10t-10 -9.5t-22.5 1.5q-18 6 -39.5 20.5t-50.5 42.5t-47.5 76t-17.5 106q3 88 61 146q54 56 252 149q127 60 127 142
q0 51 -28.5 88t-100.5 37q-57 0 -86 -60q-14 -25 -27.5 -34t-40.5 -9q-30 0 -49.5 19.5t-19.5 56.5q0 51 51.5 86t122.5 35zM322 209q50 0 77 -28.5t27 -80.5q0 -58 -38.5 -93.5t-86.5 -35.5q-52 0 -77 29.5t-25 73.5q0 58 39 96.5t84 38.5z" />
    <glyph glyph-name="at" unicode="@" horiz-adv-x="1789" 
d="M680 190q0 -45 29 -45q65 0 176 103q74 64 148.5 177t115.5 200q4 16 -6 26q-35 35 -101 35q-86 0 -180 -108q-70 -80 -126 -191.5t-56 -196.5zM520 117q-2 58 45.5 158t145.5 221q91 107 208.5 197.5t180.5 90.5q13 0 40.5 -10.5t45.5 -23.5q10 0 12 2q25 53 39 92
q5 10 20 10q20 1 45.5 -6.5t36.5 -18.5q4 -4 4 -14q-47 -112 -123.5 -319t-95.5 -299q-8 -44 8 -65t64 -21q73 0 146.5 33t135.5 92.5t101 152.5t39 203q0 164 -78 286t-210.5 184t-301.5 62q-139 0 -262.5 -49t-213 -131t-155.5 -188t-98.5 -222t-32.5 -231
q0 -94 21.5 -183t70.5 -171.5t120.5 -144t178.5 -98t238 -36.5q290 0 502 199q5 5 14 9t17 2t8 -11q0 -33 -37 -70q-97 -105 -246 -161t-297 -56q-111 0 -213.5 25.5t-195.5 81.5t-162 138.5t-109.5 204.5t-40.5 271q0 182 76 349t200 285t287.5 187.5t333.5 69.5
q133 0 245 -32.5t190 -88.5t132.5 -132.5t80.5 -164t26 -182.5q0 -108 -47.5 -211t-127 -181t-191 -125.5t-232.5 -47.5q-66 0 -99.5 23.5t-33.5 49.5q-2 15 14 62l49 141q3 9 -6 9q-7 -1 -12 -7q-115 -120 -233.5 -199t-202.5 -79q-26 0 -45 26.5t-19 61.5z" />
    <glyph glyph-name="A" unicode="A" horiz-adv-x="1302" 
d="M1282 1362q27 0 4 -66q-53 -133 -69 -200q-16 -70 -61.5 -259.5t-81.5 -346.5t-52 -252q-16 -71 -13 -111t30 -57.5t98 -26.5q39 -7 39 -27q0 -22 -62 -22q-34 0 -82.5 3t-87.5 3q-90 0 -174 -7t-111 -7q-17 0 -31.5 6.5t-13.5 13.5q0 9 12.5 17.5t28.5 11.5
q39 5 68 15.5t45.5 21t29.5 31.5t18.5 35t14.5 42q66 215 91 338q2 7 -4.5 16t-14.5 9q-28 0 -142.5 -7.5t-148.5 -11.5q-14 -2 -42.5 -19t-49.5 -38t-87 -105.5t-116 -156.5q-89 -137 58 -166q14 -6 14 -12q0 -10 -13.5 -20.5t-25.5 -10.5q-42 0 -107 2t-116 2
q-24 0 -106 -4t-91 -4q-57 0 -57 28q0 8 15 15t36 8q87 1 140.5 28t121.5 101q136 146 327.5 374.5t342.5 415.5t158 195q37 42 61 76q8 16 12 16q27 4 41.5 7.5t38 12t42.5 25.5t36 43q6 9 18 17t19 8zM647 594q22 0 123.5 5.5t144.5 10.5q24 5 37 37q16 40 49 185.5
t39 185.5q4 25 5.5 37.5t2 20.5t-1 9.5t-4.5 1.5q-13 0 -47 -36q-70 -76 -354 -439q-4 -7 -2.5 -11t4 -5.5t4.5 -1.5z" />
    <glyph glyph-name="B" unicode="B" horiz-adv-x="1189" 
d="M1167 1079q0 -125 -94 -210t-258 -128q-6 -2 -8 -10.5t6 -13.5q129 -60 172 -99q98 -90 98 -233q0 -105 -60 -189t-146 -128q-61 -34 -169 -55t-214 -21q-61 0 -155 4t-132 4q-6 0 -91 -5t-126 -5q-23 0 -38 6.5t-15 15.5q0 21 61 29q104 10 140 44.5t79 160.5
q28 80 141 456.5t131 450.5q14 49 9.5 79.5t-33.5 31.5q-8 1 -109 6q-49 3 -49 26t53 23q8 0 93.5 1t134.5 1q4 0 76.5 8t123.5 8q184 0 271 -55q48 -32 78 -85.5t30 -117.5zM995 1065q0 38 -14 74t-42.5 69t-80 53.5t-119.5 20.5q-27 0 -38.5 -15t-34.5 -85
q-105 -337 -121 -406q-1 -6 6 -13t14 -7q164 0 234 32q76 32 136 107t60 170zM899 389q0 64 -26.5 132t-65.5 100q-98 88 -258 88q-21 0 -39 -45q-27 -63 -71 -213t-70 -263q-9 -35 3.5 -64t35.5 -44q20 -11 71 -24t66 -13q69 0 143 37t125 94q86 99 86 215z" />
    <glyph glyph-name="C" unicode="C" horiz-adv-x="1347" 
d="M172 489q0 173 75.5 337.5t207.5 289.5q121 117 275 178.5t314 61.5q149 0 283 -56q29 -12 43 -12.5t41 12.5q37 20 45 15q5 -7 8.5 -21.5t-0.5 -27.5q-95 -149 -121 -279q0 -14 -16 -14q-12 0 -22.5 20.5t-8.5 32.5q12 62 3.5 109t-42.5 84q-40 40 -95 62t-101 22
q-107 0 -227.5 -54t-229.5 -162q-113 -114 -176 -287.5t-63 -332.5q0 -183 81 -291q58 -76 135.5 -112.5t145.5 -36.5q60 0 139.5 29.5t120.5 60.5q2 2 26 23t33.5 29t32 29t36 34.5t31 32.5t30.5 36q12 12 18 12q8 0 8.5 -22.5t-4.5 -44.5q-12 -39 -77 -141.5t-83 -118.5
q-6 -6 -19.5 -11.5t-17.5 -1.5q-52 42 -104 31q-3 -1 -56.5 -13t-101 -19t-88.5 -7q-75 0 -152.5 25t-155.5 86.5t-122 150.5q-49 98 -49 262z" />
    <glyph glyph-name="D" unicode="D" horiz-adv-x="1495" 
d="M803 1327q277 0 442 -129q205 -156 205 -442q0 -107 -31.5 -208t-85 -180.5t-116.5 -141t-134 -105.5q-121 -73 -259.5 -102t-311.5 -29q-57 0 -142.5 5t-125.5 5q-47 0 -140 -4t-108 -4q-70 0 -70 26q0 10 17.5 17.5t40.5 9.5q41 3 62 5.5t47 10t40 18.5t30 31.5t28 50
t24 72.5q121 416 268 897q36 118 -37 127q-91 11 -110 11q-23 2 -41.5 9t-18.5 17t20.5 17.5t47.5 7.5q19 0 77 -1t87 -1q25 0 134.5 5t160.5 5zM786 1272q-20 0 -55 -10q-17 -4 -35 -37q-45 -88 -184 -551q-75 -258 -98 -351.5t-23 -148.5q-4 -77 43 -98q79 -35 133 -35
q98 0 212.5 41t197.5 100q125 87 204 261.5t79 344.5q0 117 -41 224t-121 170q-54 44 -139.5 67t-172.5 23z" />
    <glyph glyph-name="E" unicode="E" horiz-adv-x="1226" 
d="M553 690l231 8q56 2 89.5 7.5t58.5 21.5t37.5 30t36.5 48q23 33 45 33q8 0 10 -12t-1.5 -30t-12.5 -34q-62 -113 -97 -266q-11 -41 -30 -41q-11 0 -18.5 14t-6.5 45q4 65 -18 86t-62 21l-264 -7q-58 0 -70 -39q-17 -49 -34 -111t-36 -137t-28 -108q-21 -82 4 -119
q15 -22 28.5 -30t39.5 -9q147 -10 299 -10q86 0 141 37q96 47 174 158q13 19 17 25t11.5 14.5t12.5 11t12 2.5q20 0 8 -55q-12 -50 -41 -111t-55 -90q-39 -42 -57 -45q-54 -12 -92 -12q-45 0 -318 7t-334 7q-65 0 -150.5 -6t-109.5 -6q-26 0 -42.5 7.5t-16.5 18.5
q0 10 17 18t46 11q61 5 99 15.5t61 33t33.5 45t24.5 66.5q40 119 149.5 466t138.5 433q11 33 15 52.5t2 42t-16.5 36t-44 24.5t-77.5 17q-53 4 -53 29q0 20 66 20q19 0 99.5 -3t139.5 -3h191q242 0 331 3.5t138 16.5q4 1 7.5 -5.5t5.5 -14.5t1 -12q-29 -52 -57 -129.5
t-31 -106.5q0 -5 -5 -10.5t-11 -5.5q-12 0 -27 16.5t-16 42.5q-6 86 -15 104q-9 20 -32 29q-22 10 -68.5 12.5t-187.5 2.5q-61 0 -90 -9t-48 -34q-10 -14 -27.5 -58.5t-40 -113.5t-38.5 -119t-39 -124.5t-25 -82.5q-3 -7 6 -18t17 -11z" />
    <glyph glyph-name="F" unicode="F" horiz-adv-x="1097" 
d="M602 1317h166q432 0 492 24q9 3 14 -2t7 -17t-3 -19q-22 -30 -53 -113t-39 -119q-3 -19 -7 -24t-14 -5q-7 0 -15 6t-15 23.5t-7 42.5q1 83 -39 115.5t-139 32.5q-186 0 -217 -7q-15 -2 -23 -6.5t-20 -24t-26 -57.5q-22 -61 -69.5 -220t-59.5 -212q-3 -13 2 -24.5
t16 -14.5q38 -10 98 -10q105 0 158 6q41 6 74.5 22t66.5 58q17 26 27 33.5t22 7.5q4 0 7 -6t1.5 -19.5t-8.5 -31.5q-51 -117 -86 -273q-4 -26 -13.5 -38.5t-18.5 -12.5q-23 0 -23 51q-1 42 -7.5 68.5t-17 37.5t-19 14.5t-21.5 4.5q-50 4 -111 4q-147 0 -170 -4
q-17 -3 -31 -39q-3 -11 -22 -76t-38.5 -135t-29.5 -118q-12 -51 -14 -84.5t3 -54t25 -32t40.5 -16.5t60.5 -10q49 -12 49 -27q0 -24 -61 -24q-31 0 -105 4t-117 4q-42 0 -141.5 -7t-138.5 -7q-22 0 -35.5 8t-13.5 16t14 16t39 11q46 5 77 14t50 20.5t33 33.5t22 43t20 60
q4 15 7 23q46 142 147.5 472.5t122.5 404.5q30 90 10 124.5t-129 43.5q-24 2 -41 9.5t-18 17.5q0 11 17.5 17.5t45.5 6.5q45 0 113 -5t129 -5z" />
    <glyph glyph-name="G" unicode="G" horiz-adv-x="1427" 
d="M1087 1356q139 0 259 -35q42 -8 98 0q9 2 24.5 7t20.5 5q7 0 11.5 -15.5t-3.5 -25.5q-42 -53 -81 -130t-58 -144q-13 -51 -29 -51q-27 0 -24 65q1 16 4 47.5t3.5 47.5t-1.5 36t-8 33q-25 47 -89 78t-153 31q-242 0 -451 -228q-108 -118 -173.5 -287t-65.5 -321
q0 -95 22.5 -174.5t68.5 -143t124.5 -99.5t181.5 -36q36 0 57.5 8t48.5 29q22 16 33 35q55 85 119 311q12 41 11 71t-31 47.5t-93 21.5q-71 9 -71 30q0 13 22 20t49 7q14 0 81 -3t122 -3q63 0 136.5 8t86.5 8q52 0 52 -22q-2 -21 -56 -31q-38 -8 -60 -22t-31.5 -28
t-26.5 -48q-54 -121 -74 -195q-35 -132 -39 -188q-1 -7 -20.5 -22.5t-32.5 -20.5q-19 -5 -88.5 -25.5t-128.5 -32.5t-113 -12q-122 0 -218 32.5t-156 84t-99 122t-54.5 141t-15.5 146.5q0 79 22 173t81 212.5t147 210.5q125 133 292.5 204t366.5 71z" />
    <glyph glyph-name="H" unicode="H" horiz-adv-x="1587" 
d="M332 1303q0 22 61 22q32 0 105 -4t118 -4q75 0 145 4t75 4q53 0 53 -20q0 -13 -19 -22t-45 -11q-40 -3 -67.5 -13t-43.5 -28t-25.5 -36t-20.5 -45q-2 -7 -4 -11q-25 -64 -64 -182t-51 -175q-14 -64 2 -69q27 -4 174 -4q313 -4 479 6q30 3 39.5 11.5t24.5 47.5
q15 42 50.5 163t53.5 196t-3.5 105.5t-96.5 39.5q-47 4 -47 25q0 22 59 22q19 0 97.5 -4t123.5 -4q44 0 120 4t104 4q19 0 34 -6.5t15 -15.5q-3 -21 -62 -29q-69 -7 -104 -41.5t-64 -106.5q-64 -156 -159 -476t-117 -427q-22 -96 -5 -133t101 -47q28 -5 38.5 -11t10.5 -18
q0 -22 -53 -22q-37 0 -130.5 4t-129.5 4q-47 0 -115 -4t-90 -4q-55 0 -55 22q4 22 57 27t86.5 24t48 41.5t33.5 65.5q47 114 143 438q0 3 -5.5 11t-8.5 8q-161 3 -668 -8q-20 0 -49 -70q-20 -47 -54.5 -163.5t-45.5 -182.5q-15 -86 5 -118.5t99 -45.5q54 -7 54 -31
q0 -10 -17 -17t-47 -7q-15 0 -98.5 7t-132.5 7q-47 0 -102 -3t-92 -6t-40 -3q-27 0 -42 8t-15 18q0 9 13.5 17.5t41.5 11.5q83 7 119.5 39.5t71.5 128.5q30 77 146 457t140 471q21 67 2 97t-104 40q-51 7 -51 27z" />
    <glyph glyph-name="I" unicode="I" horiz-adv-x="700" 
d="M326 1298q0 9 14.5 16t42.5 7q39 0 94 -2t88 -2q64 0 147 3t103 3q53 0 53 -18q0 -24 -61 -35q-80 -13 -104.5 -36t-57.5 -108q-33 -83 -135.5 -448t-122.5 -465q-12 -49 -13.5 -78t10.5 -47t31 -26t56 -15q24 -4 36.5 -13t12.5 -18q0 -22 -59 -22q-39 0 -93 3t-87 3
q-46 0 -140.5 -5t-124.5 -5q-57 0 -57 22q0 8 15.5 17t37.5 12q89 12 124.5 45.5t72.5 136.5q29 76 126.5 414.5t125.5 458.5q23 95 8 129t-84 43q-57 9 -59 30z" />
    <glyph glyph-name="J" unicode="J" horiz-adv-x="700" 
d="M-139 -424q-109 0 -146 47q-26 30 -26 82q0 27 8 46t16.5 25.5t14.5 6.5q8 0 19 -4t20 -8.5t22.5 -14t20.5 -14.5t22 -16.5t18 -14.5q67 -49 119 -49q38 0 71 40t79.5 159.5t113.5 343.5q191 653 246 882q26 93 6.5 134.5t-108.5 48.5q-28 3 -44 12t-16 21q0 8 15.5 14
t40.5 6q33 0 106 -3t109 -3q66 0 139.5 3t97.5 3q56 0 56 -20q0 -7 -4 -12t-14 -9t-16.5 -5.5t-21.5 -4.5q-76 -14 -99.5 -40t-55.5 -122q-45 -129 -246 -848q-46 -176 -107 -319q-38 -92 -97 -165.5t-123 -115.5t-124.5 -64t-111.5 -22z" />
    <glyph glyph-name="K" unicode="K" horiz-adv-x="1372" 
d="M342 1300q0 21 59 21q39 0 96.5 -2t108.5 -2q46 0 115 3t100 3q56 0 56 -20q0 -21 -56 -31q-72 -12 -108 -41.5t-58 -95.5q-105 -319 -129 -400q-3 -11 2 -18.5t13 -7.5q20 0 61.5 10.5t54.5 19.5q102 63 259 193.5t249 222.5q33 34 38 56.5t-12 34t-56 20.5
q-14 5 -24.5 14t-10.5 18q0 19 61 19q15 0 49.5 -1t53.5 -1q74 0 165.5 6t131.5 6q55 0 55 -20q0 -22 -62 -31q-55 -7 -100 -22t-93.5 -45.5t-76 -51.5t-88.5 -70q-60 -50 -229.5 -183t-204.5 -161q-1 -1 -6.5 -6t-9.5 -9t-7.5 -9.5t-3.5 -9.5q0 -6 15 -50.5t24 -64.5
q149 -333 238 -447q46 -51 95.5 -79.5t117.5 -28.5q61 0 61 -27q0 -12 -24 -19t-54 -7q-47 0 -124.5 5t-125.5 5q-38 0 -51 8q-29 19 -50 49t-58 107q-77 150 -201 438q-32 66 -70 66q-11 0 -18.5 -9.5t-17.5 -38.5q-67 -206 -111 -399q-18 -78 5.5 -115t98.5 -55
q37 -9 48.5 -16.5t11.5 -20.5q0 -9 -16.5 -14.5t-39.5 -5.5q-16 0 -112.5 5t-132.5 5q-28 0 -115 -5t-109 -5q-26 0 -43.5 7t-17.5 17q0 13 13 18.5t48 12.5q72 15 110 49t65 105q36 89 135 419.5t139 477.5q9 33 12 44.5t8 34.5t4 29.5t-3 20t-9 17.5t-18 11t-26.5 9.5
t-37.5 5.5q-57 10 -57 32z" />
    <glyph glyph-name="L" unicode="L" horiz-adv-x="1255" 
d="M575 47q272 0 322 19q118 51 213 227q20 37 30 49t23 12q6 0 8.5 -8t1.5 -21t-4 -27t-8 -28q-14 -41 -62.5 -135.5t-54.5 -109.5q-5 -11 -17.5 -21.5t-22.5 -11.5q-40 -10 -207 -10q-55 0 -285 9t-301 9q-44 0 -124 -5t-101 -5q-64 0 -64 24q0 13 15 18.5t49 8.5
q88 9 133 39.5t74 105.5q52 135 153.5 445t140.5 438q17 53 24 84.5t8 54t-11.5 33.5t-28.5 17t-49 12q-32 6 -45.5 14t-13.5 21q0 20 57 20q20 0 79 -4t91 -4q16 0 129 5t166 5q55 0 55 -22q0 -8 -16.5 -17t-38.5 -12q-95 -9 -135.5 -40t-71.5 -108q-42 -104 -165.5 -478.5
t-149.5 -479.5q-3 -18 5 -48t34 -46q53 -29 165 -29z" />
    <glyph glyph-name="M" unicode="M" horiz-adv-x="1808" 
d="M326 1303q0 24 63 24q10 0 93.5 -5t125.5 -5q17 0 51 2t37 2q24 0 31 -53q7 -71 39 -285.5t53 -335.5q10 -53 19.5 -107.5t14 -79.5t9 -49.5t8 -35.5t7.5 -19q11 -21 24 2q96 132 284 378.5t245 307.5q109 114 184 252q16 21 31 21q51 0 148 5t128 5q55 0 55 -20
q0 -14 -19.5 -21t-62.5 -12q-41 -4 -69.5 -15.5t-47.5 -35.5t-28 -42t-23 -55q-64 -177 -138 -458t-105 -441q-19 -95 2 -135t102 -49q38 -6 50 -12.5t12 -18.5q0 -10 -17.5 -17t-42.5 -7q-17 0 -129.5 6t-161.5 6q-38 0 -92 -6t-84 -6q-55 0 -55 22q0 12 12 19.5t45 13.5
q72 11 104 46.5t54 103.5q44 130 264 868q7 21 -3 21.5t-17 -9.5q-96 -103 -276 -340.5t-257 -357.5q-145 -222 -182 -291q-37 -66 -63 -66q-25 0 -25 70q-9 139 -39 358q-12 80 -32 232t-32 231t-18 97q-12 31 -27 8t-129 -319t-133 -369q-14 -50 -21.5 -82.5t-11 -65.5
t2 -53.5t18.5 -37.5t37.5 -26.5t60.5 -13.5q52 -3 52 -29q0 -11 -17 -17.5t-45 -6.5q-16 0 -82 3t-114 3q-50 0 -128 -6t-106 -6q-24 0 -39.5 8t-15.5 16q0 21 59 29q103 12 146 53.5t96 177.5q48 118 184 453.5t143 353.5q32 92 19 128.5t-68 49.5q-26 8 -102 19
q-55 7 -55 27z" />
    <glyph glyph-name="N" unicode="N" horiz-adv-x="1546" 
d="M285 1300q0 23 69 23q28 0 101.5 -3t130.5 -3q64 0 96 4q8 2 22.5 -16t22.5 -45q33 -102 192 -505.5t201 -490.5q4 -10 11 -11.5t10 5.5q65 185 151 484.5t99 373.5q15 85 -8.5 115.5t-120.5 42.5q-62 7 -62 29t57 22q31 0 100.5 -4t96.5 -4q117 0 219 8q19 2 33.5 -1
t20.5 -8.5t6 -10.5q0 -11 -14 -18t-48 -15q-38 -8 -59.5 -16.5t-48.5 -29.5t-49.5 -60.5t-45.5 -102.5q-101 -282 -266 -854q-12 -40 -12 -64q0 -56 67 -98q3 -2 9 -5.5t8.5 -5t6.5 -4t5 -5t2.5 -5.5t1.5 -6q0 -22 -45 -22q-15 0 -54 2t-44 2q-74 0 -98 -4q-9 0 -20.5 9.5
t-12.5 19.5q-10 66 -60 182q-18 45 -130.5 339.5t-166.5 432.5q-8 19 -19 49t-17.5 47.5t-14 33.5t-12.5 21q-5 7 -15 0t-14 -16q-42 -118 -128.5 -426t-104.5 -414q-19 -119 2.5 -164.5t107.5 -62.5q38 -7 51 -14.5t13 -18.5q0 -24 -66 -24q-22 0 -95.5 6t-115.5 6
q-43 0 -122.5 -6t-106.5 -6q-65 0 -65 26q0 22 57 29q93 13 144.5 48t78.5 120q267 835 277 874q22 85 18 107q-7 26 -17.5 40t-37.5 21q-9 2 -113 19q-59 10 -59 28z" />
    <glyph glyph-name="O" unicode="O" horiz-adv-x="1400" 
d="M950 1358q186 0 307 -138.5t121 -365.5q0 -138 -51.5 -291.5t-152.5 -293.5t-230 -216q-158 -94 -332 -94q-202 0 -317 115q-139 139 -139 375q0 122 41 260t128 275.5t203 225.5q192 148 422 148zM950 1300q-149 0 -295 -137q-152 -144 -238.5 -365.5t-86.5 -461.5
q0 -46 7.5 -88.5t27 -85.5t49.5 -74.5t79 -51.5t111 -20q71 0 139.5 33.5t147.5 104.5q110 98 213.5 338.5t103.5 461.5q0 44 -6.5 87.5t-24.5 91.5t-45.5 84t-74.5 59.5t-107 23.5z" />
    <glyph glyph-name="P" unicode="P" horiz-adv-x="1167" 
d="M758 1331q212 0 319 -71q68 -44 100.5 -113t32.5 -139q0 -67 -21 -128.5t-53 -104.5t-74 -79t-78 -57t-71 -35q-58 -24 -122.5 -35.5t-100.5 -11.5q-24 0 -49 7t-25 24q0 13 13 17q3 1 13 2l5 1q81 13 152 41q73 27 126.5 89t77.5 128.5t25 128.5q2 90 -35 161.5
t-106 96.5q-64 25 -164 25q-7 0 -18.5 -8.5t-16.5 -22.5q-45 -104 -133.5 -415t-163.5 -601q-9 -32 -11.5 -57t-2.5 -42.5t9.5 -31t16 -21t27 -15t32 -11t40.5 -10.5q53 -11 53 -33q0 -20 -63 -20q-17 0 -90 5t-113 5q-41 0 -138 -6t-143 -6q-53 0 -53 20q0 23 57 33
q41 5 70 15.5t47 21.5t32.5 35t22 42t21.5 58q15 44 68 220t117 392t89 297q20 82 1.5 109t-85.5 33q-53 6 -72.5 13.5t-19.5 20.5q0 19 51 19h135q191 14 269 14z" />
    <glyph glyph-name="Q" unicode="Q" horiz-adv-x="1386" 
d="M963 1356q90 0 162.5 -30t117.5 -76t76 -105.5t43 -114t12 -104.5q0 -143 -37 -272.5t-103.5 -231.5t-149 -182t-181.5 -142q-118 -73 -237.5 -123.5t-313.5 -119.5q-19 -7 -20 -14q0 -3 8 -3q78 1 151.5 -11t120.5 -25t111.5 -44t88.5 -44.5t87 -51.5
q136 -83 211.5 -115t153.5 -32q100 0 162 24t116 70q32 30 44 15q3 -3 3 -9q0 -16 -28 -51q-65 -84 -161 -129t-206 -45q-70 0 -138 16t-137.5 50.5t-112.5 60t-114 71.5q-63 40 -95 58.5t-93 48t-119.5 42.5t-120.5 13q-152 0 -260 -57q-9 -7 -27 -6t-18 16q-2 9 12 25
t49 34q91 47 182.5 87t194.5 81t113 45q27 13 -2 21q-35 9 -76 29.5t-90.5 60t-89 89t-66 124t-26.5 158.5q0 136 41 267t107 231t138 174.5t144 119.5q69 43 171 75t202 32zM952 1303q-148 0 -282 -119q-144 -129 -241 -363.5t-97 -441.5q0 -164 75.5 -253t176.5 -89
q66 0 141 45q134 82 243 228t169.5 318t60.5 335q0 27 -3.5 57.5t-12.5 71t-27.5 76.5t-44 67t-66.5 49.5t-92 18.5z" />
    <glyph glyph-name="R" unicode="R" horiz-adv-x="1265" 
d="M1194 1061q0 -89 -46.5 -167t-131.5 -136q-9 -7 -23 -14t-33.5 -15t-34.5 -13.5t-42 -16t-41 -15.5q-2 0 -4.5 -5t-4 -12t0.5 -14q20 -103 56.5 -227.5t72.5 -206.5q42 -95 85.5 -134.5t129.5 -49.5q49 -6 49 -27q0 -20 -56 -24q-68 -8 -196 6q-74 6 -108 39.5t-72 150.5
q-26 74 -62 208.5t-45 162.5q-10 33 -32.5 63.5t-49.5 30.5q-22 0 -50.5 -1t-33.5 -1q-11 0 -22 -15t-27 -57q-14 -42 -47 -161.5t-45 -178.5q-12 -55 -13 -86.5t12.5 -53t39 -31t74.5 -17.5t49 -27q0 -10 -18.5 -17t-43.5 -7q-48 0 -132.5 4t-112.5 4q-31 0 -107.5 -4
t-108.5 -4q-57 0 -57 22q0 24 60 31q43 6 72 16t45.5 26t23 27t14.5 31q44 103 307 981q28 80 5 111t-128 31q-19 0 -32 5t-18 10t-5 9q0 25 51 25q16 1 54.5 2t88 2t74.5 2q13 0 93.5 5t119.5 5q217 0 308 -71q98 -76 98 -201zM1022 1049q0 40 -15 78.5t-46.5 73t-89 56
t-134.5 21.5q-11 0 -27.5 -16t-21.5 -29q-35 -78 -95 -275.5t-69 -242.5q-3 -9 -0.5 -17t8.5 -8q123 0 213 23q112 35 194.5 127t82.5 209z" />
    <glyph glyph-name="S" unicode="S" horiz-adv-x="968" 
d="M698 1354q43 0 87.5 -8t60 -12.5t57.5 -18.5q59 -19 64 -19q20 -3 55 4q3 1 6.5 -5t6 -13.5t1.5 -11.5q-66 -129 -86 -256q-5 -41 -24 -41q-11 0 -19.5 19.5t-7.5 47.5q1 31 1 56.5t-8.5 55t-25.5 58.5q-54 93 -174 93q-61 0 -108 -24.5t-71.5 -62.5t-36 -75.5
t-11.5 -71.5q0 -111 76 -213q12 -17 89.5 -112.5t121.5 -151.5q63 -85 82.5 -140.5t19.5 -125.5q0 -95 -49 -175.5t-129 -125.5q-110 -62 -270 -62q-32 0 -72 7t-60.5 12.5t-66 20t-47.5 15.5q-28 6 -42 4t-61 -18q-4 -3 -16.5 3t-15.5 9q-11 11 -5 17q29 59 113 305
q18 51 39 51q23 0 14 -74q-11 -139 27 -190q83 -111 223 -111q97 0 174 64q35 25 55.5 73.5t20.5 94.5q0 84 -39.5 162t-140.5 200q-109 136 -153 215.5t-44 173.5q0 149 111 252q56 52 131 78.5t147 26.5z" />
    <glyph glyph-name="T" unicode="T" horiz-adv-x="1331" 
d="M647 1317h606q174 0 222 22q5 1 12 5t12 4q3 0 8 -6.5t7.5 -16.5t-3.5 -20q-34 -55 -67 -128t-45 -133q0 -13 -6 -20.5t-13 -7.5q-11 0 -19.5 14.5t-8.5 34.5q1 16 2 43t1.5 38t0 30t-4 26.5t-9 19t-15 16t-24 9t-33.5 6.5q-127 13 -260 2q-7 0 -17.5 -11t-15.5 -21
q-39 -99 -152 -481t-141 -504q-26 -104 -5 -138t120 -53q15 -2 33 -11.5t18 -21.5q0 -22 -55 -22q-16 0 -103 4t-119 4q-70 0 -167.5 -6t-147.5 -6q-57 0 -57 24q0 11 16.5 19t34.5 10q52 8 80 15t55 19t44 34t33 53t34 82q51 141 147.5 457t155.5 526q1 9 -4 17.5t-11 8.5
q-157 10 -274 -6q-57 -8 -115 -54t-102 -120q-26 -45 -55 -45q-24 0 -13 37q2 5 45.5 99t63.5 167q2 7 15.5 19t21.5 12t14 -12q5 -9 32 -18.5t68 -12.5q53 -2 160 -2z" />
    <glyph glyph-name="U" unicode="U" horiz-adv-x="1470" 
d="M295 1303q0 20 61 20q35 0 112 -3t105 -3q21 0 96 4t109 4q51 0 51 -22q0 -17 -57 -29q-55 -9 -85.5 -35t-53.5 -86q-43 -112 -176 -594q-71 -263 -17 -362q33 -57 115.5 -96.5t163.5 -39.5q281 0 389 248q59 138 139.5 383t104.5 365q8 40 11.5 66.5t5 48.5t-4.5 35.5
t-13 24t-23.5 17t-34 10.5t-46.5 9q-57 9 -57 28q0 23 55 23q29 0 81 -1t81 -1q37 0 115.5 4t115.5 4q54 0 54 -22q2 -9 -14.5 -18t-43.5 -13q-69 -10 -103.5 -49t-80.5 -156q-27 -69 -78 -212.5t-104 -297.5t-62 -178q-3 -7 -18 -47t-19.5 -49.5t-18 -40.5t-23 -45.5
t-25.5 -36t-33 -39.5q-48 -49 -102.5 -82t-111.5 -48.5t-106 -21.5t-106 -6q-46 0 -93.5 9t-96.5 28.5t-91.5 55t-68.5 83.5q-36 62 -45 138t2 110q12 61 44.5 179t86 300t55.5 189q15 48 21 76t6 56t-11.5 42.5t-35.5 25t-64 15.5q-57 8 -57 33z" />
    <glyph glyph-name="V" unicode="V" horiz-adv-x="1288" 
d="M256 1303q0 18 59 18q12 0 84 -2t115 -2q49 0 128 3t85 3q53 0 53 -20q0 -23 -55 -31q-68 -14 -93.5 -43.5t-45.5 -120.5q-26 -107 -76.5 -394t-65.5 -401q-3 -25 16 -13q2 2 5 4l2 1q174 187 382.5 425t297.5 355q44 61 57.5 98.5t-1 58t-58.5 28.5q-51 11 -51 30
q0 21 51 21q5 0 52.5 -2t96.5 -2q40 0 127 4t113 4q35 0 35 -22q0 -9 -15.5 -17.5t-37.5 -13.5q-88 -17 -142.5 -54.5t-138.5 -136.5q-102 -120 -387.5 -438t-403.5 -457q-152 -186 -157 -192q-32 -37 -43 -37q-14 0 -24 19.5t-3 41.5q1 2 12 50.5t25 111.5t27 125
q48 226 133 787q12 61 8.5 97.5t-31 54.5t-96.5 28q-39 6 -39 31z" />
    <glyph glyph-name="W" unicode="W" horiz-adv-x="1949" 
d="M244 1300q0 23 63 23q34 0 88 -3t88 -3q35 0 110 4t112 4q21 0 35.5 -5.5t13.5 -14.5q0 -23 -45 -31q-60 -9 -83.5 -29.5t-41.5 -83.5q-20 -63 -82 -425.5t-62 -401.5q-1 -9 2.5 -12t9 0t9.5 8q159 176 367 434t245 340q19 32 19 55q3 54 -14 77.5t-83 33.5
q-21 3 -35 11.5t-14 18.5q2 21 58 21q19 0 82.5 -2t99.5 -2q34 0 122.5 4t106.5 4q22 0 37.5 -5.5t15.5 -14.5q0 -24 -53 -35q-79 -16 -107.5 -36t-43.5 -75q-21 -77 -57.5 -449t-28.5 -407q3 -12 5.5 -13t16.5 11q107 108 344.5 408.5t282.5 386.5q24 46 34.5 75.5t11 47
t-11 26.5t-27.5 13.5t-43 8.5q-6 1 -9 1q-49 9 -49 30q1 13 15 18t46 5q8 0 71.5 -2t108.5 -2t114 4t85 4q18 0 35.5 -5t17.5 -15q0 -25 -63 -35q-53 -8 -99.5 -38.5t-75.5 -63t-70 -84.5q-2 -4 -3.5 -5.5t-3.5 -4.5t-4 -5q-94 -123 -309.5 -386.5t-311.5 -377.5
q-97 -114 -231 -295q-40 -45 -60 -45q-11 0 -16.5 14t-3.5 27q32 226 41 313q56 534 61 639q1 6 -5 6q-14 0 -25 -12q-63 -84 -277 -347.5t-293 -356.5q-54 -67 -113.5 -148.5t-72.5 -95.5q-39 -45 -68 -45q-11 0 -14.5 14.5t2.5 36.5q35 130 72 332q58 296 116 745
q15 101 -5 135t-95 48q-55 10 -55 30z" />
    <glyph glyph-name="X" unicode="X" horiz-adv-x="1296" 
d="M266 1303q0 20 70 20q17 0 85.5 -3t113.5 -3q70 0 135.5 4t72.5 4q54 0 54 -22q0 -11 -17 -19.5t-43 -11.5q-58 -7 -74 -27t-10 -69q7 -59 49 -194t64 -189q4 -8 14 0q54 53 181.5 200.5t152.5 194.5q41 67 -80 88q-30 8 -30 24q0 21 57 21q17 0 87 -3t89 -3
q44 0 112.5 5t84.5 5q57 0 57 -20t-51 -31q-91 -14 -145 -44t-138 -120q-18 -19 -100 -102.5t-142.5 -148t-109.5 -122.5q-17 -24 -12 -43q10 -50 68.5 -240.5t88.5 -265.5q30 -70 69.5 -101t121.5 -44q59 -8 59 -29q0 -24 -61 -24q-10 0 -121 5t-162 5q-46 0 -101 -5
t-69 -5q-22 0 -36 5t-17.5 10.5t-3.5 10.5q0 7 14 15t27 12q46 14 72 33t31.5 31.5t4.5 23.5q-4 54 -52.5 230.5t-66.5 216.5q-4 16 -12 8q-52 -49 -149 -170.5t-150 -198.5q-22 -33 -34 -58t-15 -49t12 -39.5t49 -21.5q50 -8 50 -24q0 -7 -19 -19t-33 -12q-38 0 -76.5 3
t-76.5 3q-63 0 -146 -7t-100 -7q-39 0 -59.5 7t-20.5 17q0 11 17.5 20.5t42.5 10.5q97 9 159.5 46t165.5 146q32 35 173.5 202.5t176.5 207.5q6 6 10.5 20.5t2.5 22.5q-11 67 -117 385q-40 114 -57 141q-27 43 -85 55q-16 3 -38 5q-64 7 -64 31z" />
    <glyph glyph-name="Y" unicode="Y" horiz-adv-x="1216" 
d="M240 1303q3 20 59 20q21 0 100 -3t119 -3q56 0 113 2t69 2q46 0 50 -18q0 -22 -50 -31q-68 -14 -84.5 -42t-5.5 -73q5 -20 30 -129.5t46.5 -194t36.5 -118.5q4 -8 16 -4q313 359 371 448q61 94 -41 115q-49 6 -49 31q0 18 59 18q8 0 59.5 -3t100.5 -3q27 0 105.5 4
t91.5 4q51 0 51 -18q0 -21 -62 -35q-81 -16 -121.5 -45t-156.5 -144q-119 -114 -377 -419q-44 -51 -65 -129q-93 -340 -97 -361q-2 -10 -2.5 -21t4 -30t14.5 -34t34 -28t59 -18q63 -8 63 -31q0 -22 -71 -22q-24 0 -126 5t-118 5q-38 0 -114 -5t-115 -5q-58 0 -58 26
q0 19 62 27q37 4 63.5 9.5t47 18t33 24t25.5 36.5t21 46t21 61l88 266q21 62 26 101t-2 73q-19 143 -102 401q-37 117 -66.5 151t-103.5 44q-51 8 -51 29z" />
    <glyph glyph-name="Z" unicode="Z" horiz-adv-x="1316" 
d="M743 1317q121 0 372.5 5t256.5 5q37 0 37 -16q0 -21 -37 -49q-51 -40 -96.5 -83t-142.5 -145q-134 -144 -436 -477.5t-412 -460.5q-9 -9 -13.5 -20.5t4.5 -16.5q38 -6 465 -6q151 0 234 39q57 26 121 87.5t100 123.5q33 53 45 53q9 0 16 -19t0 -40q-15 -45 -94 -195
q-43 -76 -73 -98q-16 -14 -218 -14q-116 0 -383.5 5t-289.5 5t-100.5 -4t-102.5 -4q-10 0 -14.5 7.5t-1 19.5t15.5 24q204 194 624.5 652.5t489.5 547.5q3 6 -2 11.5t-10 5.5q-200 0 -412 -9q-100 -5 -149 -18.5t-84 -48.5q-35 -33 -72.5 -84.5t-52.5 -81.5q-21 -43 -39 -43
q-25 0 -13 61q3 19 21.5 64t44.5 102.5t37 85.5q4 9 19.5 24t25.5 15q5 0 43.5 -5t54.5 -5q46 -2 86 -2t78 1t57 1z" />
    <glyph glyph-name="bracketleft" unicode="[" horiz-adv-x="710" 
d="M600 1456q70 0 162 1t98 1q45 0 45 -20q0 -12 -17 -22t-44 -15q-11 -1 -43.5 -3.5t-75 -6.5t-57.5 -5q-40 -3 -58 -53q-22 -62 -202 -678q-79 -280 -228 -835q-27 -101 15 -111q27 -8 170 -12q8 0 17.5 -1.5t19.5 -8.5t10 -17q0 -11 -20.5 -18.5t-41.5 -9.5
q-56 -7 -174 -7q-96 0 -127 7q-10 3 -14.5 23.5t0.5 37.5l352 1221q116 410 141 489q6 28 25 39q5 4 47 4z" />
    <glyph glyph-name="backslash" unicode="\" horiz-adv-x="790" 
d="M575 -98q0 -3 -6 -10.5t-20 -15t-31 -7.5h-10q-11 0 -16 7.5t-5 14.5q-86 776 -145 1428q0 3 10 10.5t13 7.5l43 4q15 0 24 -14q25 -277 143 -1425z" />
    <glyph glyph-name="bracketright" unicode="]" horiz-adv-x="710" 
d="M207 -362q-69 0 -160.5 -1.5t-95.5 -1.5q-47 0 -47 21q0 12 18.5 22t44.5 13q31 6 174 12q22 1 34 14t22 41q53 150 204 682q145 512 230 834q12 51 7 77t-24 29q-23 7 -170 15q-49 8 -47 28q0 11 20.5 19t41.5 10q48 6 176 6q100 0 125 -6q10 -3 14.5 -23.5t-0.5 -39.5
l-352 -1223q-38 -134 -73.5 -257t-49 -170.5t-16.5 -57.5q-9 -29 -25 -39q-7 -4 -51 -4z" />
    <glyph glyph-name="asciicircum" unicode="^" horiz-adv-x="960" 
d="M551 1315q11 0 20 -5t16.5 -15t12 -17.5t12 -22t9.5 -18.5l303 -596q10 -20 10.5 -25t-6.5 -14q-13 -14 -30.5 -26.5t-35 -18t-24.5 9.5l-277 568q-5 9 -11 11t-11 -7l-283 -576q-5 -4 -16.5 -4.5t-31.5 8.5t-36 25q-10 11 -9.5 17t9.5 24l303 598q42 84 76 84z" />
    <glyph glyph-name="underscore" unicode="_" horiz-adv-x="1013" 
d="M-123 -254h1014v-100h-1014v100z" />
    <glyph glyph-name="grave" unicode="`" 
d="M618 1341q6 0 12.5 -10.5t11.5 -33.5t7 -54q13 -173 13 -287q0 -18 -7 -35.5t-18 -17.5t-22 15.5t-15 29.5q-25 90 -63 269q-6 32 -2 57q3 19 31.5 43t51.5 24z" />
    <glyph glyph-name="a" unicode="a" horiz-adv-x="919" 
d="M621 797q12 0 36.5 -13t44.5 -34q2 -2 8 0.5t9 7.5q4 8 17 29.5t16 27.5q1 4 12 11.5t16 7.5q11 0 36 -9.5t42 -19.5q6 -11 -4 -29q-35 -80 -120 -299.5t-109 -310.5q-14 -55 39 -55q29 0 73.5 29.5t79.5 68.5q31 36 40 17q1 -3 1 -7q0 -25 -18 -51q-57 -92 -139 -146.5
t-152 -54.5q-36 0 -58 21t-24 55q0 10 10.5 40.5t33 87t28.5 73.5q6 12 -3 22q-6 6 -12 0q-43 -46 -94 -92.5t-114 -95.5t-126.5 -80t-111.5 -31q-28 0 -60 25t-32 53q0 86 88 223q85 140 204.5 270.5t245.5 217.5q24 17 55 29t42 12zM588 688q-52 0 -116.5 -41.5
t-121.5 -114.5q-63 -76 -125.5 -198.5t-62.5 -190.5q0 -19 13 -39t28 -20q75 0 207 141q133 136 241 365q21 53 11 63q-16 14 -40 24.5t-34 10.5z" />
    <glyph glyph-name="b" unicode="b" horiz-adv-x="937" 
d="M727 827q70 0 116 -50.5t46 -121.5q0 -94 -54.5 -211.5t-150.5 -226.5t-207 -174q-131 -76 -225 -76q-71 0 -121.5 48t-50.5 143q0 66 98 370q27 88 130.5 392t115.5 340q10 27 12 44.5t-7.5 31t-18 20t-31.5 20.5q-2 1 -6 4t-5.5 4t-5 3.5t-4.5 4.5t-3 4.5t-2.5 5
t-0.5 5.5q0 15 51 27q20 5 120 19.5t114 14.5q3 0 6 -6t3.5 -14t-3.5 -16q-35 -69 -165 -419.5t-179 -498.5q-3 -5 4 -5.5t10 5.5q42 54 86 103t100.5 99.5t116 80.5t111.5 30zM686 760q-44 0 -93.5 -29t-95.5 -79t-84.5 -102t-74.5 -110q-62 -101 -92.5 -185t-30.5 -132
q0 -23 25.5 -60.5t54.5 -37.5q47 0 135 77q109 102 217.5 287.5t108.5 306.5q0 28 -20 46t-50 18z" />
    <glyph glyph-name="c" unicode="c" horiz-adv-x="641" 
d="M561 827q52 0 88 -18q23 -9 23 -41q0 -44 -28.5 -79.5t-47.5 -35.5q-20 0 -31 23q-41 90 -90 90q-35 0 -76.5 -42.5t-81.5 -119.5q-53 -96 -87.5 -207t-34.5 -207q0 -37 8.5 -61t25 -33t28.5 -11.5t30 -2.5q44 0 99 25t106 73q8 6 17 6t9 -6q0 -28 -20 -53
q-64 -75 -143.5 -113.5t-151.5 -38.5t-115 62.5t-43 132.5q0 65 23.5 153t66.5 171q116 219 275 299q33 18 79.5 26t71.5 8z" />
    <glyph glyph-name="d" unicode="d" horiz-adv-x="987" 
d="M25 111q0 99 59 230.5t159.5 252.5t209.5 182q31 18 67 30.5t56 16.5t28 4q22 0 58.5 -16t62.5 -39q4 -2 13 0t10 6q6 19 30.5 97.5t54 177t60.5 213.5q11 48 3.5 65t-40.5 33q-57 23 -57 37q0 5 11.5 15t20.5 11q33 10 119 25.5t119 15.5q9 0 9 -23.5t-9 -60.5
q-16 -57 -45.5 -149.5t-76.5 -238.5t-85 -267q-22 -73 -83.5 -276t-82.5 -277q-17 -59 23 -59q30 0 83.5 43t98.5 104q11 13 18 10.5t7 -16.5q0 -15 -8 -39q-29 -86 -130 -171t-174 -85q-19 0 -41 29t-22 49q0 41 74 274q1 4 -2.5 9.5t-8 7.5t-6.5 0
q-112 -168 -235.5 -266.5t-229.5 -98.5q-60 0 -90 33q-28 35 -28 111zM168 111q0 -22 12.5 -37t26.5 -15q51 0 149 70.5t181 181.5q88 123 141 273q31 85 12 141q-18 35 -53 35q-87 0 -221 -148q-107 -118 -177.5 -262t-70.5 -239z" />
    <glyph glyph-name="e" unicode="e" horiz-adv-x="706" 
d="M565 827q43 0 74 -12.5t46.5 -32.5t22.5 -40t7 -40q0 -48 -43 -104t-115 -96q-91 -51 -299 -111q-26 -8 -33 -31q-26 -72 -26 -159q0 -123 108 -123q49 0 103 27.5t98 68.5q31 31 51 31q4 0 8 -4.5t4 -7.5q0 -20 -24 -52q-52 -60 -144.5 -115t-193.5 -55q-46 0 -102 61.5
t-56 151.5q0 111 62 247.5t163 242.5q75 77 152.5 115t136.5 38zM557 778q-49 0 -113.5 -56.5t-114 -130t-67.5 -130.5q-1 -2 -1 -7t1.5 -9t5.5 -3q324 113 324 285q0 51 -35 51z" />
    <glyph glyph-name="f" unicode="f" horiz-adv-x="520" 
d="M444 807l187 6q7 0 11.5 -10.5t4.5 -16.5q0 -11 -15.5 -28t-33.5 -17q-21 0 -85 -3t-95 -3q-11 0 -17 -16q-47 -148 -260 -909q-12 -41 -26 -76t-31 -61.5t-30 -45.5t-32.5 -37t-29 -26.5t-29.5 -23t-24 -17.5q-53 -37 -125 -63.5t-105 -26.5q-68 0 -106.5 26.5
t-36.5 65.5q0 21 33.5 57.5t54.5 36.5q6 2 16.5 -2.5t16.5 -11.5q61 -80 133 -80q24 0 44 9.5t44 35.5t48 83t46 142q174 645 260 924q2 4 -1 10t-11 6l-125 -4q-10 0 -15.5 7t-5.5 14q0 18 13 33.5t26 15.5q19 0 71 1t65 1q7 0 14 14q156 452 342 576q108 75 201 75
q73 0 113 -38.5t38 -90.5q-1 -60 -35.5 -99.5t-64.5 -39.5q-17 0 -17 21q0 5 1 21t1 22q2 59 -22 102t-64 43q-49 0 -93 -37t-101 -137q-37 -68 -80.5 -183.5t-75.5 -224.5q-1 -5 2.5 -12.5t5.5 -7.5z" />
    <glyph glyph-name="g" unicode="g" horiz-adv-x="792" 
d="M551 829q44 0 108 -28q14 -8 24 -9t34 3q8 1 62 15.5t81 14.5q45 0 45 -57q0 -59 -45 -59q-28 0 -71 10t-70 10q-16 0 -20 -8t-1 -16q11 -40 11 -64q-1 -68 -32 -142.5t-77 -133.5t-99 -104t-98 -62q-21 -9 -137 -33q-7 0 -14 -10q-10 -23 -10 -52q0 -26 19.5 -53
t35.5 -39q31 -22 126 -78.5t116 -70.5q55 -38 86.5 -85.5t31.5 -92.5q0 -28 -30 -73t-72 -71q-184 -110 -385 -110q-137 0 -250 65q-52 29 -81 73t-29 81q0 25 10.5 46.5t35.5 44t37.5 31.5t45.5 31q40 26 121.5 65.5t99.5 49.5q4 2 6.5 5t3 5.5t-1.5 3.5q-51 66 -51 82
q0 31 20 62q10 16 23 30t26 26.5t17 17.5q9 18 2 20q-61 27 -92 62t-31 90q0 68 21.5 134t50.5 111.5t67 88.5t62 63t45 35q113 75 223 75zM526 778q-45 0 -100 -51q-87 -77 -155 -209.5t-68 -214.5q0 -42 23 -66t53 -24q25 0 92 57q60 54 141.5 190.5t81.5 225.5
q0 41 -22 66.5t-46 25.5zM268 -496q54 0 108 14t97 47.5t43 80.5q0 50 -49 88q-36 30 -112 79.5t-115 67.5q-9 4 -29.5 4.5t-26.5 -2.5q-22 -7 -57.5 -27t-76.5 -49.5t-70 -70.5t-29 -80q0 -44 49 -78q50 -35 124 -54.5t144 -19.5z" />
    <glyph glyph-name="h" unicode="h" horiz-adv-x="1003" 
d="M930 692q0 -142 -73 -317t-144 -254q-48 -52 -133 -111q-74 -49 -103 -49q-47 0 -76 25q-18 20 -18 39q0 9 20.5 38t30.5 35q8 5 12 4q10 -4 31.5 -15t41 -17.5t38.5 -6.5q24 0 41 31q47 66 112.5 273.5t65.5 296.5q0 81 -59 81q-52 0 -121 -67t-195 -232
q-43 -60 -133.5 -212t-126.5 -224q-9 -17 -29 -30t-28 -13q-24 0 -41 22t-12 42q169 520 381 1224q16 36 5.5 60t-61.5 35q-15 4 -25.5 10.5t-14 12t-3.5 9.5q0 14 37 25q12 3 45.5 12t61 16.5t59 15.5t53.5 12.5t31 4.5q6 0 11.5 -15.5t2.5 -27.5q-43 -137 -122 -374.5
t-137 -411.5t-62 -188q-3 -10 -0.5 -14.5t7.5 -4t9 5.5q167 215 289 307q66 49 109 65.5t92 16.5q35 0 62 -15t41 -38t21 -44t7 -38z" />
    <glyph glyph-name="i" unicode="i" horiz-adv-x="548" 
d="M422 827q12 0 29.5 -18t17.5 -31q0 -19 -20 -69q-46 -107 -121 -289t-113 -268q-4 -10 2 -22.5t21 -12.5q22 0 86 47t104 90q34 39 47 39q10 0 10 -12q0 -32 -36 -74q-74 -86 -182.5 -163t-168.5 -77q-22 0 -41.5 17.5t-19.5 33.5q0 14 10 37q102 252 254 604
q6 13 -1 22.5t-15 6.5q-78 -24 -152 -90q-5 -5 -11.5 -5.5t-11 2.5t-4.5 9q0 20 27 51q36 43 137.5 107.5t151.5 64.5zM473 1239q32 0 53 -25t21 -57q0 -41 -30 -75.5t-64 -34.5q-16 0 -31 6q-45 25 -45 75q0 49 41 86q31 25 55 25z" />
    <glyph glyph-name="j" unicode="j" horiz-adv-x="493" 
d="M451 1245q75 0 75 -96q0 -41 -32.5 -71.5t-61.5 -30.5q-28 0 -52 25t-24 58q0 60 47 97q24 18 48 18zM416 840q18 0 28 -36t2 -69q-239 -790 -303 -936q-57 -128 -122 -205t-146 -118q-79 -43 -141 -43q-57 0 -95 29.5t-38 54.5q0 16 15 38.5t30 34.5q33 19 53 2
q75 -69 137 -69q42 0 69.5 37.5t67.5 126.5q44 105 167.5 503t140.5 469q3 13 -4 21t-19 8q-13 0 -53 -21t-74 -46q-14 -9 -25.5 -12t-17.5 0t-6 9q0 18 24 46q45 49 147.5 112.5t162.5 63.5z" />
    <glyph glyph-name="k" unicode="k" horiz-adv-x="907" 
d="M758 825q48 0 78 -25t30 -59q0 -38 -44 -103.5t-115 -115.5q-45 -30 -119 -67t-101 -47q-4 -1 -8 -9.5t-4 -11.5q27 -127 68 -221q20 -42 36 -58t37 -16q26 0 73.5 35.5t82.5 81.5q18 24 31 24q22 0 7 -41q-7 -18 -19 -36q-56 -80 -122 -135.5t-116 -55.5q-64 0 -117 125
q-24 55 -71 199q-12 35 -35 56.5t-39 21.5q-33 0 -51 -41q-16 -38 -64 -151t-76 -177q-5 -12 -14.5 -19.5t-15.5 -7.5q-23 0 -47.5 15t-24.5 30q0 16 18 68q12 29 163.5 477.5t238.5 714.5q9 23 1.5 34.5t-42.5 24.5q-14 6 -24.5 14t-10.5 11q3 19 31 33q21 12 113.5 33.5
t119.5 21.5q3 0 5.5 -6.5t3 -16.5t-2.5 -20q-4 -16 -59 -164t-133 -359t-123 -341q-5 -16 8 -15q14 2 23 15q111 163 260 239q50 26 81.5 35.5t88.5 9.5zM651 739q-44 0 -102 -34q-57 -34 -114 -102t-97 -144q-6 -13 1 -25t19 -10q78 5 164.5 52t141.5 109.5t55 110.5
q0 43 -68 43z" />
    <glyph glyph-name="l" unicode="l" horiz-adv-x="528" 
d="M346 1391q0 8 10.5 17.5t26.5 12.5q3 0 49 7.5t89.5 15t62.5 12.5q38 12 59 12q6 0 8 -7.5t0.5 -19t-3 -20.5t-3.5 -16q-97 -258 -257.5 -709.5t-192.5 -552.5q-10 -28 -7 -57t19 -29q18 0 71 46t109.5 101t69.5 64q21 15 24 -2q0 -23 -12 -47q-56 -110 -161 -181
t-195 -71q-29 0 -57.5 26.5t-28.5 51.5q0 17 67 211q16 44 151 424.5t206 585.5q11 30 13.5 48t-6.5 29t-22 16t-41 11q-49 10 -49 21z" />
    <glyph glyph-name="m" unicode="m" horiz-adv-x="1515" 
d="M369 827q49 0 80 -18q10 -7 13 -24.5t-1 -24.5q-8 -24 -46 -116.5t-61 -135.5q-10 -19 4 -21q16 -3 33 19q1 1 23 26.5t39 44.5t46.5 51t53.5 56t51.5 48t48.5 38q92 57 164 57q42 0 77.5 -30t35.5 -68q0 -16 -3.5 -33.5t-13.5 -45t-15 -40t-22 -52t-20 -46.5
q-4 -10 2 -14t14 4q181 213 265 268q39 26 84 41.5t75 15.5q54 0 84.5 -36.5t30.5 -81.5q0 -26 -9.5 -63t-19.5 -56q-25 -44 -98 -195.5t-104 -222.5q-7 -8 -7.5 -15.5t3.5 -11t8 -2.5q29 4 98 48.5t127 95.5q29 23 39 12l2 -6q0 -28 -27 -64q-60 -78 -196 -170t-203 -92
q-27 0 -47 29q-13 13 -4 33q2 5 133 276.5t145 308.5q27 56 22 99t-42 43q-48 0 -134.5 -85.5t-172.5 -205.5q-63 -88 -164 -253.5t-107 -174.5q-22 -35 -47 -52.5t-45 -17.5q-13 0 -24 11t-11 30q0 17 15 60q24 63 91.5 216t121 274.5t55.5 135.5q7 29 -8 48.5t-37 19.5
q-57 0 -167.5 -114t-238.5 -310q-29 -45 -103.5 -164t-90.5 -143q-25 -36 -38.5 -50t-25.5 -14q-16 0 -34.5 13t-22.5 36q-1 14 7.5 43t17.5 47q24 48 67.5 142.5t104 226.5t90.5 197q19 47 -23 47q-36 0 -74.5 -23.5t-91.5 -79.5q-28 -28 -39 -28q-3 0 -6.5 5.5t-4.5 15.5
t3 26q20 82 92 137t183 55z" />
    <glyph glyph-name="n" unicode="n" horiz-adv-x="1038" 
d="M809 827q55 0 86 -35.5t31 -80.5q0 -49 -29 -121q-30 -80 -97.5 -227t-86.5 -183q-27 -55 6 -55q52 0 184 123q8 7 17.5 10.5t16.5 2t7 -8.5q0 -21 -24 -59q-52 -78 -165.5 -152t-170.5 -74q-36 0 -66 35q-22 22 2 68q33 65 151.5 311.5t131.5 288.5q15 47 6 68.5
t-35 21.5q-86 0 -231 -176q-38 -43 -107 -143.5t-141.5 -212.5t-91.5 -138q-45 -71 -67 -98t-38 -27q-19 0 -38 21t-19 37q-1 9 4 27t14.5 41.5t17.5 42t17 38.5l10 21q2 5 91 196.5t124 284.5q16 33 -18 33q-10 0 -20 -1.5t-20 -5.5l-17.5 -7t-18.5 -10.5t-16.5 -11
t-17.5 -14t-15.5 -13.5t-16.5 -15.5t-16 -14.5q-20 -20 -26 -20q-4 0 -8.5 7t-4.5 13q0 23 18 57.5t50 70t85.5 60.5t113.5 25q22 0 43 -12t32 -29q10 -17 -4 -53q-51 -120 -125 -297q-6 -11 6 -13q13 -2 19 11q35 53 120.5 152.5t133.5 138.5q118 102 213 102z" />
    <glyph glyph-name="o" unicode="o" horiz-adv-x="821" 
d="M559 827q87 0 140 -73t53 -156q0 -191 -108.5 -354t-248.5 -234q-88 -43 -170 -43q-65 0 -121.5 61t-56.5 158q0 109 70 269.5t188 263.5q124 108 254 108zM543 774q-71 0 -148 -92q-78 -90 -141.5 -255.5t-63.5 -311.5q0 -38 20 -64t58 -26q62 0 135 92q74 89 144.5 260
t70.5 299q0 98 -75 98z" />
    <glyph glyph-name="p" unicode="p" horiz-adv-x="884" 
d="M821 596q0 -112 -60 -233t-151.5 -214t-191.5 -143q-64 -35 -109 -35q-46 0 -106 27q-25 -76 -44 -139.5t-27 -95.5t-18.5 -78.5t-15.5 -65.5q-11 -46 12 -65.5t87 -32.5q51 -8 51 -29q0 -9 -17 -16.5t-41 -7.5q-32 0 -74 1t-57 1q-37 0 -121.5 -8t-111.5 -9
q-59 -3 -59 25q0 20 53 30q60 11 85 34t40 69q23 71 172.5 547t175.5 559q0 3 -2 6t-6 2q-106 -30 -176 -70q-16 -8 -28.5 -10t-18 1.5t-5.5 8.5q0 11 10 24.5t21 20.5q77 53 223 105q9 2 17 18q7 19 15 42.5t12 35t10.5 24.5t15.5 23q22 27 88 27q6 0 10 -1t6.5 -3.5
t4 -4.5t2 -6t0.5 -6v-6.5v-5.5q0 -8 -4.5 -24.5t-13.5 -43t-11 -34.5q-1 -4 2 -8.5t6 -4.5q96 0 172.5 -22.5t127 -76.5t50.5 -132zM670 612q0 69 -63.5 105.5t-145.5 36.5q-6 0 -15 -6.5t-12 -12.5q-16 -50 -58.5 -178.5t-75 -232t-62.5 -209.5q-2 -4 -1.5 -12.5t3.5 -12.5
q11 -24 32 -44.5t31 -20.5q53 0 109 51q107 95 182.5 241.5t75.5 294.5z" />
    <glyph glyph-name="q" unicode="q" horiz-adv-x="927" 
d="M625 827q39 0 78.5 -33.5t56.5 -70.5q2 -6 9.5 -5t12.5 7q17 43 54 100q33 49 59 49q10 0 14 -21t-2 -34q-69 -197 -129 -409q-119 -406 -219 -789q-11 -42 8.5 -58.5t63.5 -21.5q55 -8 55 -26q0 -7 -14 -15.5t-37 -11.5q-269 -29 -367 -53q-19 -5 -38 -0.5t-19 16.5
q0 8 12 18t31 17q87 31 113 58t53 106q26 69 97 281.5t122 381.5q3 7 -3 8.5t-9 -2.5q-92 -125 -247.5 -236.5t-252.5 -111.5q-12 0 -28.5 6t-35.5 19.5t-32 41t-13 64.5q0 84 42 194.5t120 221.5q120 179 291 266q82 43 154 43zM602 774q-28 0 -86.5 -39t-120.5 -119
q-86 -113 -155.5 -265t-69.5 -224q0 -68 53 -68q42 0 134 72t173 176q148 197 148 357q0 27 -22.5 68.5t-53.5 41.5z" />
    <glyph glyph-name="r" unicode="r" horiz-adv-x="724" 
d="M303 827q40 0 63 -28t23 -64q0 -45 -23 -126.5t-44 -135.5q-9 -26 2 -24q13 4 34 38q73 125 162 224q98 116 178 116q41 0 59.5 -25.5t18.5 -58.5q0 -54 -36.5 -103.5t-59.5 -49.5q-25 0 -25 45q-1 30 -13 53t-26 23q-22 0 -53 -29.5t-82 -110.5q-80 -120 -286 -532
q-36 -74 -86 -74q-12 0 -27 8.5t-21 20.5q-3 4 -2.5 15.5t2.5 15.5q147 374 209 567q28 96 -20 96q-51 0 -115 -80q-33 -41 -45 -41q-9 0 -11.5 20.5t3.5 39.5q32 89 94 144.5t127 55.5z" />
    <glyph glyph-name="s" unicode="s" horiz-adv-x="573" 
d="M449 827q29 0 55.5 -11.5t38.5 -24.5q20 -20 20 -46q0 -17 -20 -44t-33 -37q-11 -6 -31 6q-15 9 -40.5 28.5t-45 29t-43.5 9.5q-23 0 -52.5 -27t-29.5 -69q0 -64 97 -199q81 -130 81 -180q0 -97 -112 -190q-55 -49 -125.5 -75t-112.5 -26q-40 0 -84.5 32t-44.5 77
q0 12 12.5 38t26.5 44q4 4 14 4.5t17 -4.5q92 -92 180 -92q45 0 77 31.5t32 78.5q0 30 -20.5 69t-69.5 113q-78 119 -78 187q0 58 30 105t82 94q94 79 179 79z" />
    <glyph glyph-name="t" unicode="t" horiz-adv-x="612" 
d="M514 1034q13 0 15.5 -9.5t-5.5 -35.5q-3 -14 -25 -86t-24 -82q-2 -5 1 -11.5t9 -6.5q32 0 191 -6q8 0 8 -17q2 -10 -11.5 -27t-29.5 -18q-124 -8 -190 -8q-13 0 -19 -16q-23 -52 -88 -223.5t-108 -292.5q-20 -58 10 -58q29 0 99.5 46.5t105.5 84.5q16 15 29 18.5
t16 -12.5q0 -20 -19 -49q-62 -87 -187 -170.5t-196 -83.5q-15 0 -34 17.5t-19 29.5q0 21 10 52q2 5 43 115t98.5 263.5t96.5 253.5q4 10 2.5 17.5t-6.5 7.5q-15 1 -55 3t-54 3t-23.5 7t-9.5 12q0 10 15 25.5t26 17.5q61 6 125 6q7 0 14 7t9 13q64 122 84 154t42 45.5
t54 13.5z" />
    <glyph glyph-name="u" unicode="u" horiz-adv-x="1011" 
d="M434 827q8 0 19.5 -10t15.5 -22q1 -4 -1 -18.5t-5 -20.5q-30 -57 -121.5 -290t-103.5 -282q-20 -80 20 -80q59 0 183 130t206 268q47 75 156 270q13 23 29.5 39t29.5 16q15 0 37.5 -16.5t22.5 -32.5q0 -22 -27 -84q-166 -410 -203 -524q-14 -41 17 -41q25 0 82.5 38.5
t119.5 104.5q20 20 34 14q5 -1 5 -7q0 -14 -16 -46q-27 -54 -94.5 -117.5t-139 -106t-112.5 -42.5q-17 0 -35 20t-18 36q0 6 8 34q4 13 50.5 134.5t53.5 142.5q10 31 1.5 32t-27.5 -22q-75 -91 -184 -184t-195 -150q-67 -43 -117 -43q-34 0 -55 25q-28 33 -9 88
q21 57 108.5 272t121.5 291q7 15 4.5 22t-10.5 7t-34 -15.5t-63 -40.5t-38 -26q-15 -10 -30 -10.5t-16 8.5q0 14 15 33q14 27 70.5 75.5t128.5 89.5t116 41z" />
    <glyph glyph-name="v" unicode="v" horiz-adv-x="860" 
d="M209 -25q-45 0 -72.5 37t-27.5 92q0 60 30 146q23 72 83.5 232.5t68.5 183.5q2 8 -2 15t-10 7q-43 0 -156 -108q-12 -10 -23.5 -9.5t-11.5 11.5q0 19 21 47q46 64 135.5 131t156.5 67q11 0 22 -11.5t17 -22.5q18 -37 0 -95q-18 -51 -93.5 -249.5t-86.5 -235.5
q-17 -60 4 -88.5t51 -28.5q86 0 180 84.5t154 204.5t60 221q0 42 -29 90q-16 26 -16 41q0 28 36 59t68 31q29 0 48.5 -33.5t19.5 -78.5q0 -109 -72 -257.5t-178 -264.5q-81 -88 -180 -153t-197 -65z" />
    <glyph glyph-name="w" unicode="w" horiz-adv-x="1296" 
d="M414 827q26 0 37 -32q9 -20 7 -49.5t-14 -51.5q-77 -174 -186 -487q-18 -51 -9.5 -89t38.5 -38q53 0 134.5 72.5t151.5 175.5q49 79 52 90q50 173 67 213q22 64 45 90q15 17 52 36t61 19q12 0 20 -4.5t11 -13t4 -18t-2 -23.5t-5.5 -25t-8.5 -26.5t-9.5 -24t-9 -21.5
t-6.5 -16q-16 -31 -41.5 -81.5t-43 -85t-26.5 -54.5q-29 -60 -35 -107q-18 -88 -5 -140t63 -52q32 0 93.5 33t98.5 76q189 217 191 376q1 32 -5.5 58t-15.5 44t-10 23q-4 17 6 37q14 32 53.5 64t67.5 32q18 0 28.5 -35t10.5 -81q-2 -106 -71 -244t-166 -252t-187 -172
q-102 -72 -203 -72q-31 0 -52.5 31.5t-27 87.5t12.5 133q1 6 -5.5 6.5t-9.5 -2.5q-43 -45 -101 -100t-77 -68q-62 -45 -109.5 -66.5t-95.5 -21.5q-32 0 -53 38t-20 97q2 27 17 85.5t34 105.5q27 68 77.5 200.5t65.5 170.5q9 22 -12 22q-40 0 -176 -110q-6 -5 -13 0t-6 14
q0 19 15 43q44 64 142 127t161 63z" />
    <glyph glyph-name="x" unicode="x" horiz-adv-x="897" 
d="M338 821q23 0 41.5 -31.5t28.5 -68.5q6 -24 69 -215q3 -10 15 2q28 32 87.5 105t101.5 118t77 68q12 10 38 19t42 9q44 0 62 -23t18 -54q0 -27 -31.5 -72t-59.5 -45q-18 0 -28 24q-3 10 -14.5 26.5t-24.5 16.5q-17 0 -43.5 -19t-59 -53t-57.5 -63t-57.5 -68t-40.5 -48
q-10 -15 -6 -27q71 -221 77 -236q31 -67 58 -71q22 0 59 42.5t66 90.5q4 8 11 14t11 6q15 0 15 -35q-1 -48 -26 -97t-60 -84t-72.5 -57t-63.5 -22q-70 0 -118 146q-11 32 -31 98.5t-27 87.5q-3 9 -10 2q-158 -198 -234.5 -272t-142.5 -74q-31 0 -54.5 25.5t-21.5 48.5
q0 40 27 77.5t51 51.5q13 9 27.5 8.5t15.5 -14.5q8 -39 16 -51.5t31 -12.5q11 0 26.5 9t38.5 30.5t40 38.5t47 50.5t42.5 48t43 50t33.5 39.5q4 5 5 17.5t-1 17.5q-2 7 -36 114t-40 126q-13 45 -35 45q-25 0 -51 -26.5t-63 -80.5q-15 -20 -19 -20q-16 0 -16 27
q0 64 79.5 152.5t143.5 88.5z" />
    <glyph glyph-name="y" unicode="y" horiz-adv-x="786" 
d="M289 827q41 0 71.5 -49.5t38.5 -95.5q43 -214 21 -565q-1 -3 3 -3q15 -1 28 19l4 6q81 144 134.5 319.5t57.5 348.5q0 10 13 21.5t20 11.5q23 0 48.5 -31.5t25.5 -50.5q0 -113 -82 -310t-154 -317q-177 -292 -221 -346q-112 -136 -174 -195q-22 -22 -45 -41
q-117 -94 -219 -94q-42 0 -73.5 23.5t-31.5 60.5q0 34 27.5 68.5t56.5 34.5q19 0 25 -9q10 -7 27 -25.5t32.5 -29t34.5 -10.5q46 0 91 29.5t108 101.5q68 80 108.5 238t40.5 342q0 120 -9.5 226.5t-21.5 145.5q-2 5 -5.5 18.5t-6 19.5t-6.5 14.5t-10.5 12t-14.5 3.5
q-21 0 -53.5 -42.5t-66.5 -109.5q-24 -49 -37 -49q-16 0 -19 35q-3 51 28.5 114.5t88.5 111.5t117 48z" />
    <glyph glyph-name="z" unicode="z" horiz-adv-x="854" 
d="M412 827q46 0 139 -39q75 -32 111 -32q42 0 124 63q32 23 45 23q7 0 14.5 -4t6.5 -11q0 -22 -21 -43q-71 -60 -307 -285.5t-291 -287.5q-4 -5 -2 -8.5t7 -3.5q15 -1 30 -4.5t26.5 -7t28 -11t25.5 -12t26.5 -16t24 -15.5t27 -18t25.5 -17q32 -22 66.5 -33.5t53.5 -11.5
q121 0 121 174q0 48 -4 64q0 6 7.5 11t13.5 5q73 0 73 -98q-1 -47 -47.5 -106t-95.5 -95q-62 -43 -97 -56t-87 -13q-45 0 -164 92q-53 41 -79.5 53t-55.5 12q-42 0 -66 -30q-16 -16 -49 -82q-7 -13 -21 -13q-10 0 -22 16t-12 36q-3 40 80 120q21 20 173 164.5t239.5 231.5
t94.5 104q3 8 -2 8q-13 2 -29 6.5t-40 13t-39 13.5q-18 5 -50.5 14t-48.5 13.5t-40.5 8t-47.5 3.5q-31 0 -53.5 -20.5t-23.5 -51.5q0 -47 12 -84q2 -10 -10 -22q-14 -15 -42.5 -29t-45.5 -14q-14 0 -22.5 19t-8.5 36q0 33 36.5 89.5t90.5 98.5q110 82 203 82z" />
    <glyph glyph-name="braceleft" unicode="{" horiz-adv-x="759" 
d="M170 582q0 9 11 14.5t22 5.5q65 12 108.5 31.5t67.5 49t34 51.5t21 61q8 30 34 187.5t42 209.5q38 134 154 209q51 31 106.5 50t85.5 23.5t51 4.5q43 0 43 -19q0 -15 -26 -22q-60 -19 -98.5 -35t-78.5 -43t-65.5 -66.5t-40.5 -93.5q-20 -66 -29 -195t-22 -176
q-20 -70 -98.5 -138.5t-176.5 -106.5q-5 -2 -6 -6t6 -9q160 -102 121 -264q-11 -44 -27 -84t-37 -84t-30 -65q-6 -16 -17 -41t-17.5 -43t-10.5 -35q-28 -117 18 -190t142 -103q10 -3 16 -8t4 -10q-4 -25 -55 -25q-52 0 -104.5 32.5t-89.5 88t-51.5 129.5t9.5 156
q10 33 52.5 146.5t52.5 143.5q32 105 13.5 153.5t-87.5 72.5q-16 5 -31.5 18t-15.5 25z" />
    <glyph glyph-name="bar" unicode="|" horiz-adv-x="589" 
d="M301 1509h123v-2005h-123v2005z" />
    <glyph glyph-name="braceright" unicode="}" horiz-adv-x="751" 
d="M438 1481q69 0 134.5 -54t96.5 -144t-1 -208q-6 -24 -44 -127t-49 -149q-57 -188 82 -234q54 -17 54 -35q0 -8 -10 -15.5t-31 -10.5q-65 -10 -111.5 -30.5t-72.5 -49.5t-38.5 -55.5t-19.5 -59.5q-1 -7 -26 -177.5t-42 -227.5q-35 -134 -149 -205q-71 -43 -143.5 -61.5
t-108.5 -18.5q-18 0 -29.5 7t-11.5 18q0 16 37 22q38 11 58.5 17.5t52.5 20t51.5 29t42 39t38.5 56t27 74.5q13 47 26.5 181.5t29.5 188.5q22 77 93 146t181 104q5 2 3 8t-7 9q-157 105 -115 262q13 55 46.5 128.5t41.5 96.5q4 14 19.5 57t19.5 62q47 222 -151 297
q-25 7 -25 20q0 19 51 19z" />
    <glyph glyph-name="asciitilde" unicode="~" horiz-adv-x="1277" 
d="M465 692q44 0 93.5 -24t93.5 -58t85.5 -67.5t82.5 -57.5t71 -24q73 0 113 48.5t88 166.5q8 18 22 18q26 0 52.5 -18.5t19.5 -38.5q-49 -135 -127 -216t-180 -81q-47 0 -97 24t-92 58.5t-82 68.5t-80.5 58t-74.5 24q-56 0 -102 -47.5t-91 -154.5q-6 -14 -8.5 -19t-7 -8.5
t-11.5 -3.5q-18 0 -46 17.5t-23 35.5q38 125 115.5 212t185.5 87z" />
    <glyph glyph-name="uni00A0" unicode="&#xa0;" horiz-adv-x="407" 
 />
    <glyph glyph-name="exclamdown" unicode="&#xa1;" horiz-adv-x="575" 
d="M33 -438q-34 0 -50.5 33t-15.5 77t15 86q19 59 124.5 310.5t139.5 328.5q6 14 19.5 25.5t25.5 11.5t17.5 -14.5t2.5 -32.5q-11 -69 -56.5 -306.5t-70.5 -346.5q-21 -85 -65.5 -128.5t-85.5 -43.5zM350 606q-51 0 -77.5 29t-26.5 82q0 57 38 93t87 36q50 0 76 -30.5
t26 -74.5q0 -57 -40 -96t-83 -39z" />
    <glyph glyph-name="cent" unicode="&#xa2;" horiz-adv-x="997" 
d="M731 1081l41 127q8 13 21 13q10 0 27.5 -9.5t17.5 -17.5l-37 -111q-3 -5 -1.5 -8.5t2.5 -4l5 -2.5l4 -1q80 -13 127 -41q39 -27 39 -57q0 -39 -26 -77t-48 -38q-8 0 -17.5 9.5t-13.5 23.5q-13 41 -36.5 70.5t-47.5 41.5q-4 1 -9 -2t-7 -8l-225 -690q-1 -7 3 -9.5t11 -0.5
q163 20 283 127q9 8 15.5 9.5t9.5 -2t3 -9.5q0 -26 -22 -54q-64 -79 -153 -119.5t-171 -52.5q-13 -4 -18 -12l-51 -135q-4 -8 -6.5 -11.5t-9.5 -6.5t-19 -3q-13 0 -23 6.5t-8 12.5l47 139q8 15 -4 21q-101 19 -168 96.5t-67 177.5q0 170 98 320t252 223q91 42 168 51
q10 3 14 14zM485 311l220 686q4 13 -9 13q-88 -16 -166 -100.5t-121.5 -198.5t-43.5 -222q0 -69 33 -117.5t73 -66.5q5 -3 14 6z" />
    <glyph glyph-name="sterling" unicode="&#xa3;" horiz-adv-x="997" 
d="M809 1292q78 0 130 -41.5t52 -97.5q1 -53 -24 -82.5t-62 -38.5q-13 -4 -20.5 3.5t-7.5 15.5q5 43 4 69q-2 46 -30.5 83.5t-82.5 37.5q-43 0 -79 -25t-71.5 -85t-68.5 -166t-64 -260q-2 -5 0.5 -12t8.5 -7l274 12q6 0 9 -8.5t1 -17.5q-1 -12 -11.5 -25.5t-16.5 -13.5
l-271 -15q-3 0 -9 -9.5t-7 -16.5q-43 -150 -88.5 -225t-136.5 -156q-5 -2 0 -6q2 -2 6 -2q73 -15 184 -64q6 -2 36.5 -13.5t38.5 -14t33 -11.5t36.5 -11.5t30.5 -7t33.5 -6t29.5 -1.5q105 0 151.5 39.5t46.5 117.5q0 42 -22 115q-3 10 8 17.5t18 7.5q27 0 52.5 -28.5
t25.5 -80.5q1 -71 -59 -146.5t-150 -124t-172 -48.5q-117 0 -301 123q-58 38 -90 47q-13 5 -35 -9q-137 -112 -170 -112q-19 0 -25.5 9t-6.5 28q0 40 47.5 85.5t115.5 71.5q2 1 26.5 10t31.5 15q36 27 66 107t61 274q0 6 -5 10t-10 4l-149 -6q-6 0 -8.5 8t0.5 17
q3 14 10.5 27t13.5 14l144 10q20 3 22 18q57 232 118.5 347t160.5 184q94 67 227 67z" />
    <glyph glyph-name="currency" unicode="&#xa4;" horiz-adv-x="997" 
d="M950 961l-100 -111q-6 -10 -2 -23q65 -98 65 -209q0 -106 -71 -208q-2 -2 -3.5 -5t-1.5 -5.5t1 -2.5l108 -118q7 -6 3.5 -25t-19.5 -33q-7 -7 -23 -13t-20 -1l-123 112q-6 6 -21 -2q-98 -61 -184 -61q-103 0 -188 53q-9 5 -25 -2l-106 -102q-15 -18 -50 10
q-15 15 -20 30.5t-3 23t5 12.5l96 104q6 13 0 21q-67 101 -67 210q0 95 69 201q2 2 3 11.5t-3 13.5l-106 121q-8 9 0.5 27.5t19.5 29.5q33 30 52 14l102 -106q3 -3 14.5 -5t14.5 1q88 53 192 53q100 0 195 -57q12 -6 18 2l102 106q21 21 58 -14q18 -14 22 -30.5t-4 -22.5z
M559 872q-107 0 -177.5 -73t-70.5 -183q0 -111 72.5 -180t175.5 -69q100 0 173 70t73 179q0 104 -76 180t-170 76z" />
    <glyph glyph-name="yen" unicode="&#xa5;" horiz-adv-x="997" 
d="M242 1255q0 19 49 19q15 0 72 -3t83 -3q32 0 85 3t69 3q45 0 45 -19t-45 -28q-39 -11 -53 -30.5t-10 -57.5q46 -341 59 -408q0 -4 8.5 -3.5t11.5 3.5q121 139 246 303q82 103 94 140q2 8 -0.5 16t-18 18t-44.5 17q-14 2 -26.5 9.5t-12.5 18.5q0 19 51 19q20 0 70.5 -2
t68.5 -2q26 -1 76.5 3.5t69.5 4.5q41 0 41 -21q0 -8 -13 -15t-24 -9q-71 -19 -107.5 -46t-99.5 -98q-12 -13 -18 -20q-51 -57 -160.5 -187t-161.5 -190q-15 -18 2 -18l209 4q12 0 12 -23q0 -14 -11 -26.5t-19 -12.5l-213 -4q-17 0 -21 -12l-28 -104q-1 -6 2 -11.5t8 -5.5
l205 4q16 0 16 -22q0 -16 -11 -28.5t-18 -12.5l-207 -4q-22 0 -26 -21q-8 -34 -25.5 -100t-25.5 -100q-20 -82 -6 -107.5t83 -40.5q43 -10 43 -31q0 -20 -61 -20q-20 0 -93.5 3t-115.5 3q-29 0 -91 -3t-93 -3q-14 0 -29.5 6t-15.5 14q0 28 61 35q79 12 107 41.5t59 128.5
l51 174q2 8 -2.5 14.5t-11.5 6.5l-201 -6q-5 0 -7.5 0.5t-4.5 4t-2 11.5q0 10 11.5 28.5t17.5 18.5l208 6q18 6 21 12l33 103q1 4 0.5 8t-2 7t-2.5 3l-215 -6q-15 0 -15 17t10.5 31t22.5 14l195 6q16 0 16 18q-38 243 -80 424q-11 56 -26.5 75.5t-69.5 37.5q-1 0 -10 2.5
t-13.5 4t-11.5 5t-10.5 7.5t-3.5 9z" />
    <glyph glyph-name="brokenbar" unicode="&#xa6;" horiz-adv-x="589" 
d="M301 -354v708h121v-708h-121zM301 1368h121v-709h-121v709z" />
    <glyph glyph-name="section" unicode="&#xa7;" horiz-adv-x="841" 
d="M795 1305q42 0 71 -21q9 -6 14 -17.5t3 -19.5t-8 -17.5t-15.5 -19.5t-16 -17t-16 -16t-10.5 -10q-28 -16 -41 -6q-22 18 -62 31.5t-73 13.5q-38 0 -65.5 -15t-40 -38t-18 -44t-5.5 -40q0 -35 18 -92t35 -96t49 -109q36 -69 68 -163t33 -175q1 -78 -32.5 -165
t-68.5 -140.5t-86 -120.5q-87 -111 -218 -195.5t-244 -84.5q-25 0 -49 16.5t-31 32.5q-17 34 -17 86q0 10 9.5 19.5t15.5 6.5q43 -24 96.5 -38.5t93.5 -14.5q84 0 131 38.5t47 94.5q0 99 -90 312q-40 82 -67 174t-27 157q0 225 225 447q14 34 56.5 84t93.5 84q111 78 242 78
zM387 977q-100 -110 -100 -285q0 -19 2 -39.5t4.5 -36t9 -41t10 -38t14.5 -44t15 -41.5t18.5 -49.5t18.5 -50.5q66 -175 78 -243q8 -43 6 -74q-1 -6 0 -10t5.5 -3t12.5 9q65 58 94 145t29 174q0 80 -18.5 150t-59.5 168q-103 219 -118 305q-1 11 -8.5 11t-12.5 -7z" />
    <glyph glyph-name="dieresis" unicode="&#xa8;" 
d="M461 1237q31 0 51 -24.5t20 -55.5q2 -40 -25.5 -71t-64.5 -31q-32 0 -49.5 24.5t-17.5 59.5q0 43 25.5 70.5t60.5 27.5zM762 1237q31 0 50 -24.5t19 -55.5q2 -40 -24 -71t-64 -31q-32 0 -51.5 25t-19.5 59q0 42 28.5 70t61.5 28z" />
    <glyph glyph-name="copyright" unicode="&#xa9;" horiz-adv-x="1417" 
d="M748 1286q180 0 324 -85.5t222 -230t78 -317.5t-80 -317.5t-224 -230t-320 -85.5q-185 0 -329.5 86t-221 229.5t-76.5 317.5q0 172 81 317t225.5 230.5t320.5 85.5zM748 1225q-153 0 -279.5 -75.5t-199 -206.5t-72.5 -288q0 -156 74 -288t201 -208.5t276 -76.5
q151 0 276.5 74.5t197.5 206.5t72 292q0 157 -72 288t-197.5 206.5t-276.5 75.5zM786 1010q67 0 121 -13q13 -2 51 -12t50 -12q15 -5 18 -47q2 -27 2 -90q0 -37 -22 -37q-7 0 -15.5 11t-11.5 21q-19 67 -59 93q-49 34 -125 34q-111 0 -181.5 -76.5t-70.5 -197.5
q0 -86 25.5 -151t66 -99t83 -50.5t85.5 -16.5q42 0 74 9.5t54 28.5t35 36t27 42q12 24 19 32.5t18 8.5q6 0 11.5 -9.5t5.5 -18.5q-3 -43 -27 -111q-4 -10 -20.5 -25t-24.5 -18q-81 -35 -187 -35q-100 0 -179 36.5t-120 82.5q-92 101 -92 233q0 90 37.5 154t85.5 102
q59 51 132.5 73t133.5 22z" />
    <glyph glyph-name="ordfeminine" unicode="&#xaa;" horiz-adv-x="645" 
d="M131 612q0 64 62 166q55 94 134.5 173.5t153.5 123.5q45 25 66 25q32 0 59 -27q3 -2 9.5 -1.5t7.5 3.5q9 19 18.5 31.5t14.5 17t8 4.5q8 0 28.5 -5t30.5 -11q11 -7 4 -25q-118 -258 -156 -397q-8 -26 -4.5 -32.5t19.5 -6.5q24 0 102 64q8 7 16.5 9t10.5 -3q7 -11 -6 -31
q-39 -56 -98.5 -92.5t-106.5 -36.5q-53 0 -53 37q0 10 6.5 30t13 36.5t17 40t12.5 28.5q7 16 -3 16q-8 0 -18 -10q-178 -178 -286 -178q-23 0 -42.5 13t-19.5 38zM258 688q0 -35 25 -35q21 0 56.5 22.5t70.5 57.5q96 90 163 225q14 28 7 39q-6 10 -24 17.5t-32 7.5
q-40 0 -73 -21.5t-74 -72.5q-52 -61 -85.5 -130.5t-33.5 -109.5z" />
    <glyph glyph-name="guillemotleft" unicode="&#xab;" horiz-adv-x="1312" 
d="M164 408q0 12 33 26q236 99 553 303q32 21 43 21q16 0 8 -24q-8 -22 -31 -44q-46 -45 -114 -96.5t-113 -81.5t-127 -82l-9 -6l-7.5 -5t-8.5 -5q-9 -4 -11.5 -14.5t3.5 -16.5q67 -71 134 -151t93 -126q5 -8 7.5 -18t-1.5 -18.5t-16 -8.5q-8 0 -14 2.5t-10.5 6t-16.5 14.5
q-68 68 -177 155t-194 140q-9 6 -16.5 15t-7.5 14zM612 408q0 13 31 26q100 40 225.5 108t197.5 113t126 82q28 21 45 21q7 0 9.5 -7t-3.5 -21t-22 -30q-44 -45 -114 -99.5t-117 -87t-130 -87.5q-6 -4 -8.5 -6t-7 -5t-8.5 -5q-16 -12 -7 -23q187 -202 228 -281
q8 -10 7.5 -27.5t-13.5 -17.5q-17 0 -43 23q-66 66 -176.5 153.5t-202.5 147.5q-5 3 -11 11t-6 12z" />
    <glyph glyph-name="logicalnot" unicode="&#xac;" horiz-adv-x="1277" 
d="M182 715h940q27 0 27 -43v-561q0 -21 -32.5 -31t-65.5 -10q-8 0 -13 1.5t-8.5 8.5t-3.5 20v465q0 24 -7.5 31.5t-27.5 9.5h-796q-27 0 -34 5t-7 26q0 23 9 50.5t19 27.5z" />
    <glyph glyph-name="uni00AD" unicode="&#xad;" horiz-adv-x="624" 
d="M133 481q22 4 212 26.5t200 22.5q7 0 13 -9.5t5 -22.5q-4 -30 -22 -61t-43 -34q-49 -8 -210.5 -24.5t-181.5 -16.5q-8 -1 -13 8t-5 17q0 17 17 55t28 39z" />
    <glyph glyph-name="registered" unicode="&#xae;" horiz-adv-x="477" 
d="M389 1040v105q0 22 -3.5 27t-16.5 10q-11 5 -12.5 9.5t2 7t8.5 3.5q61 6 98 6q41 0 65.5 -16.5t24.5 -44.5q0 -7 -2.5 -13.5t-5.5 -10.5t-8 -7.5t-8 -5.5t-7.5 -4t-5.5 -2q-4 -4 -2 -8q39 -74 66 -92q10 -5 10 -13q0 -10 -27 -10q-36 0 -55 31q-26 35 -37 59q-3 8 -18 8
q-10 0 -12.5 -1.5t-2.5 -6.5v-22q0 -23 4.5 -28.5t28.5 -14.5q6 -3 7.5 -7.5t-0.5 -8t-7 -3.5h-55h-51q-6 0 -9 7t4 10q15 6 21 13.5t6 22.5zM440 1176v-62q0 -6 2.5 -7t16.5 -1q22 0 30.5 8.5t8.5 28.5q0 16 -10.5 28.5t-26.5 12.5q-21 0 -21 -8zM461 1319
q96 0 160.5 -64.5t64.5 -160.5q0 -87 -63 -159.5t-166 -72.5q-95 0 -159.5 67t-64.5 165q0 91 66.5 158t161.5 67zM461 1282q-77 2 -129.5 -52.5t-52.5 -135.5t52.5 -136t129.5 -55q81 0 130.5 54t49.5 137q0 81 -52.5 134.5t-127.5 53.5z" />
    <glyph glyph-name="macron" unicode="&#xaf;" 
d="M418 1165l364 15q4 0 8 -4.5t7.5 -15.5t1.5 -25q-6 -29 -18 -47.5t-27 -18.5l-363 -8q-9 0 -13 11.5t-1 25.5q4 23 18 45t23 22z" />
    <glyph glyph-name="degree" unicode="&#xb0;" horiz-adv-x="614" 
d="M449 1303q95 0 162 -64t67 -172q0 -99 -72 -168.5t-166 -69.5q-97 0 -167 68.5t-70 169.5q0 97 74.5 166.5t171.5 69.5zM434 1231q-56 0 -96.5 -47t-40.5 -117q0 -74 44 -119t110 -45q56 0 95.5 44t39.5 120q0 71 -42.5 117.5t-109.5 46.5z" />
    <glyph glyph-name="plusminus" unicode="&#xb1;" horiz-adv-x="1277" 
d="M608 1116q0 11 33.5 21t58.5 10q22 0 26.5 -6.5t4.5 -34.5v-387q0 -17 4.5 -21t20.5 -4h397q19 0 25 -5t6 -19q0 -36 -9.5 -60t-19.5 -24h-401q-10 0 -16.5 -9.5t-6.5 -19.5v-387q0 -22 -32.5 -32.5t-65.5 -10.5q-12 0 -18.5 6t-6.5 25v393q0 24 -5 29.5t-25 5.5h-383
q-27 0 -34 4.5t-7 25.5q0 23 9 50.5t19 27.5h402q8 0 16 7.5t8 17.5v397zM1153 8q19 0 25 -5t6 -19q0 -36 -9.5 -61t-19.5 -25h-960q-27 0 -34 4.5t-7 25.5q0 24 9 52t19 28h971z" />
    <glyph glyph-name="two.superior" unicode="&#xb2;" horiz-adv-x="614" 
d="M606 1587q64 0 115 -48t51 -122q0 -62 -34.5 -115.5t-106.5 -111.5q-133 -111 -236 -189q-9 -7 -7 -11.5t11 -4.5q36 0 130.5 3t103.5 5q29 4 74 58q19 26 34 26q10 0 12.5 -17t-5.5 -32q-49 -86 -74 -137q-7 -12 -31 -12q-7 0 -137.5 1t-163.5 1h-86q-53 0 -53 22
q0 6 8.5 17.5t17.5 17.5q83 57 240 192q174 141 174 261q0 51 -25.5 77.5t-66.5 26.5q-32 0 -63.5 -13.5t-47.5 -26.5t-39 -34q-21 -18 -34 -18q-6 0 -10.5 5.5t-4.5 10.5q0 23 35 64q99 104 219 104z" />
    <glyph glyph-name="three.superior" unicode="&#xb3;" horiz-adv-x="614" 
d="M623 1587q74 0 111.5 -42.5t37.5 -88.5q0 -25 -9.5 -46t-33 -40t-37.5 -28.5t-49 -28t-41 -21.5q-14 -10 -2 -12q64 -17 106 -59t42 -109t-65 -133.5t-177 -106.5q-61 -24 -150 -24q-56 0 -83.5 38t-24.5 87q0 11 5.5 19.5t12.5 8.5q13 0 25 -10q33 -26 48 -37.5
t49.5 -28t62.5 -16.5q61 0 111 55.5t50 125.5q0 63 -33 92.5t-79 29.5q-36 0 -56 -4q-7 -1 -15.5 -1.5t-16 3t-6.5 9.5q0 17 28 34q13 7 50 25t59 29q108 54 108 145q0 34 -19 54t-59 20q-69 0 -133 -105q-1 -4 -8.5 -4.5t-11.5 2.5q-7 7 -13 24.5t-6 26.5q0 14 25 39
q100 78 197 78z" />
    <glyph glyph-name="acute" unicode="&#xb4;" 
d="M688 1270q15 22 45 22q16 0 31 -32.5t12 -51.5q-3 -22 -28 -53q-67 -79 -197 -217q-26 -35 -57 -35q-13 1 -12.5 20.5t10.5 34.5q47 84 196 312z" />
    <glyph glyph-name="mu" unicode="&#xb5;" horiz-adv-x="958" 
d="M362 829q40 0 78 -38q1 0 3 -10.5t3 -22t0 -15.5q-20 -58 -118 -229q-19 -33 -65 -117.5t-54 -97.5q-28 -46 -25 -94q1 -28 28 -52t52 -24q64 0 149.5 72.5t155.5 171.5q25 35 43 86q109 269 142 325q9 17 29.5 35.5t29.5 18.5q56 0 90 -43q13 -19 -10 -78
q-30 -66 -119 -202.5t-141 -197.5q-29 -38 -31 -77q-3 -71 27 -102.5t71 -31.5q47 0 90.5 28.5t96.5 92.5q6 4 12 5t10 -1.5t4 -7.5q0 -34 -41 -102q-46 -70 -108.5 -116t-114.5 -46q-128 0 -92 238q3 21 -2 20l-8 -6q-133 -138 -194.5 -188t-110.5 -50q-22 0 -40 17
t-28.5 42.5t-16 44t-7.5 32.5q-6 20 -21 2q-22 -31 -65 -172.5t-44 -190.5q-4 -74 15 -111t67 -75q5 -7 4 -19t-6 -20q-11 -18 -33.5 -39t-43.5 -31q-22 -12 -54 -12q-10 0 -26 21.5t-23 50.5q-21 76 33 262q36 134 135 397q7 21 17 58t14 51q89 288 168 507q2 6 10.5 16.5
t17.5 14.5q17 10 47 10z" />
    <glyph glyph-name="paragraph" unicode="&#xb6;" horiz-adv-x="1175" 
d="M207 688q0 146 62.5 256.5t152.5 177.5q170 133 455 144q254 12 393 12q39 0 39 -31q0 -13 -10.5 -27t-22.5 -14q-4 0 -68 4t-84 4q-27 0 -40 -18.5t-31 -77.5q-69 -243 -146.5 -518.5t-118 -419t-59.5 -207.5q-53 -181 -103 -282.5t-114 -151.5q-48 -38 -92 -56
t-111 -18q-114 0 -175.5 59t-61.5 148q0 95 54 153t124 58q51 0 80.5 -33t29.5 -73q0 -36 -31.5 -62t-68.5 -26q-21 0 -49 20q-15 12 -25 12q-11 0 -23.5 -14t-12.5 -45q0 -49 49 -91t120 -42q43 0 82 17t66 40t53.5 63.5t41.5 69t32 76.5t22.5 67t16.5 58q22 77 41.5 140
t28.5 92.5t16 58.5q2 16 -2.5 26t-16.5 7q-28 -4 -79 -4q-79 0 -151.5 28.5t-132 82.5t-95 141.5t-35.5 195.5zM946 1208q-69 0 -131 -96q-58 -96 -121.5 -302t-87.5 -368q-9 -62 17 -101.5t75 -39.5q23 0 35 7.5t19 33.5q8 29 55 192t104.5 363t77.5 272q5 17 -7 28t-36 11
z" />
    <glyph glyph-name="periodcentered" unicode="&#xb7;" horiz-adv-x="462" 
d="M236 502q102 0 102 -111q0 -57 -38 -92t-87 -35t-75.5 30.5t-26.5 74.5q0 57 40.5 95t84.5 38z" />
    <glyph glyph-name="cedilla" unicode="&#xb8;" 
d="M369 4h55q-5 -5 -26 -25t-27 -26t-22 -23t-21.5 -25.5t-14 -22.5t-11.5 -26t-3 -24q0 -27 41 -100q25 -45 25 -84q0 -28 -31 -64t-72 -61q-51 -31 -80 -31q-38 0 -75 30t-37 68q0 15 4.5 25.5t9 14t8.5 3.5t6 -0.5t5 -2t4.5 -3l6.5 -6.5t9 -8q54 -45 88 -45q21 0 30 7
t9 28q0 29 -47 110q-27 52 -27 78q0 34 29 74q25 37 164 139z" />
    <glyph glyph-name="one.superior" unicode="&#xb9;" horiz-adv-x="614" 
d="M428 1509q0 5 14 14.5t27 10.5q192 29 238 53q10 6 14.5 -1t1.5 -15q-20 -60 -53 -160q-28 -82 -64 -207t-47 -176q-11 -53 0.5 -68.5t65.5 -29.5q29 -8 39 -15t10 -20q0 -10 -16 -15.5t-37 -5.5q-29 0 -78 3.5t-70 3.5q-44 0 -100 -4.5t-74 -4.5q-15 0 -32 6t-17 19
q0 21 65 35q45 9 64.5 22.5t36.5 49.5q25 51 98 284q41 131 49 170q3 17 -12 19q-40 8 -74 8q-49 0 -49 24z" />
    <glyph glyph-name="ordmasculine" unicode="&#xba;" horiz-adv-x="602" 
d="M520 1124q77 0 112.5 -47.5t35.5 -111.5q0 -113 -73.5 -222t-162.5 -153q-64 -29 -123 -29q-61 0 -99 43.5t-38 110.5q0 76 46.5 174t125.5 166q84 69 176 69zM520 1079q-60 0 -110 -63q-51 -60 -90 -160.5t-39 -171.5q0 -70 57 -70q42 0 90 58q43 48 93 159.5t50 182.5
q0 30 -13.5 47.5t-37.5 17.5z" />
    <glyph glyph-name="guillemotright" unicode="&#xbb;" horiz-adv-x="1353" 
d="M1178 412q0 -13 -33 -27q-246 -103 -553 -305q-28 -19 -43 -19q-17 0 -9 23q8 21 31 43q111 109 379 276q9 4 11.5 15t-3.5 18q-65 67 -133 148t-94 127q-8 11 -8 29t18 18q11 0 18 -4.5t23 -20.5q70 -69 179 -156t192 -139q9 -4 17 -12.5t8 -13.5zM727 412
q0 -15 -29 -27q-100 -41 -225 -109.5t-197 -113.5t-126 -82q-38 -19 -46 -19q-12 0 -8.5 17t25.5 39q47 49 121.5 107t127.5 94t136 90q16 12 6 22q-182 197 -227 281q-8 11 -7.5 29t13.5 18q18 0 43 -25q66 -66 176.5 -153.5t200.5 -145.5q6 -3 11 -10t5 -12z" />
    <glyph glyph-name="onequarter" unicode="&#xbc;" horiz-adv-x="1312" 
d="M338 1206q0 5 14 14.5t27 10.5q190 29 237 53q10 6 15 -1t2 -15q-20 -60 -53 -160q-28 -82 -64 -207t-47 -176q-11 -53 0.5 -68.5t65.5 -29.5q29 -8 39 -15t10 -20q0 -10 -16.5 -15.5t-37.5 -5.5q-29 0 -77.5 3.5t-69.5 3.5q-44 0 -100 -4.5t-74 -4.5q-15 0 -32 6t-17 19
q0 21 65 35q46 9 65 22.5t36 48.5q24 50 98 285q41 131 49 170q3 17 -12 19q-40 8 -74 8q-49 0 -49 24zM1288 1303q17 0 27.5 -6t11 -12.5t-3.5 -12.5q-91 -110 -1104 -1329q-11 -15 -24 -15q-16 0 -28 19.5t1 36.5q194 236 562 677t517 621q18 21 41 21zM1217 707
q6 0 11.5 -10.5t2.5 -20.5q-1 -3 -23.5 -76t-50 -161.5t-37.5 -123.5q-3 -3 -0.5 -8.5t10.5 -5.5l109 6q4 0 8 -6.5t2 -11.5q-6 -20 -18 -38t-25 -18q-15 0 -96 -6q-13 0 -16 -14q-44 -161 -62 -209q-3 -16 -26 -24q-8 -4 -39 -8.5t-43 -4.5q-8 0 -12.5 8t-0.5 25
q1 3 13 40.5t26.5 82.5t26.5 78q2 5 1 11.5t-5 6.5t-136.5 -7t-146.5 -7q-7 0 -14.5 8t-5.5 14q0 8 39 47q10 12 141 132.5t233 211.5q28 24 35 31q3 2 14.5 10.5t17.5 13t17.5 12t19.5 11.5t16.5 7.5t13.5 3.5zM1010 307q48 154 88 258q1 4 -2.5 5t-5.5 -1
q-102 -87 -279 -272q-4 -4 -5 -7.5t0.5 -6t4.5 -2.5l182 12q2 0 9 5.5t8 8.5z" />
    <glyph glyph-name="onehalf" unicode="&#xbd;" horiz-adv-x="1390" 
d="M338 1206q0 5 14 14.5t27 10.5q190 29 237 53q10 6 15 -1t2 -15q-20 -60 -53 -160q-28 -82 -64 -207t-47 -176q-11 -53 0.5 -68.5t65.5 -29.5q29 -8 39 -15t10 -20q0 -10 -16.5 -15.5t-37.5 -5.5q-29 0 -77.5 3.5t-69.5 3.5q-44 0 -100 -4.5t-74 -4.5q-15 0 -32 6t-17 19
q0 21 65 35q46 9 65 22.5t36 48.5q24 50 98 285q41 131 49 170q3 17 -12 19q-40 8 -74 8q-49 0 -49 24zM1255 1303q17 0 27.5 -6t11 -12.5t-3.5 -12.5q-91 -110 -1104 -1329q-11 -15 -24 -15q-16 0 -28 19.5t1 36.5q194 236 562 677t517 621q18 21 41 21zM1118 707
q64 0 115 -48t51 -122q0 -62 -34.5 -116t-106.5 -112q-118 -98 -236 -188q-9 -7 -7 -12t11 -5q35 0 130 3.5t104 5.5q30 4 74 57q19 27 34 27q10 0 12.5 -17.5t-5.5 -32.5q-49 -86 -74 -137q-7 -12 -31 -12q-7 0 -137.5 1t-163.5 1h-86q-53 0 -53 23q0 6 8.5 17t17.5 17
q77 53 240 193q91 73 132.5 135.5t41.5 124.5q0 51 -25.5 77.5t-66.5 26.5q-32 0 -63.5 -13t-48 -26t-38.5 -34q-22 -19 -34 -19q-6 0 -10.5 6t-4.5 11q0 22 35 63q100 105 219 105z" />
    <glyph glyph-name="threequarters" unicode="&#xbe;" horiz-adv-x="1304" 
d="M532 1284q74 0 112 -42.5t38 -88.5q0 -25 -9.5 -46t-33 -40t-37.5 -28.5t-49 -28t-41 -21.5q-14 -10 -2 -12q64 -17 105.5 -59t41.5 -109q0 -68 -64.5 -134t-176.5 -106q-61 -24 -150 -24q-56 0 -83.5 38t-24.5 87q0 11 5.5 19.5t12.5 8.5q13 0 25 -10q1 -1 12 -9.5
t14 -11t14 -10.5t15.5 -11t15.5 -10t17.5 -10t16.5 -8t18 -7t17.5 -3.5t18.5 -1.5q61 0 111.5 55t50.5 125q0 63 -33 93t-79 30q-36 0 -56 -4q-5 -1 -11.5 -1.5t-13 0t-11 3.5t-3.5 8q0 17 29 35q13 7 50 25t59 29q108 54 108 145q0 34 -19 54t-59 20q-69 0 -133 -105
q-1 -4 -8.5 -4.5t-11.5 2.5q-7 7 -13 24.5t-6 26.5q0 14 25 39q100 78 196 78zM1290 1303q17 0 27.5 -6t11 -12.5t-3.5 -12.5q-91 -110 -1104 -1329q-11 -15 -24 -15q-16 0 -28 19.5t1 36.5q194 236 562 677t517 621q18 21 41 21zM1208 707q6 0 12 -10.5t3 -20.5
q-1 -3 -23.5 -76t-50 -161.5t-37.5 -123.5q-3 -3 -0.5 -8.5t10.5 -5.5l109 6q4 0 8 -6.5t2 -11.5q-6 -20 -18 -38t-25 -18q-15 0 -96 -6q-14 0 -17 -14q-47 -171 -61 -209q-3 -16 -27 -24q-8 -4 -39 -8.5t-43 -4.5q-7 0 -11.5 8t-0.5 25q1 3 13 40.5t26.5 82.5t26.5 78
q2 5 1 11.5t-5 6.5t-136.5 -7t-146.5 -7q-7 0 -14.5 8t-5.5 14q0 9 38 47q10 11 141 131.5t234 212.5q28 24 35 31q2 2 16.5 12.5t22.5 16t21 13.5t22 12t16 4zM1001 307q44 140 89 258q1 4 -3 5t-6 -1q-97 -83 -278 -272q-4 -4 -5 -7.5t0.5 -6t4.5 -2.5l182 12q2 0 8.5 5.5
t7.5 8.5z" />
    <glyph glyph-name="questiondown" unicode="&#xbf;" horiz-adv-x="739" 
d="M211 -451q-76 0 -166 72q-36 29 -66 89.5t-30 121.5q0 59 35.5 113t76.5 75q69 48 213 132q22 13 36 25.5t21 19t10.5 22.5t3.5 19.5t1 27.5q0 57 -61 166q-2 4 0 9.5t9.5 9t22.5 -1.5q18 -7 39.5 -21t50.5 -41.5t48 -76t18 -107.5q-3 -88 -61 -146q-52 -52 -252 -149
q-127 -60 -127 -139q0 -50 29 -87.5t100 -37.5q55 0 86 57q14 27 27 36t40 9q29 0 50.5 -20.5t21.5 -55.5q0 -50 -52.5 -85.5t-123.5 -35.5zM436 606q-49 0 -76.5 29t-27.5 82q0 57 38.5 93t86.5 36q51 0 76.5 -30t25.5 -75q0 -57 -39.5 -96t-83.5 -39z" />
    <glyph glyph-name="Agrave" unicode="&#xc0;" horiz-adv-x="1302" 
d="M1282 1362q27 0 4 -66q-53 -133 -69 -200q-16 -70 -61.5 -259.5t-81.5 -346.5t-52 -252q-16 -71 -13 -111t30 -57.5t98 -26.5q39 -7 39 -27q0 -22 -62 -22q-34 0 -82.5 3t-87.5 3q-90 0 -174 -7t-111 -7q-17 0 -31.5 6.5t-13.5 13.5q0 9 12.5 17.5t28.5 11.5
q39 5 68 15.5t45.5 21t29.5 31.5t18.5 35t14.5 42q66 215 91 338q2 7 -4.5 16t-14.5 9q-28 0 -142.5 -7.5t-148.5 -11.5q-14 -2 -42.5 -19t-49.5 -38t-87 -105.5t-116 -156.5q-89 -137 58 -166q14 -6 14 -12q0 -10 -13.5 -20.5t-25.5 -10.5q-42 0 -107 2t-116 2
q-24 0 -106 -4t-91 -4q-57 0 -57 28q0 8 15 15t36 8q87 1 140.5 28t121.5 101q136 146 327.5 374.5t342.5 415.5t158 195q37 42 61 76q8 16 12 16q27 4 41.5 7.5t38 12t42.5 25.5t36 43q6 9 18 17t19 8zM647 594q22 0 123.5 5.5t144.5 10.5q24 5 37 37q16 40 49 185.5
t39 185.5q4 25 5.5 37.5t2 20.5t-1 9.5t-4.5 1.5q-13 0 -47 -36q-70 -76 -354 -439q-4 -7 -2.5 -11t4 -5.5t4.5 -1.5zM1073 1683q29 0 74 -51q2 -2 61 -67t88 -103q9 -12 13.5 -30.5t-0.5 -22.5q-12 -8 -30.5 -4t-31.5 14q-84 49 -221 140q-41 33 -41 57q0 8 14 24.5
t35 30.5q24 16 39 12z" />
    <glyph glyph-name="Aacute" unicode="&#xc1;" horiz-adv-x="1302" 
d="M1282 1362q27 0 4 -66q-53 -133 -69 -200q-16 -70 -61.5 -259.5t-81.5 -346.5t-52 -252q-16 -71 -13 -111t30 -57.5t98 -26.5q39 -7 39 -27q0 -22 -62 -22q-34 0 -82.5 3t-87.5 3q-90 0 -174 -7t-111 -7q-17 0 -31.5 6.5t-13.5 13.5q0 9 12.5 17.5t28.5 11.5
q39 5 68 15.5t45.5 21t29.5 31.5t18.5 35t14.5 42q66 215 91 338q2 7 -4.5 16t-14.5 9q-28 0 -142.5 -7.5t-148.5 -11.5q-14 -2 -42.5 -19t-49.5 -38t-87 -105.5t-116 -156.5q-89 -137 58 -166q14 -6 14 -12q0 -10 -13.5 -20.5t-25.5 -10.5q-42 0 -107 2t-116 2
q-24 0 -106 -4t-91 -4q-57 0 -57 28q0 8 15 15t36 8q87 1 140.5 28t121.5 101q136 146 327.5 374.5t342.5 415.5t158 195q37 42 61 76q8 16 12 16q27 4 41.5 7.5t38 12t42.5 25.5t36 43q6 9 18 17t19 8zM647 594q22 0 123.5 5.5t144.5 10.5q24 5 37 37q16 40 49 185.5
t39 185.5q4 25 5.5 37.5t2 20.5t-1 9.5t-4.5 1.5q-13 0 -47 -36q-70 -76 -354 -439q-4 -7 -2.5 -11t4 -5.5t4.5 -1.5zM1567 1626q0 -20 -56 -51q-142 -84 -288 -143q-62 -21 -72 -9q-15 21 27 58q161 136 274 213q11 8 27 11t22 -1q19 -8 43 -32.5t23 -45.5z" />
    <glyph glyph-name="Acircumflex" unicode="&#xc2;" horiz-adv-x="1302" 
d="M1282 1362q27 0 4 -66q-53 -133 -69 -200q-16 -70 -61.5 -259.5t-81.5 -346.5t-52 -252q-16 -71 -13 -111t30 -57.5t98 -26.5q39 -7 39 -27q0 -22 -62 -22q-34 0 -82.5 3t-87.5 3q-90 0 -174 -7t-111 -7q-17 0 -31.5 6.5t-13.5 13.5q0 9 12.5 17.5t28.5 11.5
q39 5 68 15.5t45.5 21t29.5 31.5t18.5 35t14.5 42q66 215 91 338q2 7 -4.5 16t-14.5 9q-28 0 -142.5 -7.5t-148.5 -11.5q-14 -2 -42.5 -19t-49.5 -38t-87 -105.5t-116 -156.5q-89 -137 58 -166q14 -6 14 -12q0 -10 -13.5 -20.5t-25.5 -10.5q-42 0 -107 2t-116 2
q-24 0 -106 -4t-91 -4q-57 0 -57 28q0 8 15 15t36 8q87 1 140.5 28t121.5 101q136 146 327.5 374.5t342.5 415.5t158 195q37 42 61 76q8 16 12 16q27 4 41.5 7.5t38 12t42.5 25.5t36 43q6 9 18 17t19 8zM647 594q22 0 123.5 5.5t144.5 10.5q24 5 37 37q16 40 49 185.5
t39 185.5q4 25 5.5 37.5t2 20.5t-1 9.5t-4.5 1.5q-13 0 -47 -36q-70 -76 -354 -439q-4 -7 -2.5 -11t4 -5.5t4.5 -1.5zM1294 1636q5 0 9.5 -2t7.5 -4t7.5 -7.5t6 -8t5.5 -9.5t5 -8q29 -55 115 -192q12 -23 8 -34t-18 -11q-20 0 -45 22q-73 49 -131 107q-12 8 -23 0
q-89 -53 -237 -113q-32 -12 -54 -12q-14 0 -13 13q0 17 32 38q190 128 250 178q15 14 39 28.5t36 14.5z" />
    <glyph glyph-name="Atilde" unicode="&#xc3;" horiz-adv-x="1302" 
d="M1282 1362q27 0 4 -66q-53 -133 -69 -200q-16 -70 -61.5 -259.5t-81.5 -346.5t-52 -252q-16 -71 -13 -111t30 -57.5t98 -26.5q39 -7 39 -27q0 -22 -62 -22q-34 0 -82.5 3t-87.5 3q-90 0 -174 -7t-111 -7q-17 0 -31.5 6.5t-13.5 13.5q0 9 12.5 17.5t28.5 11.5
q39 5 68 15.5t45.5 21t29.5 31.5t18.5 35t14.5 42q66 215 91 338q2 7 -4.5 16t-14.5 9q-28 0 -142.5 -7.5t-148.5 -11.5q-14 -2 -42.5 -19t-49.5 -38t-87 -105.5t-116 -156.5q-89 -137 58 -166q14 -6 14 -12q0 -10 -13.5 -20.5t-25.5 -10.5q-42 0 -107 2t-116 2
q-24 0 -106 -4t-91 -4q-57 0 -57 28q0 8 15 15t36 8q87 1 140.5 28t121.5 101q136 146 327.5 374.5t342.5 415.5t158 195q37 42 61 76q8 16 12 16q27 4 41.5 7.5t38 12t42.5 25.5t36 43q6 9 18 17t19 8zM647 594q22 0 123.5 5.5t144.5 10.5q24 5 37 37q16 40 49 185.5
t39 185.5q4 25 5.5 37.5t2 20.5t-1 9.5t-4.5 1.5q-13 0 -47 -36q-70 -76 -354 -439q-4 -7 -2.5 -11t4 -5.5t4.5 -1.5zM981 1464q37 63 72 95q22 22 57 22q29 0 83.5 -0.5t78.5 -0.5t53.5 1.5t46.5 5.5q14 4 27.5 12.5t20 14.5t15 15.5t9.5 10.5q3 2 7 7t7 8.5t6 3.5
q12 0 25 -27q3 -4 0 -14t-10 -16q-15 -17 -49 -62t-39 -51q-12 -12 -29.5 -19.5t-24.5 -7.5q-8 0 -83.5 1t-124 0t-62.5 -5q-21 -6 -68 -67q-3 -9 -12 -9t-19 12.5t-10 18.5q0 9 23 51z" />
    <glyph glyph-name="Adieresis" unicode="&#xc4;" horiz-adv-x="1302" 
d="M1282 1362q27 0 4 -66q-53 -133 -69 -200q-16 -70 -61.5 -259.5t-81.5 -346.5t-52 -252q-16 -71 -13 -111t30 -57.5t98 -26.5q39 -7 39 -27q0 -22 -62 -22q-34 0 -82.5 3t-87.5 3q-90 0 -174 -7t-111 -7q-17 0 -31.5 6.5t-13.5 13.5q0 9 12.5 17.5t28.5 11.5
q39 5 68 15.5t45.5 21t29.5 31.5t18.5 35t14.5 42q66 215 91 338q2 7 -4.5 16t-14.5 9q-28 0 -142.5 -7.5t-148.5 -11.5q-14 -2 -42.5 -19t-49.5 -38t-87 -105.5t-116 -156.5q-89 -137 58 -166q14 -6 14 -12q0 -10 -13.5 -20.5t-25.5 -10.5q-42 0 -107 2t-116 2
q-24 0 -106 -4t-91 -4q-57 0 -57 28q0 8 15 15t36 8q87 1 140.5 28t121.5 101q136 146 327.5 374.5t342.5 415.5t158 195q37 42 61 76q8 16 12 16q27 4 41.5 7.5t38 12t42.5 25.5t36 43q6 9 18 17t19 8zM647 594q22 0 123.5 5.5t144.5 10.5q24 5 37 37q16 40 49 185.5
t39 185.5q4 25 5.5 37.5t2 20.5t-1 9.5t-4.5 1.5q-13 0 -47 -36q-70 -76 -354 -439q-4 -7 -2.5 -11t4 -5.5t4.5 -1.5zM1040 1587q38 0 59 -25t19 -65q-3 -38 -36.5 -68t-69.5 -30q-37 0 -57.5 24.5t-18.5 65.5q3 40 35 69t69 29zM1427 1587q36 0 56 -25t18 -65
q-3 -39 -35 -68.5t-67 -29.5q-38 0 -59 25t-19 65q3 41 35 69.5t71 28.5z" />
    <glyph glyph-name="Aring" unicode="&#xc5;" horiz-adv-x="1302" 
d="M1282 1362q27 0 4 -66q-53 -133 -69 -200q-16 -70 -61.5 -259.5t-81.5 -346.5t-52 -252q-16 -71 -13 -111t30 -57.5t98 -26.5q39 -7 39 -27q0 -22 -62 -22q-34 0 -82.5 3t-87.5 3q-90 0 -174 -7t-111 -7q-17 0 -31.5 6.5t-13.5 13.5q0 9 12.5 17.5t28.5 11.5
q39 5 68 15.5t45.5 21t29.5 31.5t18.5 35t14.5 42q66 215 91 338q2 7 -4.5 16t-14.5 9q-28 0 -142.5 -7.5t-148.5 -11.5q-14 -2 -42.5 -19t-49.5 -38t-87 -105.5t-116 -156.5q-89 -137 58 -166q14 -6 14 -12q0 -10 -13.5 -20.5t-25.5 -10.5q-42 0 -107 2t-116 2
q-24 0 -106 -4t-91 -4q-57 0 -57 28q0 8 15 15t36 8q87 1 140.5 28t121.5 101q136 146 327.5 374.5t342.5 415.5t158 195q37 42 61 76q8 16 12 16q27 4 41.5 7.5t38 12t42.5 25.5t36 43q6 9 18 17t19 8zM647 594q22 0 123.5 5.5t144.5 10.5q24 5 37 37q16 40 49 185.5
t39 185.5q4 25 5.5 37.5t2 20.5t-1 9.5t-4.5 1.5q-13 0 -47 -36q-70 -76 -354 -439q-4 -7 -2.5 -11t4 -5.5t4.5 -1.5zM1249 1737q71 0 112.5 -53.5t33.5 -120.5q-11 -68 -62 -113t-123 -45q-75 0 -115.5 50.5t-31.5 119.5q8 67 60 114.5t126 47.5zM1241 1677
q-40 0 -68.5 -30t-33.5 -74q-6 -49 16 -78t59 -29q43 0 72 26.5t35 80.5q3 41 -21 72.5t-59 31.5z" />
    <glyph glyph-name="AE" unicode="&#xc6;" horiz-adv-x="1931" 
d="M1411 1317h127q356 0 410 16q6 2 9.5 -5t3 -17.5t-4.5 -18.5q-46 -83 -62 -223q-5 -35 -28 -35q-28 0 -31 58q-6 82 -20.5 118t-45.5 39q-62 6 -290 6q-64 0 -80 -11t-35 -64q-29 -85 -139 -475q-7 -33 14 -33l244 6q25 1 43.5 2t35.5 5t26.5 5t22 9.5t17 10t16 15.5
t14 17t16.5 23t18 26q22 32 41 32q8 0 12.5 -7.5t3.5 -22.5t-10 -35q-50 -99 -97 -291q-5 -20 -16 -29.5t-20 -9.5q-8 0 -15.5 16t-7.5 39q0 69 -16 92t-58 21l-299 -6q-10 0 -19 -12.5t-11 -22.5q-19 -52 -56.5 -184t-42.5 -160q-20 -89 4 -115q37 -37 250 -37
q130 0 185 9.5t114 42.5q49 26 140 151q3 5 8.5 12t8 10.5t6.5 9t6.5 8.5t6 7t6 6t5.5 4t6 2.5t6 0.5q25 0 8 -62q-13 -42 -43 -112.5t-57 -108.5q-19 -28 -48.5 -36.5t-93.5 -8.5q-45 0 -325.5 3t-341.5 3q-70 0 -146 -3t-77 -3q-23 0 -35 7.5t-12 16.5q0 32 53 37
q36 4 61.5 8.5t44.5 16t29 18t21.5 28t15.5 32.5t16 45q77 210 117 366q3 5 0.5 14t-10.5 9q-333 -9 -361 -12q-28 0 -55 -31q-233 -267 -322 -393q-20 -27 -25.5 -44.5t6 -28.5t26.5 -17t49 -15q39 -11 39 -31q0 -13 -14.5 -19.5t-33.5 -6.5q-1 0 -65 3t-137 3
q-49 0 -121 -3t-86 -3q-24 0 -36.5 6.5t-12.5 13.5q0 15 11 23t40 12q174 32 287 158q70 79 465 523t423 476q23 34 -4 39q-9 2 -56 9t-77 12q-17 2 -37 10.5t-20 19.5t21.5 18t48.5 7q4 0 81.5 -1t184 -2t182.5 -1zM1219 1229q3 25 -29 -5l-14 -14q-106 -112 -251 -274.5
t-212 -251.5q-6 -8 -4.5 -13t4 -7t4.5 -2q14 0 157 5t160 5q4 0 8.5 2t10 9.5t8.5 18.5q1 6 76 250.5t82 276.5z" />
    <glyph glyph-name="Ccedilla" unicode="&#xc7;" horiz-adv-x="1347" 
d="M743 -31q-33 -33 -50.5 -52t-35.5 -48.5t-18 -52.5q0 -16 6.5 -34.5t12.5 -30t24 -44.5q27 -52 27 -88q0 -28 -33.5 -66t-73.5 -61q-55 -37 -86 -37q-40 0 -79.5 35t-39.5 80q0 35 19 35q15 0 43 -25q58 -49 92 -49q21 0 29 9.5t8 33.5q0 40 -49 119q-27 47 -27 78
q0 24 6 36.5t27 38.5q34 36 125 117h-21q-61 0 -124 17.5t-127 58t-114 99t-81 149t-31 200.5q0 174 75 338t208 289q121 117 273.5 178.5t311.5 61.5q154 0 283 -54q30 -13 44.5 -14t41.5 12q37 21 49 9q13 -19 0 -43q-29 -51 -61.5 -128t-40.5 -110q-15 -55 -41 -55
q-24 0 -17 61q9 60 0 103.5t-41 83.5q-65 84 -202 84q-232 0 -453 -218q-112 -115 -174.5 -287.5t-62.5 -330.5q0 -97 26 -176t65.5 -127t90 -80.5t95.5 -45.5t85 -13q79 0 150 33.5t114 72.5q159 152 166 158q20 18 39 18t6 -47q-16 -57 -158 -270q-26 -34 -59 -8
q-19 17 -35 21.5t-53 -1.5q-2 0 -57.5 -13.5t-96.5 -19.5z" />
    <glyph glyph-name="Egrave" unicode="&#xc8;" horiz-adv-x="1226" 
d="M553 690l231 8q56 2 89.5 7.5t58.5 21.5t37.5 30t36.5 48q23 33 45 33q8 0 10 -12t-1.5 -30t-12.5 -34q-62 -113 -97 -266q-11 -41 -30 -41q-11 0 -18.5 14t-6.5 45q4 65 -18 86t-62 21l-264 -7q-58 0 -70 -39q-17 -49 -34 -111t-36 -137t-28 -108q-21 -82 4 -119
q15 -22 28.5 -30t39.5 -9q147 -10 299 -10q86 0 141 37q96 47 174 158q13 19 17 25t11.5 14.5t12.5 11t12 2.5q20 0 8 -55q-12 -50 -41 -111t-55 -90q-39 -42 -57 -45q-54 -12 -92 -12q-45 0 -318 7t-334 7q-65 0 -150.5 -6t-109.5 -6q-26 0 -42.5 7.5t-16.5 18.5
q0 10 17 18t46 11q61 5 99 15.5t61 33t33.5 45t24.5 66.5q40 119 149.5 466t138.5 433q11 33 15 52.5t2 42t-16.5 36t-44 24.5t-77.5 17q-53 4 -53 29q0 20 66 20q19 0 99.5 -3t139.5 -3h191q242 0 331 3.5t138 16.5q4 1 7.5 -5.5t5.5 -14.5t1 -12q-29 -52 -57 -129.5
t-31 -106.5q0 -5 -5 -10.5t-11 -5.5q-12 0 -27 16.5t-16 42.5q-6 86 -15 104q-9 20 -32 29q-22 10 -68.5 12.5t-187.5 2.5q-61 0 -90 -9t-48 -34q-10 -14 -27.5 -58.5t-40 -113.5t-38.5 -119t-39 -124.5t-25 -82.5q-3 -7 6 -18t17 -11zM764 1683q29 0 74 -51q2 -2 61 -67
t88 -103q9 -12 13 -30.5t-1 -22.5q-12 -8 -29.5 -4t-31.5 14q-84 49 -221 140q-41 33 -41 57q0 8 14 24.5t35 30.5q24 16 39 12z" />
    <glyph glyph-name="Eacute" unicode="&#xc9;" horiz-adv-x="1226" 
d="M553 690l231 8q56 2 89.5 7.5t58.5 21.5t37.5 30t36.5 48q23 33 45 33q8 0 10 -12t-1.5 -30t-12.5 -34q-62 -113 -97 -266q-11 -41 -30 -41q-11 0 -18.5 14t-6.5 45q4 65 -18 86t-62 21l-264 -7q-58 0 -70 -39q-17 -49 -34 -111t-36 -137t-28 -108q-21 -82 4 -119
q15 -22 28.5 -30t39.5 -9q147 -10 299 -10q86 0 141 37q96 47 174 158q13 19 17 25t11.5 14.5t12.5 11t12 2.5q20 0 8 -55q-12 -50 -41 -111t-55 -90q-39 -42 -57 -45q-54 -12 -92 -12q-45 0 -318 7t-334 7q-65 0 -150.5 -6t-109.5 -6q-26 0 -42.5 7.5t-16.5 18.5
q0 10 17 18t46 11q61 5 99 15.5t61 33t33.5 45t24.5 66.5q40 119 149.5 466t138.5 433q11 33 15 52.5t2 42t-16.5 36t-44 24.5t-77.5 17q-53 4 -53 29q0 20 66 20q19 0 99.5 -3t139.5 -3h191q242 0 331 3.5t138 16.5q4 1 7.5 -5.5t5.5 -14.5t1 -12q-29 -52 -57 -129.5
t-31 -106.5q0 -5 -5 -10.5t-11 -5.5q-12 0 -27 16.5t-16 42.5q-6 86 -15 104q-9 20 -32 29q-22 10 -68.5 12.5t-187.5 2.5q-61 0 -90 -9t-48 -34q-10 -14 -27.5 -58.5t-40 -113.5t-38.5 -119t-39 -124.5t-25 -82.5q-3 -7 6 -18t17 -11zM1171 1628q0 -20 -55 -51
q-140 -83 -289 -143q-61 -20 -71 -9q-16 21 26 58q157 132 275 213q11 8 27 11t22 -1q19 -8 42.5 -32.5t22.5 -45.5z" />
    <glyph glyph-name="Ecircumflex" unicode="&#xca;" horiz-adv-x="1226" 
d="M553 690l231 8q56 2 89.5 7.5t58.5 21.5t37.5 30t36.5 48q23 33 45 33q8 0 10 -12t-1.5 -30t-12.5 -34q-62 -113 -97 -266q-11 -41 -30 -41q-11 0 -18.5 14t-6.5 45q4 65 -18 86t-62 21l-264 -7q-58 0 -70 -39q-17 -49 -34 -111t-36 -137t-28 -108q-21 -82 4 -119
q15 -22 28.5 -30t39.5 -9q147 -10 299 -10q86 0 141 37q96 47 174 158q13 19 17 25t11.5 14.5t12.5 11t12 2.5q20 0 8 -55q-12 -50 -41 -111t-55 -90q-39 -42 -57 -45q-54 -12 -92 -12q-45 0 -318 7t-334 7q-65 0 -150.5 -6t-109.5 -6q-26 0 -42.5 7.5t-16.5 18.5
q0 10 17 18t46 11q61 5 99 15.5t61 33t33.5 45t24.5 66.5q40 119 149.5 466t138.5 433q11 33 15 52.5t2 42t-16.5 36t-44 24.5t-77.5 17q-53 4 -53 29q0 20 66 20q19 0 99.5 -3t139.5 -3h191q242 0 331 3.5t138 16.5q4 1 7.5 -5.5t5.5 -14.5t1 -12q-29 -52 -57 -129.5
t-31 -106.5q0 -5 -5 -10.5t-11 -5.5q-12 0 -27 16.5t-16 42.5q-6 86 -15 104q-9 20 -32 29q-22 10 -68.5 12.5t-187.5 2.5q-61 0 -90 -9t-48 -34q-10 -14 -27.5 -58.5t-40 -113.5t-38.5 -119t-39 -124.5t-25 -82.5q-3 -7 6 -18t17 -11zM958 1690q5 0 9.5 -2t7.5 -4t7.5 -7.5
t6 -8t5.5 -9.5t5 -8q32 -61 115 -193q12 -23 8 -34t-18 -11q-19 0 -45 23q-77 52 -131 106q-12 8 -23 0q-84 -49 -237 -112q-35 -13 -54 -13q-14 0 -13 13q0 17 32 38q184 124 250 179q15 14 39 28.5t36 14.5z" />
    <glyph glyph-name="Edieresis" unicode="&#xcb;" horiz-adv-x="1226" 
d="M553 690l231 8q56 2 89.5 7.5t58.5 21.5t37.5 30t36.5 48q23 33 45 33q8 0 10 -12t-1.5 -30t-12.5 -34q-62 -113 -97 -266q-11 -41 -30 -41q-11 0 -18.5 14t-6.5 45q4 65 -18 86t-62 21l-264 -7q-58 0 -70 -39q-17 -49 -34 -111t-36 -137t-28 -108q-21 -82 4 -119
q15 -22 28.5 -30t39.5 -9q147 -10 299 -10q86 0 141 37q96 47 174 158q13 19 17 25t11.5 14.5t12.5 11t12 2.5q20 0 8 -55q-12 -50 -41 -111t-55 -90q-39 -42 -57 -45q-54 -12 -92 -12q-45 0 -318 7t-334 7q-65 0 -150.5 -6t-109.5 -6q-26 0 -42.5 7.5t-16.5 18.5
q0 10 17 18t46 11q61 5 99 15.5t61 33t33.5 45t24.5 66.5q40 119 149.5 466t138.5 433q11 33 15 52.5t2 42t-16.5 36t-44 24.5t-77.5 17q-53 4 -53 29q0 20 66 20q19 0 99.5 -3t139.5 -3h191q242 0 331 3.5t138 16.5q4 1 7.5 -5.5t5.5 -14.5t1 -12q-29 -52 -57 -129.5
t-31 -106.5q0 -5 -5 -10.5t-11 -5.5q-12 0 -27 16.5t-16 42.5q-6 86 -15 104q-9 20 -32 29q-22 10 -68.5 12.5t-187.5 2.5q-61 0 -90 -9t-48 -34q-10 -14 -27.5 -58.5t-40 -113.5t-38.5 -119t-39 -124.5t-25 -82.5q-3 -7 6 -18t17 -11zM709 1630q38 0 58.5 -25t18.5 -65
q-3 -38 -36.5 -68t-69.5 -30q-37 0 -57.5 24.5t-18.5 65.5q3 40 35.5 69t69.5 29zM1096 1630q36 0 55.5 -24.5t17.5 -65.5q-3 -39 -35 -68.5t-67 -29.5q-38 0 -59 25t-19 65q3 40 35.5 69t71.5 29z" />
    <glyph glyph-name="Igrave" unicode="&#xcc;" horiz-adv-x="700" 
d="M326 1298q0 9 14.5 16t42.5 7q39 0 94 -2t88 -2q64 0 147 3t103 3q53 0 53 -18q0 -24 -61 -35q-80 -13 -104.5 -36t-57.5 -108q-33 -83 -135.5 -448t-122.5 -465q-12 -49 -13.5 -78t10.5 -47t31 -26t56 -15q24 -4 36.5 -13t12.5 -18q0 -22 -59 -22q-39 0 -93 3t-87 3
q-46 0 -140.5 -5t-124.5 -5q-57 0 -57 22q0 8 15.5 17t37.5 12q89 12 124.5 45.5t72.5 136.5q29 76 126.5 414.5t125.5 458.5q23 95 8 129t-84 43q-57 9 -59 30zM477 1683q29 0 74 -51q2 -2 61 -67t88 -103q9 -12 13.5 -30.5t-0.5 -22.5q-12 -8 -30.5 -4t-31.5 14
q-84 49 -221 140q-41 33 -41 57q0 8 14 24.5t35 30.5q24 16 39 12z" />
    <glyph glyph-name="Iacute" unicode="&#xcd;" horiz-adv-x="700" 
d="M326 1298q0 9 14.5 16t42.5 7q39 0 94 -2t88 -2q64 0 147 3t103 3q53 0 53 -18q0 -24 -61 -35q-80 -13 -104.5 -36t-57.5 -108q-33 -83 -135.5 -448t-122.5 -465q-12 -49 -13.5 -78t10.5 -47t31 -26t56 -15q24 -4 36.5 -13t12.5 -18q0 -22 -59 -22q-39 0 -93 3t-87 3
q-46 0 -140.5 -5t-124.5 -5q-57 0 -57 22q0 8 15.5 17t37.5 12q89 12 124.5 45.5t72.5 136.5q29 76 126.5 414.5t125.5 458.5q23 95 8 129t-84 43q-57 9 -59 30zM954 1610q0 -20 -55 -51q-145 -86 -289 -144q-61 -20 -71 -8q-15 21 26 57q157 132 275 213q11 8 27 11.5
t22 -0.5q19 -8 42.5 -32.5t22.5 -45.5z" />
    <glyph glyph-name="Icircumflex" unicode="&#xce;" horiz-adv-x="700" 
d="M326 1298q0 9 14.5 16t42.5 7q39 0 94 -2t88 -2q64 0 147 3t103 3q53 0 53 -18q0 -24 -61 -35q-80 -13 -104.5 -36t-57.5 -108q-33 -83 -135.5 -448t-122.5 -465q-12 -49 -13.5 -78t10.5 -47t31 -26t56 -15q24 -4 36.5 -13t12.5 -18q0 -22 -59 -22q-39 0 -93 3t-87 3
q-46 0 -140.5 -5t-124.5 -5q-57 0 -57 22q0 8 15.5 17t37.5 12q89 12 124.5 45.5t72.5 136.5q29 76 126.5 414.5t125.5 458.5q23 95 8 129t-84 43q-57 9 -59 30zM707 1679q5 0 9.5 -2t7.5 -4t7.5 -7.5t6 -8t5.5 -9.5t5 -8q34 -64 114 -192q12 -23 8 -34t-18 -11
q-20 0 -45 22q-73 50 -131 107q-12 8 -23 0q-89 -53 -237 -113q-32 -12 -54 -12q-14 0 -13 13q2 18 32 38q190 128 250 178q15 13 39.5 28t36.5 15z" />
    <glyph glyph-name="Idieresis" unicode="&#xcf;" horiz-adv-x="700" 
d="M326 1298q0 9 14.5 16t42.5 7q39 0 94 -2t88 -2q64 0 147 3t103 3q53 0 53 -18q0 -24 -61 -35q-80 -13 -104.5 -36t-57.5 -108q-33 -83 -135.5 -448t-122.5 -465q-12 -49 -13.5 -78t10.5 -47t31 -26t56 -15q24 -4 36.5 -13t12.5 -18q0 -22 -59 -22q-39 0 -93 3t-87 3
q-46 0 -140.5 -5t-124.5 -5q-57 0 -57 22q0 8 15.5 17t37.5 12q89 12 124.5 45.5t72.5 136.5q29 76 126.5 414.5t125.5 458.5q23 95 8 129t-84 43q-57 9 -59 30zM457 1620q38 0 59 -25t19 -65q-3 -37 -37 -67.5t-70 -30.5q-37 0 -57.5 24.5t-18.5 65.5q3 40 35.5 69t69.5 29
zM844 1620q36 0 56 -25t18 -65q-3 -39 -35.5 -68.5t-67.5 -29.5q-38 0 -59 25t-19 65q3 40 35.5 69t71.5 29z" />
    <glyph glyph-name="Eth" unicode="&#xd0;" horiz-adv-x="1495" 
d="M797 1329q284 0 450 -129q103 -79 153 -194t50 -250q0 -199 -106 -370.5t-254 -262.5q-121 -72 -256.5 -102.5t-303.5 -30.5q-59 0 -152.5 5t-133.5 5q-46 0 -133.5 -3t-102.5 -3q-76 0 -76 22q0 30 70 33q47 2 76 8.5t50.5 17t37.5 37.5t27.5 56t29.5 86
q9 29 47.5 152.5t63.5 205.5q4 31 -10 31l-154 -4q-9 0 -12.5 14t4.5 31q13 29 31 29l157 4q7 0 13 8t8 16q85 283 114 389q32 115 -32 127q-34 7 -115 11q-24 2 -41.5 9t-17.5 17q0 11 20.5 18t54.5 7q18 0 70.5 -1t81.5 -1q25 0 131.5 6t159.5 6zM795 1272
q-49 0 -69.5 -11t-31.5 -40q-44 -103 -159 -486q-5 -18 8 -18l331 6q22 0 17 -29q-3 -21 -15.5 -32t-23.5 -11l-332 -8q-6 0 -13.5 -10.5t-10.5 -22.5q-93 -317 -105 -415q-6 -38 8 -71.5t41 -47.5q80 -37 142 -37q73 0 182 33.5t199 95.5q131 95 214 260.5t83 359.5
q0 118 -38 224t-116 168q-56 43 -140.5 67.5t-170.5 24.5z" />
    <glyph glyph-name="Ntilde" unicode="&#xd1;" horiz-adv-x="1546" 
d="M285 1300q0 23 69 23q28 0 101.5 -3t130.5 -3q64 0 96 4q8 2 22.5 -16t22.5 -45q33 -102 192 -505.5t201 -490.5q4 -10 11 -11.5t10 5.5q65 185 151 484.5t99 373.5q15 85 -8.5 115.5t-120.5 42.5q-62 7 -62 29t57 22q31 0 100.5 -4t96.5 -4q117 0 219 8q19 2 33.5 -1
t20.5 -8.5t6 -10.5q0 -11 -14 -18t-48 -15q-38 -8 -59.5 -16.5t-48.5 -29.5t-49.5 -60.5t-45.5 -102.5q-101 -282 -266 -854q-12 -40 -12 -64q0 -56 67 -98q3 -2 9 -5.5t8.5 -5t6.5 -4t5 -5t2.5 -5.5t1.5 -6q0 -22 -45 -22q-15 0 -54 2t-44 2q-74 0 -98 -4q-9 0 -20.5 9.5
t-12.5 19.5q-10 66 -60 182q-18 45 -130.5 339.5t-166.5 432.5q-8 19 -19 49t-17.5 47.5t-14 33.5t-12.5 21q-5 7 -15 0t-14 -16q-42 -118 -128.5 -426t-104.5 -414q-19 -119 2.5 -164.5t107.5 -62.5q38 -7 51 -14.5t13 -18.5q0 -24 -66 -24q-22 0 -95.5 6t-115.5 6
q-43 0 -122.5 -6t-106.5 -6q-65 0 -65 26q0 22 57 29q93 13 144.5 48t78.5 120q267 835 277 874q22 85 18 107q-7 26 -17.5 40t-37.5 21q-9 2 -113 19q-59 10 -59 28zM848 1481q36 61 72 94q22 22 57 22h68h65.5t50 0.5t46.5 2t32 4.5q14 4 27.5 12.5t20 14.5t15 15.5
t9.5 10.5q3 2 7 7t7 8t6 3q12 0 25 -26q3 -4 0 -14.5t-10 -16.5q-15 -17 -50.5 -63t-38.5 -50q-12 -12 -29 -19t-24 -7q-8 0 -83.5 1t-124 0t-62.5 -5q-20 -6 -68 -68q-3 -8 -12 -8t-19 12.5t-10 18.5q0 9 23 51z" />
    <glyph glyph-name="Ograve" unicode="&#xd2;" horiz-adv-x="1400" 
d="M950 1358q186 0 307 -138.5t121 -365.5q0 -138 -51.5 -291.5t-152.5 -293.5t-230 -216q-158 -94 -332 -94q-202 0 -317 115q-139 139 -139 375q0 122 41 260t128 275.5t203 225.5q192 148 422 148zM950 1300q-149 0 -295 -137q-152 -144 -238.5 -365.5t-86.5 -461.5
q0 -46 7.5 -88.5t27 -85.5t49.5 -74.5t79 -51.5t111 -20q71 0 139.5 33.5t147.5 104.5q110 98 213.5 338.5t103.5 461.5q0 44 -6.5 87.5t-24.5 91.5t-45.5 84t-74.5 59.5t-107 23.5zM899 1704q29 0 74 -51q2 -2 61 -67t88 -103q9 -12 13.5 -30.5t-0.5 -22.5q-12 -8 -30.5 -4
t-31.5 14q-96 55 -221 139q-41 33 -41 57q0 8 14 25t35 31q24 16 39 12z" />
    <glyph glyph-name="Oacute" unicode="&#xd3;" horiz-adv-x="1400" 
d="M950 1358q186 0 307 -138.5t121 -365.5q0 -138 -51.5 -291.5t-152.5 -293.5t-230 -216q-158 -94 -332 -94q-202 0 -317 115q-139 139 -139 375q0 122 41 260t128 275.5t203 225.5q192 148 422 148zM950 1300q-149 0 -295 -137q-152 -144 -238.5 -365.5t-86.5 -461.5
q0 -46 7.5 -88.5t27 -85.5t49.5 -74.5t79 -51.5t111 -20q71 0 139.5 33.5t147.5 104.5q110 98 213.5 338.5t103.5 461.5q0 44 -6.5 87.5t-24.5 91.5t-45.5 84t-74.5 59.5t-107 23.5zM1276 1630q0 -20 -55 -51q-140 -83 -289 -143q-62 -21 -72 -9q-15 21 27 58
q161 136 274 213q11 8 27 11t22 -1q19 -8 43 -32.5t23 -45.5z" />
    <glyph glyph-name="Ocircumflex" unicode="&#xd4;" horiz-adv-x="1400" 
d="M950 1358q186 0 307 -138.5t121 -365.5q0 -138 -51.5 -291.5t-152.5 -293.5t-230 -216q-158 -94 -332 -94q-202 0 -317 115q-139 139 -139 375q0 122 41 260t128 275.5t203 225.5q192 148 422 148zM950 1300q-149 0 -295 -137q-152 -144 -238.5 -365.5t-86.5 -461.5
q0 -46 7.5 -88.5t27 -85.5t49.5 -74.5t79 -51.5t111 -20q71 0 139.5 33.5t147.5 104.5q110 98 213.5 338.5t103.5 461.5q0 44 -6.5 87.5t-24.5 91.5t-45.5 84t-74.5 59.5t-107 23.5zM1081 1692q5 0 9.5 -2t7.5 -4t7.5 -7.5t6 -8t5.5 -9.5t5 -8q32 -61 115 -193q12 -23 8 -34
t-18 -11q-19 0 -45 23q-77 52 -131 106q-11 8 -23 0q-84 -49 -237 -112q-35 -13 -54 -13q-14 0 -13 13q0 17 32 38q184 124 250 179q15 14 39 28.5t36 14.5z" />
    <glyph glyph-name="Otilde" unicode="&#xd5;" horiz-adv-x="1400" 
d="M950 1358q186 0 307 -138.5t121 -365.5q0 -138 -51.5 -291.5t-152.5 -293.5t-230 -216q-158 -94 -332 -94q-202 0 -317 115q-139 139 -139 375q0 122 41 260t128 275.5t203 225.5q192 148 422 148zM950 1300q-149 0 -295 -137q-152 -144 -238.5 -365.5t-86.5 -461.5
q0 -46 7.5 -88.5t27 -85.5t49.5 -74.5t79 -51.5t111 -20q71 0 139.5 33.5t147.5 104.5q110 98 213.5 338.5t103.5 461.5q0 44 -6.5 87.5t-24.5 91.5t-45.5 84t-74.5 59.5t-107 23.5zM772 1497q36 61 72 94q23 23 57 23q29 0 83.5 -0.5t78.5 -0.5t53.5 1.5t46.5 5.5
q14 4 27.5 12.5t20 14.5t15 15.5t9.5 10.5q3 2 7 7t7 8.5t6 3.5q11 0 25 -27q3 -4 0 -14.5t-10 -16.5q-15 -17 -50 -62.5t-38 -49.5q-12 -12 -29.5 -19.5t-24.5 -7.5q-8 0 -83.5 1t-124 0t-62.5 -5q-19 -5 -67 -68q-3 -8 -13 -8q-9 0 -18.5 12.5t-9.5 18.5q0 11 22 51z" />
    <glyph glyph-name="Odieresis" unicode="&#xd6;" horiz-adv-x="1400" 
d="M950 1358q186 0 307 -138.5t121 -365.5q0 -138 -51.5 -291.5t-152.5 -293.5t-230 -216q-158 -94 -332 -94q-202 0 -317 115q-139 139 -139 375q0 122 41 260t128 275.5t203 225.5q192 148 422 148zM950 1300q-149 0 -295 -137q-152 -144 -238.5 -365.5t-86.5 -461.5
q0 -46 7.5 -88.5t27 -85.5t49.5 -74.5t79 -51.5t111 -20q71 0 139.5 33.5t147.5 104.5q110 98 213.5 338.5t103.5 461.5q0 44 -6.5 87.5t-24.5 91.5t-45.5 84t-74.5 59.5t-107 23.5zM840 1632q38 0 59 -25t19 -65q-3 -37 -37 -67.5t-70 -30.5q-37 0 -57.5 24.5t-18.5 65.5
q3 40 35.5 69t69.5 29zM1227 1632q36 0 55.5 -24.5t17.5 -65.5q-3 -39 -35 -68.5t-67 -29.5q-38 0 -59 25t-19 65q3 40 35.5 69t71.5 29z" />
    <glyph glyph-name="multiply" unicode="&#xd7;" horiz-adv-x="1277" 
d="M242 874q-8 7 7.5 29.5t35.5 42.5q15 15 25.5 15.5t33.5 -19.5l338 -332q4 -4 13 -4t14 4l335 346q22 22 39 5t27 -35t10.5 -27.5t-2.5 -15.5l-340 -355q-12 -12 8 -32l338 -340q13 -11 7.5 -30.5t-15.5 -35t-24 -29.5q-17 -17 -39 5l-361 356q-18 18 -30 0l-330 -330
q-20 -20 -29 -22t-24 12t-25.5 40.5t-3.5 35.5l336 338q15 19 0 34z" />
    <glyph glyph-name="Oslash" unicode="&#xd8;" horiz-adv-x="1400" 
d="M944 1358q118 0 230 -66q10 -5 20 8l57 80q9 15 33 15q8 0 25 -15t10 -26l-74 -103q-2 -2 -3 -9t3 -11q61 -61 99 -160.5t38 -216.5q0 -146 -54 -303t-152.5 -290.5t-219.5 -205.5q-161 -96 -344 -96q-146 0 -239 57q-11 8 -23 -4q-14 -19 -41.5 -53t-42.5 -55
q-2 -4 -18.5 -3.5t-24.5 7.5q-14 10 -16.5 24t4.5 19q13 19 37.5 53t38.5 53q9 15 2 25q-57 58 -95 152.5t-38 216.5q0 196 99.5 411.5t272.5 347.5q192 148 416 148zM422 86q74 -70 178 -70q149 0 299 136q52 47 104.5 124t100 177.5t77 228t29.5 254.5q0 39 -9.5 101.5
t-22.5 92.5q0 1 -3.5 1t-8.5 -1t-9 -4l-735 -1015q-12 -16 0 -25zM950 1300q-74 0 -154.5 -35t-152.5 -102q-156 -147 -236.5 -358.5t-80.5 -466.5q0 -57 32 -160q3 -7 10 -7.5t13 7.5l741 1022q12 17 0 29q-64 71 -172 71z" />
    <glyph glyph-name="Ugrave" unicode="&#xd9;" horiz-adv-x="1470" 
d="M295 1303q0 20 61 20q35 0 112 -3t105 -3q21 0 96 4t109 4q51 0 51 -22q0 -17 -57 -29q-55 -9 -85.5 -35t-53.5 -86q-43 -112 -176 -594q-71 -263 -17 -362q33 -57 115.5 -96.5t163.5 -39.5q281 0 389 248q59 138 139.5 383t104.5 365q8 40 11.5 66.5t5 48.5t-4.5 35.5
t-13 24t-23.5 17t-34 10.5t-46.5 9q-57 9 -57 28q0 23 55 23q29 0 81 -1t81 -1q37 0 115.5 4t115.5 4q54 0 54 -22q2 -9 -14.5 -18t-43.5 -13q-69 -10 -103.5 -49t-80.5 -156q-27 -69 -78 -212.5t-104 -297.5t-62 -178q-3 -7 -18 -47t-19.5 -49.5t-18 -40.5t-23 -45.5
t-25.5 -36t-33 -39.5q-48 -49 -102.5 -82t-111.5 -48.5t-106 -21.5t-106 -6q-46 0 -93.5 9t-96.5 28.5t-91.5 55t-68.5 83.5q-36 62 -45 138t2 110q12 61 44.5 179t86 300t55.5 189q15 48 21 76t6 56t-11.5 42.5t-35.5 25t-64 15.5q-57 8 -57 33zM924 1692q27 0 73 -52
q5 -5 63 -69t87 -101q9 -12 13 -30.5t-1 -22.5q-12 -8 -29.5 -4t-31.5 14q-84 49 -221 140q-41 33 -41 57q0 8 14 24.5t35 30.5q25 17 39 13z" />
    <glyph glyph-name="Uacute" unicode="&#xda;" horiz-adv-x="1470" 
d="M295 1303q0 20 61 20q35 0 112 -3t105 -3q21 0 96 4t109 4q51 0 51 -22q0 -17 -57 -29q-55 -9 -85.5 -35t-53.5 -86q-43 -112 -176 -594q-71 -263 -17 -362q33 -57 115.5 -96.5t163.5 -39.5q281 0 389 248q59 138 139.5 383t104.5 365q8 40 11.5 66.5t5 48.5t-4.5 35.5
t-13 24t-23.5 17t-34 10.5t-46.5 9q-57 9 -57 28q0 23 55 23q29 0 81 -1t81 -1q37 0 115.5 4t115.5 4q54 0 54 -22q2 -9 -14.5 -18t-43.5 -13q-69 -10 -103.5 -49t-80.5 -156q-27 -69 -78 -212.5t-104 -297.5t-62 -178q-3 -7 -18 -47t-19.5 -49.5t-18 -40.5t-23 -45.5
t-25.5 -36t-33 -39.5q-48 -49 -102.5 -82t-111.5 -48.5t-106 -21.5t-106 -6q-46 0 -93.5 9t-96.5 28.5t-91.5 55t-68.5 83.5q-36 62 -45 138t2 110q12 61 44.5 179t86 300t55.5 189q15 48 21 76t6 56t-11.5 42.5t-35.5 25t-64 15.5q-57 8 -57 33zM1343 1610q0 -20 -55 -51
q-145 -86 -289 -144q-61 -20 -71 -8q-15 21 26 57q157 132 275 213q11 8 27 11.5t22 -0.5q19 -8 42.5 -32.5t22.5 -45.5z" />
    <glyph glyph-name="Ucircumflex" unicode="&#xdb;" horiz-adv-x="1470" 
d="M295 1303q0 20 61 20q35 0 112 -3t105 -3q21 0 96 4t109 4q51 0 51 -22q0 -17 -57 -29q-55 -9 -85.5 -35t-53.5 -86q-43 -112 -176 -594q-71 -263 -17 -362q33 -57 115.5 -96.5t163.5 -39.5q281 0 389 248q59 138 139.5 383t104.5 365q8 40 11.5 66.5t5 48.5t-4.5 35.5
t-13 24t-23.5 17t-34 10.5t-46.5 9q-57 9 -57 28q0 23 55 23q29 0 81 -1t81 -1q37 0 115.5 4t115.5 4q54 0 54 -22q2 -9 -14.5 -18t-43.5 -13q-69 -10 -103.5 -49t-80.5 -156q-27 -69 -78 -212.5t-104 -297.5t-62 -178q-3 -7 -18 -47t-19.5 -49.5t-18 -40.5t-23 -45.5
t-25.5 -36t-33 -39.5q-48 -49 -102.5 -82t-111.5 -48.5t-106 -21.5t-106 -6q-46 0 -93.5 9t-96.5 28.5t-91.5 55t-68.5 83.5q-36 62 -45 138t2 110q12 61 44.5 179t86 300t55.5 189q15 48 21 76t6 56t-11.5 42.5t-35.5 25t-64 15.5q-57 8 -57 33zM1145 1692q5 0 9.5 -2
t7.5 -4t7.5 -7.5t6 -8t5.5 -9.5t5 -8q37 -70 114 -193q12 -23 8 -34t-18 -11q-19 0 -45 23q-77 52 -131 106q-11 7 -22 0q-82 -48 -238 -112q-35 -13 -53 -13q-14 0 -14 13q2 18 32 38q184 124 250 179q15 13 39.5 28t36.5 15z" />
    <glyph glyph-name="Udieresis" unicode="&#xdc;" horiz-adv-x="1470" 
d="M295 1303q0 20 61 20q35 0 112 -3t105 -3q21 0 96 4t109 4q51 0 51 -22q0 -17 -57 -29q-55 -9 -85.5 -35t-53.5 -86q-43 -112 -176 -594q-71 -263 -17 -362q33 -57 115.5 -96.5t163.5 -39.5q281 0 389 248q59 138 139.5 383t104.5 365q8 40 11.5 66.5t5 48.5t-4.5 35.5
t-13 24t-23.5 17t-34 10.5t-46.5 9q-57 9 -57 28q0 23 55 23q29 0 81 -1t81 -1q37 0 115.5 4t115.5 4q54 0 54 -22q2 -9 -14.5 -18t-43.5 -13q-69 -10 -103.5 -49t-80.5 -156q-27 -69 -78 -212.5t-104 -297.5t-62 -178q-3 -7 -18 -47t-19.5 -49.5t-18 -40.5t-23 -45.5
t-25.5 -36t-33 -39.5q-48 -49 -102.5 -82t-111.5 -48.5t-106 -21.5t-106 -6q-46 0 -93.5 9t-96.5 28.5t-91.5 55t-68.5 83.5q-36 62 -45 138t2 110q12 61 44.5 179t86 300t55.5 189q15 48 21 76t6 56t-11.5 42.5t-35.5 25t-64 15.5q-57 8 -57 33zM883 1624q38 0 59 -25
t19 -65q-3 -37 -37 -67.5t-70 -30.5q-37 0 -57.5 24.5t-18.5 65.5q3 40 35.5 69t69.5 29zM1270 1624q36 0 55.5 -24.5t17.5 -65.5q-3 -39 -35 -68.5t-67 -29.5q-38 0 -59 25t-19 65q3 40 35.5 69t71.5 29z" />
    <glyph glyph-name="Yacute" unicode="&#xdd;" horiz-adv-x="1216" 
d="M240 1303q3 20 59 20q21 0 100 -3t119 -3q56 0 113 2t69 2q46 0 50 -18q0 -22 -50 -31q-68 -14 -84.5 -42t-5.5 -73q5 -20 30 -129.5t46.5 -194t36.5 -118.5q4 -8 16 -4q313 359 371 448q61 94 -41 115q-49 6 -49 31q0 18 59 18q8 0 59.5 -3t100.5 -3q27 0 105.5 4
t91.5 4q51 0 51 -18q0 -21 -62 -35q-81 -16 -121.5 -45t-156.5 -144q-119 -114 -377 -419q-44 -51 -65 -129q-93 -340 -97 -361q-2 -10 -2.5 -21t4 -30t14.5 -34t34 -28t59 -18q63 -8 63 -31q0 -22 -71 -22q-24 0 -126 5t-118 5q-38 0 -114 -5t-115 -5q-58 0 -58 26
q0 19 62 27q37 4 63.5 9.5t47 18t33 24t25.5 36.5t21 46t21 61l88 266q21 62 26 101t-2 73q-19 143 -102 401q-37 117 -66.5 151t-103.5 44q-51 8 -51 29zM1214 1628q0 -20 -55 -51q-140 -83 -289 -143q-61 -20 -71 -9q-16 21 26 58q157 132 275 213q11 8 27 11t22 -1
q19 -8 42.5 -32.5t22.5 -45.5z" />
    <glyph glyph-name="Thorn" unicode="&#xde;" horiz-adv-x="1114" 
d="M342 1305q0 18 55 18q19 0 78.5 -3t95.5 -3q51 0 153 3t118 3q37 0 37 -20q2 -10 -10.5 -17.5t-41.5 -11.5q-36 -5 -56.5 -9t-41 -15t-31 -23t-24.5 -40t-23.5 -58.5t-25.5 -84.5q-2 -6 2.5 -11t11.5 -5q8 0 31 1t35 1q183 0 276 -72q60 -47 89.5 -111t29.5 -130
q0 -61 -18.5 -116.5t-46 -95.5t-63 -73.5t-66 -53t-58.5 -32.5q-124 -55 -260 -55q-24 0 -40 9.5t-16 23.5q0 10 11.5 14.5t35.5 8.5q6 0 9 1q138 18 235 121.5t97 245.5q0 126 -67 192t-163 66q-56 0 -74.5 -5.5t-25.5 -25.5q-10 -30 -100.5 -344.5t-106.5 -378.5
q-24 -103 -4 -134.5t110 -43.5q50 -6 50 -25q0 -26 -66 -26q-38 0 -122 5t-122 5q-46 0 -119.5 -4t-91.5 -4q-19 0 -26 0.5t-17.5 2.5t-14 7t-3.5 14q0 18 63 29q41 7 62.5 14t44 24.5t39 47t35.5 80.5q26 76 125 398t141 464q11 36 15.5 52t10 40t5 33t-3 23.5t-9.5 19.5
t-19 12.5t-28.5 11t-40.5 7.5q-51 7 -55 33z" />
    <glyph glyph-name="germandbls" unicode="&#xdf;" horiz-adv-x="985" 
d="M961 1462q63 0 110.5 -13.5t73 -33.5t41 -47t19.5 -49.5t3 -46.5q-1 -46 -37.5 -95t-72.5 -75q-17 -12 -71.5 -52t-82.5 -59q-134 -87 -182.5 -148.5t-48.5 -140.5q0 -22 58 -143l6.5 -13l6.5 -13t7 -15q37 -79 50.5 -122.5t12.5 -92.5q-2 -44 -33.5 -109t-87.5 -116
q-53 -49 -128.5 -80t-121.5 -31q-40 0 -75 28.5t-35 63.5q0 53 51 93q9 6 24 0.5t25 -15.5q24 -29 65.5 -48t67.5 -19q50 0 87.5 46.5t37.5 90.5q0 29 -10 65.5t-18.5 57t-32.5 73.5q-12 25 -34.5 69t-34 68t-21.5 57t-9 60q0 81 70.5 160t239.5 197q92 64 135.5 118.5
t46.5 118.5q2 56 -36.5 97t-125.5 41q-76 0 -139.5 -28t-111 -74.5t-92.5 -124t-78.5 -157t-73.5 -194.5q-62 -181 -117 -412t-86 -397q-26 -145 -72 -249t-102.5 -164.5t-134.5 -106.5q-98 -60 -168 -60q-52 0 -100 27.5t-48 75.5q0 19 11.5 43t25.5 33q34 24 45 10
q35 -32 85.5 -59t82.5 -27q60 0 98 43t62 149q4 18 20 85.5t45.5 195t59.5 258.5q73 324 159 557t205 381q103 125 219.5 196.5t264.5 71.5z" />
    <glyph glyph-name="agrave" unicode="&#xe0;" horiz-adv-x="919" 
d="M676 1358q6 0 12.5 -10.5t11.5 -33.5t7 -54q12 -160 12 -287q0 -18 -7 -35.5t-18 -17.5t-22 15.5t-15 29.5q-26 94 -63 268q-6 32 -2 57q3 19 32 43.5t52 24.5zM621 797q12 0 36.5 -13t44.5 -34q2 -2 8 0.5t9 7.5q4 8 17 29.5t16 27.5q1 4 12 11.5t16 7.5q11 0 36 -9.5
t42 -19.5q6 -11 -4 -29q-35 -80 -120 -299.5t-109 -310.5q-14 -55 39 -55q29 0 73.5 29.5t79.5 68.5q31 36 40 17q1 -3 1 -7q0 -25 -18 -51q-57 -92 -139 -146.5t-152 -54.5q-36 0 -58 21t-24 55q0 10 10.5 40.5t33 87t28.5 73.5q6 12 -3 22q-6 6 -12 0q-43 -46 -94 -92.5
t-114 -95.5t-126.5 -80t-111.5 -31q-28 0 -60 25t-32 53q0 86 88 223q85 140 204.5 270.5t245.5 217.5q24 17 55 29t42 12zM588 688q-52 0 -116.5 -41.5t-121.5 -114.5q-63 -76 -125.5 -198.5t-62.5 -190.5q0 -19 13 -39t28 -20q75 0 207 141q133 136 241 365q21 53 11 63
q-16 14 -40 24.5t-34 10.5z" />
    <glyph glyph-name="aacute" unicode="&#xe1;" horiz-adv-x="919" 
d="M813 1270q15 22 45 22q16 0 31 -32.5t12 -51.5q-3 -20 -29 -53q-76 -90 -196 -217q-26 -35 -58 -35q-13 1 -12.5 20.5t10.5 34.5q41 74 197 312zM621 797q12 0 36.5 -13t44.5 -34q2 -2 8 0.5t9 7.5q4 8 17 29.5t16 27.5q1 4 12 11.5t16 7.5q11 0 36 -9.5t42 -19.5
q6 -11 -4 -29q-35 -80 -120 -299.5t-109 -310.5q-14 -55 39 -55q29 0 73.5 29.5t79.5 68.5q31 36 40 17q1 -3 1 -7q0 -25 -18 -51q-57 -92 -139 -146.5t-152 -54.5q-36 0 -58 21t-24 55q0 10 10.5 40.5t33 87t28.5 73.5q6 12 -3 22q-6 6 -12 0q-43 -46 -94 -92.5t-114 -95.5
t-126.5 -80t-111.5 -31q-28 0 -60 25t-32 53q0 86 88 223q85 140 204.5 270.5t245.5 217.5q24 17 55 29t42 12zM588 688q-52 0 -116.5 -41.5t-121.5 -114.5q-63 -76 -125.5 -198.5t-62.5 -190.5q0 -19 13 -39t28 -20q75 0 207 141q133 136 241 365q21 53 11 63
q-16 14 -40 24.5t-34 10.5z" />
    <glyph glyph-name="acircumflex" unicode="&#xe2;" horiz-adv-x="919" 
d="M778 1303q11 0 18 -18t9 -36q29 -178 39 -288q2 -18 -6 -34t-21 -16q-7 0 -17.5 16t-15.5 34t-21.5 70.5t-27.5 92.5q-3 14 -18 2q-29 -31 -195 -190q-6 -6 -22 -15.5t-27 -9.5q-10 0 -13 8.5t1.5 22t15.5 27.5q32 34 117 135t115 145q42 44 55 51q7 3 14 3zM621 797
q12 0 36.5 -13t44.5 -34q2 -2 8 0.5t9 7.5q4 8 17 29.5t16 27.5q1 4 12 11.5t16 7.5q11 0 36 -9.5t42 -19.5q6 -11 -4 -29q-35 -80 -120 -299.5t-109 -310.5q-14 -55 39 -55q29 0 73.5 29.5t79.5 68.5q31 36 40 17q1 -3 1 -7q0 -25 -18 -51q-57 -92 -139 -146.5t-152 -54.5
q-36 0 -58 21t-24 55q0 10 10.5 40.5t33 87t28.5 73.5q6 12 -3 22q-6 6 -12 0q-43 -46 -94 -92.5t-114 -95.5t-126.5 -80t-111.5 -31q-28 0 -60 25t-32 53q0 86 88 223q85 140 204.5 270.5t245.5 217.5q24 17 55 29t42 12zM588 688q-52 0 -116.5 -41.5t-121.5 -114.5
q-63 -76 -125.5 -198.5t-62.5 -190.5q0 -19 13 -39t28 -20q75 0 207 141q133 136 241 365q21 53 11 63q-16 14 -40 24.5t-34 10.5z" />
    <glyph glyph-name="atilde" unicode="&#xe3;" horiz-adv-x="919" 
d="M588 1067q-24 0 -66 -47q-12 -12 -20 -12q-4 0 -16.5 14.5t-12.5 17.5t17 25t50.5 55.5t67.5 55.5q19 12 35 8q88 -23 154 -23q45 0 65 15q32 26 60 59q4 6 22.5 -8t18.5 -23q0 -7 -11 -18q-3 -3 -23 -22.5t-41 -41t-42 -42.5l-23 -23q-15 -15 -26 -15t-86 12.5
t-123 12.5zM621 797q12 0 36.5 -13t44.5 -34q2 -2 8 0.5t9 7.5q4 8 17 29.5t16 27.5q1 4 12 11.5t16 7.5q11 0 36 -9.5t42 -19.5q6 -11 -4 -29q-35 -80 -120 -299.5t-109 -310.5q-14 -55 39 -55q29 0 73.5 29.5t79.5 68.5q31 36 40 17q1 -3 1 -7q0 -25 -18 -51
q-57 -92 -139 -146.5t-152 -54.5q-36 0 -58 21t-24 55q0 10 10.5 40.5t33 87t28.5 73.5q6 12 -3 22q-6 6 -12 0q-43 -46 -94 -92.5t-114 -95.5t-126.5 -80t-111.5 -31q-28 0 -60 25t-32 53q0 86 88 223q85 140 204.5 270.5t245.5 217.5q24 17 55 29t42 12zM588 688
q-52 0 -116.5 -41.5t-121.5 -114.5q-63 -76 -125.5 -198.5t-62.5 -190.5q0 -19 13 -39t28 -20q75 0 207 141q133 136 241 365q21 53 11 63q-16 14 -40 24.5t-34 10.5z" />
    <glyph glyph-name="adieresis" unicode="&#xe4;" horiz-adv-x="919" 
d="M569 1237q31 0 51.5 -24.5t20.5 -55.5q2 -40 -25.5 -71t-64.5 -31q-32 0 -50 24.5t-18 59.5q0 43 25.5 70.5t60.5 27.5zM870 1237q31 0 50.5 -24.5t19.5 -55.5q2 -40 -24 -71t-64 -31q-32 0 -52 25t-20 59q0 42 28.5 70t61.5 28zM621 797q12 0 36.5 -13t44.5 -34
q2 -2 8 0.5t9 7.5q4 8 17 29.5t16 27.5q1 4 12 11.5t16 7.5q11 0 36 -9.5t42 -19.5q6 -11 -4 -29q-35 -80 -120 -299.5t-109 -310.5q-14 -55 39 -55q29 0 73.5 29.5t79.5 68.5q31 36 40 17q1 -3 1 -7q0 -25 -18 -51q-57 -92 -139 -146.5t-152 -54.5q-36 0 -58 21t-24 55
q0 10 10.5 40.5t33 87t28.5 73.5q6 12 -3 22q-6 6 -12 0q-43 -46 -94 -92.5t-114 -95.5t-126.5 -80t-111.5 -31q-28 0 -60 25t-32 53q0 86 88 223q85 140 204.5 270.5t245.5 217.5q24 17 55 29t42 12zM588 688q-52 0 -116.5 -41.5t-121.5 -114.5q-63 -76 -125.5 -198.5
t-62.5 -190.5q0 -19 13 -39t28 -20q75 0 207 141q133 136 241 365q21 53 11 63q-16 14 -40 24.5t-34 10.5z" />
    <glyph glyph-name="aring" unicode="&#xe5;" horiz-adv-x="919" 
d="M743 1298q72 0 112.5 -52.5t31.5 -119.5q-11 -66 -64 -112.5t-125 -46.5q-73 0 -113.5 51.5t-31.5 118.5q9 66 63.5 113.5t126.5 47.5zM735 1239q-39 0 -69.5 -29t-36.5 -73q-6 -50 16.5 -80.5t61.5 -30.5q89 0 106 104q5 43 -17.5 76t-60.5 33zM621 797q12 0 36.5 -13
t44.5 -34q2 -2 8 0.5t9 7.5q4 8 17 29.5t16 27.5q1 4 12 11.5t16 7.5q11 0 36 -9.5t42 -19.5q6 -11 -4 -29q-35 -80 -120 -299.5t-109 -310.5q-14 -55 39 -55q29 0 73.5 29.5t79.5 68.5q31 36 40 17q1 -3 1 -7q0 -25 -18 -51q-57 -92 -139 -146.5t-152 -54.5q-36 0 -58 21
t-24 55q0 10 10.5 40.5t33 87t28.5 73.5q6 12 -3 22q-6 6 -12 0q-43 -46 -94 -92.5t-114 -95.5t-126.5 -80t-111.5 -31q-28 0 -60 25t-32 53q0 86 88 223q85 140 204.5 270.5t245.5 217.5q24 17 55 29t42 12zM588 688q-52 0 -116.5 -41.5t-121.5 -114.5
q-63 -76 -125.5 -198.5t-62.5 -190.5q0 -19 13 -39t28 -20q75 0 207 141q133 136 241 365q21 53 11 63q-16 14 -40 24.5t-34 10.5z" />
    <glyph glyph-name="ae" unicode="&#xe6;" horiz-adv-x="925" 
d="M758 827q64 0 100.5 -37t36.5 -88q0 -46 -25.5 -92.5t-62.5 -82.5t-92 -73t-100.5 -61.5t-100.5 -50.5q-3 -1 -6.5 -12.5t-3.5 -16.5q-11 -227 112 -227q74 0 158 84q14 14 25 14t8 -18q-2 -50 -104.5 -124.5t-186.5 -74.5q-55 0 -94.5 48.5t-52.5 146.5q0 1 -2 1.5
t-5.5 -0.5t-7.5 -5q-72 -72 -161.5 -131.5t-155.5 -59.5q-31 0 -57.5 25.5t-26.5 75.5q0 57 52.5 142.5t129.5 168t155.5 153.5t139.5 113q50 38 96 76q127 106 232 106zM162 84q33 0 88 45t90 96q6 9 15.5 33t9.5 31q6 109 59 262q5 16 -3 17q-3 0 -7 -3q-25 -18 -69 -59
t-99 -101t-94 -130t-39 -125q0 -37 12.5 -51.5t36.5 -14.5zM731 774q-43 0 -84 -38.5t-69 -95.5t-46.5 -117.5t-23.5 -110.5q0 -6 3 -11t7 -2q81 37 171.5 140.5t90.5 167.5q0 67 -49 67z" />
    <glyph glyph-name="ccedilla" unicode="&#xe7;" horiz-adv-x="641" 
d="M287 82q44 0 99 25t106 73q8 6 17 6t9 -6q0 -28 -20 -53q-47 -61 -142 -117q-74 -42 -114.5 -89t-40.5 -89q0 -29 43 -100q22 -40 22 -84q0 -28 -30.5 -64t-69.5 -61q-51 -31 -82 -31q-37 0 -74 30t-37 68q0 15 4 25.5t8.5 14t8.5 3.5q5 0 8.5 -1t5 -2.5l7 -7t10.5 -9.5
q54 -45 90 -45q21 0 30 7t9 28q0 27 -48 110q-28 48 -28 78q0 8 1.5 15t3 12t5.5 12.5t5.5 10.5t7.5 12l8 12q25 39 133 115q-20 -5 -39 -5q-72 0 -115 62.5t-43 132.5q0 65 23.5 153t66.5 171q116 219 275 299q33 18 79.5 26t71.5 8q52 0 88 -18q23 -9 23 -41
q0 -44 -28.5 -79.5t-47.5 -35.5q-20 0 -31 23q-41 90 -90 90q-35 0 -76.5 -42.5t-81.5 -119.5q-53 -96 -87.5 -207t-34.5 -207q0 -37 8.5 -61t25 -33t28.5 -11.5t30 -2.5z" />
    <glyph glyph-name="egrave" unicode="&#xe8;" horiz-adv-x="706" 
d="M580 1341q6 0 12 -10.5t11 -33t7 -54.5q13 -173 13 -287q0 -18 -7 -35.5t-18 -17.5t-22 15.5t-15 29.5q-25 90 -63 269q-6 32 -2 57q3 19 32 43t52 24zM565 827q43 0 74 -12.5t46.5 -32.5t22.5 -40t7 -40q0 -48 -43 -104t-115 -96q-91 -51 -299 -111q-26 -8 -33 -31
q-26 -72 -26 -159q0 -123 108 -123q49 0 103 27.5t98 68.5q31 31 51 31q4 0 8 -4.5t4 -7.5q0 -20 -24 -52q-52 -60 -144.5 -115t-193.5 -55q-46 0 -102 61.5t-56 151.5q0 111 62 247.5t163 242.5q75 77 152.5 115t136.5 38zM557 778q-49 0 -113.5 -56.5t-114 -130
t-67.5 -130.5q-1 -2 -1 -7t1.5 -9t5.5 -3q324 113 324 285q0 51 -35 51z" />
    <glyph glyph-name="eacute" unicode="&#xe9;" horiz-adv-x="706" 
d="M725 1270q15 22 45 22q16 0 31 -32.5t12 -51.5q-3 -20 -29 -53q-76 -90 -196 -217q-26 -35 -58 -35q-13 1 -12.5 20.5t10.5 34.5q41 74 197 312zM565 827q43 0 74 -12.5t46.5 -32.5t22.5 -40t7 -40q0 -48 -43 -104t-115 -96q-91 -51 -299 -111q-26 -8 -33 -31
q-26 -72 -26 -159q0 -123 108 -123q49 0 103 27.5t98 68.5q31 31 51 31q4 0 8 -4.5t4 -7.5q0 -20 -24 -52q-52 -60 -144.5 -115t-193.5 -55q-46 0 -102 61.5t-56 151.5q0 111 62 247.5t163 242.5q75 77 152.5 115t136.5 38zM557 778q-49 0 -113.5 -56.5t-114 -130
t-67.5 -130.5q-1 -2 -1 -7t1.5 -9t5.5 -3q324 113 324 285q0 51 -35 51z" />
    <glyph glyph-name="ecircumflex" unicode="&#xea;" horiz-adv-x="706" 
d="M678 1303q11 0 18 -18t9 -36q27 -164 38 -288q2 -18 -5.5 -34t-20.5 -16q-7 0 -17.5 16t-15.5 34t-21.5 70.5t-27.5 92.5q-4 14 -19 2q-36 -39 -194 -190q-6 -6 -22 -15.5t-27 -9.5q-10 0 -13 8.5t1.5 22t15.5 27.5q31 33 116 134.5t115 145.5q20 22 28.5 30t20.5 16
t21 8zM565 827q43 0 74 -12.5t46.5 -32.5t22.5 -40t7 -40q0 -48 -43 -104t-115 -96q-91 -51 -299 -111q-26 -8 -33 -31q-26 -72 -26 -159q0 -123 108 -123q49 0 103 27.5t98 68.5q31 31 51 31q4 0 8 -4.5t4 -7.5q0 -20 -24 -52q-52 -60 -144.5 -115t-193.5 -55
q-46 0 -102 61.5t-56 151.5q0 111 62 247.5t163 242.5q75 77 152.5 115t136.5 38zM557 778q-49 0 -113.5 -56.5t-114 -130t-67.5 -130.5q-1 -2 -1 -7t1.5 -9t5.5 -3q324 113 324 285q0 51 -35 51z" />
    <glyph glyph-name="edieresis" unicode="&#xeb;" horiz-adv-x="706" 
d="M457 1237q31 0 51 -24.5t20 -55.5q2 -40 -25.5 -71t-64.5 -31q-32 0 -49.5 24.5t-17.5 59.5q0 43 25.5 70.5t60.5 27.5zM758 1237q31 0 50 -24.5t19 -55.5q2 -40 -24 -71t-64 -31q-32 0 -51.5 25t-19.5 59q0 42 28.5 70t61.5 28zM565 827q43 0 74 -12.5t46.5 -32.5
t22.5 -40t7 -40q0 -48 -43 -104t-115 -96q-91 -51 -299 -111q-26 -8 -33 -31q-26 -72 -26 -159q0 -123 108 -123q49 0 103 27.5t98 68.5q31 31 51 31q4 0 8 -4.5t4 -7.5q0 -20 -24 -52q-52 -60 -144.5 -115t-193.5 -55q-46 0 -102 61.5t-56 151.5q0 111 62 247.5t163 242.5
q75 77 152.5 115t136.5 38zM557 778q-49 0 -113.5 -56.5t-114 -130t-67.5 -130.5q-1 -2 -1 -7t1.5 -9t5.5 -3q324 113 324 285q0 51 -35 51z" />
    <glyph glyph-name="igrave" unicode="&#xec;" horiz-adv-x="548" 
d="M451 1341q6 0 12 -10.5t11 -33t7 -54.5q13 -173 13 -287q0 -18 -7 -35.5t-18 -17.5t-22 15.5t-15 29.5q-25 90 -63 269q-6 32 -2 57q3 19 32 43t52 24zM422 827q12 0 29.5 -18t17.5 -31q0 -19 -20 -69q-223 -532 -234 -557q-4 -10 2 -22.5t21 -12.5q22 0 85.5 50.5
t104.5 96.5q25 29 47 29q10 0 10 -12q0 -32 -36 -74q-74 -86 -182.5 -163t-168.5 -77q-22 0 -41.5 17.5t-19.5 33.5q0 14 10 37q102 252 254 604q6 13 -1 22.5t-15 6.5q-75 -23 -154 -94q-7 -7 -16 -3t-9 13q0 20 27 51q36 43 137.5 107.5t151.5 64.5z" />
    <glyph glyph-name="iacute" unicode="&#xed;" horiz-adv-x="548" 
d="M580 1270q15 22 45 22q16 0 31 -32.5t12 -51.5q-3 -20 -29 -53q-67 -79 -197 -217q-26 -35 -57 -35q-13 1 -12.5 20.5t10.5 34.5q41 74 197 312zM422 827q12 0 29.5 -18t17.5 -31q0 -19 -20 -69q-223 -532 -234 -557q-4 -10 2 -22.5t21 -12.5q22 0 85.5 50.5t104.5 96.5
q25 29 47 29q10 0 10 -12q0 -32 -36 -74q-74 -86 -182.5 -163t-168.5 -77q-22 0 -41.5 17.5t-19.5 33.5q0 14 10 37q102 252 254 604q6 13 -1 22.5t-15 6.5q-75 -23 -154 -94q-7 -7 -16 -3t-9 13q0 20 27 51q36 43 137.5 107.5t151.5 64.5z" />
    <glyph glyph-name="icircumflex" unicode="&#xee;" horiz-adv-x="548" 
d="M516 1303q11 0 18 -18t9 -36q29 -178 39 -288q2 -18 -6 -34t-21 -16q-7 0 -17.5 16t-15.5 34t-21.5 70.5t-27.5 92.5q-3 14 -18 2q-29 -31 -195 -190q-6 -6 -22 -15.5t-27 -9.5q-10 0 -13 8.5t1.5 22t15.5 27.5q31 33 116 134.5t115 145.5q20 22 28.5 30t20.5 16t21 8z
M422 827q12 0 29.5 -18t17.5 -31q0 -19 -20 -69q-223 -532 -234 -557q-4 -10 2 -22.5t21 -12.5q22 0 85.5 50.5t104.5 96.5q25 29 47 29q10 0 10 -12q0 -32 -36 -74q-74 -86 -182.5 -163t-168.5 -77q-22 0 -41.5 17.5t-19.5 33.5q0 14 10 37q102 252 254 604q6 13 -1 22.5
t-15 6.5q-75 -23 -154 -94q-7 -7 -16 -3t-9 13q0 20 27 51q36 43 137.5 107.5t151.5 64.5z" />
    <glyph glyph-name="idieresis" unicode="&#xef;" horiz-adv-x="548" 
d="M295 1237q31 0 51.5 -24.5t20.5 -55.5q1 -40 -26.5 -71t-64.5 -31q-32 0 -49.5 24.5t-17.5 59.5q0 43 25.5 70.5t60.5 27.5zM596 1237q31 0 50.5 -24.5t19.5 -55.5q2 -40 -24 -71t-64 -31q-32 0 -52 25t-20 59q0 42 28.5 70t61.5 28zM422 827q12 0 29.5 -18t17.5 -31
q0 -19 -20 -69q-223 -532 -234 -557q-4 -10 2 -22.5t21 -12.5q22 0 85.5 50.5t104.5 96.5q25 29 47 29q10 0 10 -12q0 -32 -36 -74q-74 -86 -182.5 -163t-168.5 -77q-22 0 -41.5 17.5t-19.5 33.5q0 14 10 37q102 252 254 604q6 13 -1 22.5t-15 6.5q-75 -23 -154 -94
q-7 -7 -16 -3t-9 13q0 20 27 51q36 43 137.5 107.5t151.5 64.5z" />
    <glyph glyph-name="eth" unicode="&#xf0;" horiz-adv-x="813" 
d="M565 821q21 0 45 -6q9 -1 13 4.5t4 16.5q-3 102 -28 189q-20 62 -40 56q-27 -13 -82.5 -38t-83.5 -37q-6 -5 -14.5 -1t-9.5 13q0 35 24 49q10 5 59 26t76 37t23 27q-27 59 -59.5 108.5t-58.5 78t-48 49.5t-33.5 33t-9.5 18q0 9 10.5 14.5t18.5 5.5q44 0 126.5 -83
t137.5 -179q10 -18 24 -8q178 87 179 88q23 12 26 -8q0 -46 -22 -57l-2 -3q-6 -3 -57.5 -26.5t-77.5 -41t-21 -30.5q32 -84 54 -195t22 -208q0 -122 -28.5 -235t-77 -198.5t-106 -149t-120.5 -101.5q-70 -46 -158 -58q-28 -4 -47 -4q-67 2 -118.5 61.5t-51.5 153.5
q0 68 27 158.5t88 194.5t143 174q133 112 254 112zM557 770q-55 0 -113 -49q-49 -36 -106.5 -130.5t-101 -225t-43.5 -242.5q0 -38 20.5 -66t58.5 -28q71 0 142 88q74 91 144.5 270t70.5 307q0 28 -23 52t-49 24z" />
    <glyph glyph-name="ntilde" unicode="&#xf1;" horiz-adv-x="1038" 
d="M563 1053q-23 0 -65 -47q-13 -13 -21 -13q-4 0 -16 15t-12 18t17 25t50.5 55t67.5 55q19 12 34 8q84 -22 154 -22q47 0 66 14q27 22 59 60q4 6 22.5 -8t18.5 -23t-10 -19l-129 -129q-14 -14 -27 -14q-11 0 -86 12.5t-123 12.5zM809 827q55 0 86 -35.5t31 -80.5
q0 -49 -29 -121q-30 -80 -97.5 -227t-86.5 -183q-27 -55 6 -55q52 0 184 123q8 7 17.5 10.5t16.5 2t7 -8.5q0 -21 -24 -59q-52 -78 -165.5 -152t-170.5 -74q-36 0 -66 35q-22 22 2 68q33 65 151.5 311.5t131.5 288.5q15 47 6 68.5t-35 21.5q-86 0 -231 -176
q-38 -43 -107 -143.5t-141.5 -212.5t-91.5 -138q-45 -71 -67 -98t-38 -27q-19 0 -38 21t-19 37q-1 9 4 27t14.5 41.5t17.5 42t17 38.5l10 21q2 5 91 196.5t124 284.5q16 33 -18 33q-10 0 -20 -1.5t-20 -5.5l-17.5 -7t-18.5 -10.5t-16.5 -11t-17.5 -14t-15.5 -13.5
t-16.5 -15.5t-16 -14.5q-20 -20 -26 -20q-4 0 -8.5 7t-4.5 13q0 23 18 57.5t50 70t85.5 60.5t113.5 25q22 0 43 -12t32 -29q10 -17 -4 -53q-51 -120 -125 -297q-6 -11 6 -13q13 -2 19 11q35 53 120.5 152.5t133.5 138.5q118 102 213 102z" />
    <glyph glyph-name="ograve" unicode="&#xf2;" horiz-adv-x="821" 
d="M582 1341q6 0 12 -10.5t11 -33t7 -54.5q13 -173 13 -287q0 -18 -7 -35.5t-18 -17.5t-22 15.5t-15 29.5q-25 90 -63 269q-6 32 -2 57q3 19 32 43t52 24zM559 827q87 0 140 -73t53 -156q0 -191 -108.5 -354t-248.5 -234q-88 -43 -170 -43q-65 0 -121.5 61t-56.5 158
q0 109 70 269.5t188 263.5q124 108 254 108zM543 774q-71 0 -148 -92q-78 -90 -141.5 -255.5t-63.5 -311.5q0 -38 20 -64t58 -26q62 0 135 92q74 89 144.5 260t70.5 299q0 98 -75 98z" />
    <glyph glyph-name="oacute" unicode="&#xf3;" horiz-adv-x="821" 
d="M735 1270q15 22 45 22q16 0 31 -32.5t12 -51.5q-3 -22 -28 -53q-67 -79 -197 -217q-26 -35 -57 -35q-13 1 -12.5 20.5t10.5 34.5q47 84 196 312zM559 827q87 0 140 -73t53 -156q0 -191 -108.5 -354t-248.5 -234q-88 -43 -170 -43q-65 0 -121.5 61t-56.5 158
q0 109 70 269.5t188 263.5q124 108 254 108zM543 774q-71 0 -148 -92q-78 -90 -141.5 -255.5t-63.5 -311.5q0 -38 20 -64t58 -26q62 0 135 92q74 89 144.5 260t70.5 299q0 98 -75 98z" />
    <glyph glyph-name="ocircumflex" unicode="&#xf4;" horiz-adv-x="821" 
d="M682 1303q11 0 18 -18t9 -36q29 -178 39 -288q2 -18 -6 -34t-21 -16q-7 0 -17.5 16t-15.5 34t-21.5 70.5t-27.5 92.5q-3 14 -18 2q-29 -31 -195 -190q-6 -6 -22 -15.5t-27 -9.5q-10 0 -13 8.5t1.5 22t15.5 27.5q31 33 116 134.5t115 145.5q20 22 28.5 30t20.5 16t21 8z
M559 827q87 0 140 -73t53 -156q0 -191 -108.5 -354t-248.5 -234q-88 -43 -170 -43q-65 0 -121.5 61t-56.5 158q0 109 70 269.5t188 263.5q124 108 254 108zM543 774q-71 0 -148 -92q-78 -90 -141.5 -255.5t-63.5 -311.5q0 -38 20 -64t58 -26q62 0 135 92q74 89 144.5 260
t70.5 299q0 98 -75 98z" />
    <glyph glyph-name="otilde" unicode="&#xf5;" horiz-adv-x="821" 
d="M494 1069q-24 0 -66 -47q-12 -12 -20 -12q-4 0 -16.5 14.5t-12.5 17.5t17 25t50.5 55.5t67.5 55.5q19 12 35 8q88 -23 153 -23q46 0 66 15q29 24 59 59q4 6 22.5 -8t18.5 -23q0 -8 -10 -18l-129 -129q-15 -15 -27 -15q-11 0 -85.5 12.5t-122.5 12.5zM559 827
q87 0 140 -73t53 -156q0 -191 -108.5 -354t-248.5 -234q-88 -43 -170 -43q-65 0 -121.5 61t-56.5 158q0 109 70 269.5t188 263.5q124 108 254 108zM543 774q-71 0 -148 -92q-78 -90 -141.5 -255.5t-63.5 -311.5q0 -38 20 -64t58 -26q62 0 135 92q74 89 144.5 260t70.5 299
q0 98 -75 98z" />
    <glyph glyph-name="odieresis" unicode="&#xf6;" horiz-adv-x="821" 
d="M475 1237q31 0 51.5 -24.5t20.5 -55.5q2 -40 -25.5 -71t-64.5 -31q-32 0 -50 24.5t-18 59.5q0 43 25.5 70.5t60.5 27.5zM776 1237q31 0 50.5 -24.5t19.5 -55.5q2 -40 -24 -71t-64 -31q-32 0 -52 25t-20 59q0 42 28.5 70t61.5 28zM559 827q87 0 140 -73t53 -156
q0 -191 -108.5 -354t-248.5 -234q-88 -43 -170 -43q-65 0 -121.5 61t-56.5 158q0 109 70 269.5t188 263.5q124 108 254 108zM543 774q-71 0 -148 -92q-78 -90 -141.5 -255.5t-63.5 -311.5q0 -38 20 -64t58 -26q62 0 135 92q74 89 144.5 260t70.5 299q0 98 -75 98z" />
    <glyph glyph-name="divide" unicode="&#xf7;" horiz-adv-x="1277" 
d="M674 285q44 0 75 -32t31 -73q0 -48 -30 -80t-76 -32q-45 0 -75 32t-30 80q0 41 30.5 73t74.5 32zM674 745q-40 0 -70.5 31.5t-30.5 75.5t30.5 76.5t70.5 32.5q48 0 79 -32t31 -77t-30.5 -76t-79.5 -31zM1161 573q19 0 25 -5t6 -19q0 -34 -9.5 -58t-19.5 -24h-960
q-27 0 -34 5t-7 26q0 22 9 48.5t19 26.5h971z" />
    <glyph glyph-name="oslash" unicode="&#xf8;" horiz-adv-x="854" 
d="M657 682q-164 -234 -430 -602q-10 -15 -4 -21q9 -7 28.5 -13.5t33.5 -6.5q52 0 88 18.5t80 71.5q75 91 143.5 247.5t69.5 282.5q0 22 -7 24zM567 778q-65 0 -151 -86q-92 -95 -159 -247.5t-67 -303.5q-1 -1 1 -2q6 0 10 4q207 289 426 602q2 2 2.5 8t-2.5 9
q-22 16 -60 16zM578 831q46 0 84 -18q8 -4 14 4l26 33q24 27 33 27q14 0 26 -14.5t7 -22.5l-43 -68q-5 -5 4 -14q55 -70 55 -156q0 -192 -105.5 -353.5t-244.5 -230.5q-84 -43 -184 -43q-30 0 -72 21q-8 4 -14 -6q-16 -24 -43 -60q-10 -10 -19 -10q-13 0 -22.5 21t-3.5 32
q8 10 19.5 25t19.5 25q7 13 2 18q-58 69 -58 164q0 114 65 264t183 252q62 54 123 82t148 28z" />
    <glyph glyph-name="ugrave" unicode="&#xf9;" horiz-adv-x="1011" 
d="M641 1341q6 0 12.5 -10.5t11.5 -33.5t7 -54q12 -160 12 -287q0 -18 -7 -35.5t-18 -17.5t-21.5 15.5t-14.5 29.5q-29 106 -64 269q-6 32 -2 57q3 19 32 43t52 24zM434 827q8 0 19.5 -10t15.5 -22q1 -4 -1 -18.5t-5 -20.5q-30 -57 -121.5 -290t-103.5 -282q-20 -80 20 -80
q59 0 183 130t206 268q47 75 156 270q13 23 29.5 39t29.5 16q15 0 37.5 -16.5t22.5 -32.5q0 -22 -27 -84q-166 -410 -203 -524q-14 -41 17 -41q25 0 82.5 38.5t119.5 104.5q20 20 34 14q5 -1 5 -7q0 -14 -16 -46q-27 -54 -94.5 -117.5t-139 -106t-112.5 -42.5q-17 0 -35 20
t-18 36q0 6 8 34q4 13 50.5 134.5t53.5 142.5q10 31 1.5 32t-27.5 -22q-75 -91 -184 -184t-195 -150q-67 -43 -117 -43q-34 0 -55 25q-28 33 -9 88q21 57 108.5 272t121.5 291q7 15 4.5 22t-10.5 7t-34 -15.5t-63 -40.5t-38 -26q-15 -10 -30 -10.5t-16 8.5q0 14 15 33
q14 27 70.5 75.5t128.5 89.5t116 41z" />
    <glyph glyph-name="uacute" unicode="&#xfa;" horiz-adv-x="1011" 
d="M807 1270q15 22 45 22q16 0 31 -32.5t12 -51.5q-3 -20 -29 -53q-76 -90 -196 -217q-26 -35 -58 -35q-13 1 -12.5 20.5t10.5 34.5q41 74 197 312zM434 827q8 0 19.5 -10t15.5 -22q1 -4 -1 -18.5t-5 -20.5q-30 -57 -121.5 -290t-103.5 -282q-20 -80 20 -80q59 0 183 130
t206 268q47 75 156 270q13 23 29.5 39t29.5 16q15 0 37.5 -16.5t22.5 -32.5q0 -22 -27 -84q-166 -410 -203 -524q-14 -41 17 -41q25 0 82.5 38.5t119.5 104.5q20 20 34 14q5 -1 5 -7q0 -14 -16 -46q-27 -54 -94.5 -117.5t-139 -106t-112.5 -42.5q-17 0 -35 20t-18 36
q0 6 8 34q4 13 50.5 134.5t53.5 142.5q10 31 1.5 32t-27.5 -22q-75 -91 -184 -184t-195 -150q-67 -43 -117 -43q-34 0 -55 25q-28 33 -9 88q21 57 108.5 272t121.5 291q7 15 4.5 22t-10.5 7t-34 -15.5t-63 -40.5t-38 -26q-15 -10 -30 -10.5t-16 8.5q0 14 15 33
q14 27 70.5 75.5t128.5 89.5t116 41z" />
    <glyph glyph-name="ucircumflex" unicode="&#xfb;" horiz-adv-x="1011" 
d="M770 1303q11 0 18 -18t9 -36q29 -178 39 -288q2 -18 -6 -34t-21 -16q-7 0 -17.5 16t-15.5 34t-21.5 70.5t-27.5 92.5q-3 14 -18 2q-29 -31 -195 -190q-6 -6 -22 -15.5t-27 -9.5q-10 0 -13 8.5t1.5 22t15.5 27.5q31 33 116 134.5t115 145.5q20 22 28.5 30t20.5 16t21 8z
M434 827q8 0 19.5 -10t15.5 -22q1 -4 -1 -18.5t-5 -20.5q-30 -57 -121.5 -290t-103.5 -282q-20 -80 20 -80q59 0 183 130t206 268q47 75 156 270q13 23 29.5 39t29.5 16q15 0 37.5 -16.5t22.5 -32.5q0 -22 -27 -84q-166 -410 -203 -524q-14 -41 17 -41q25 0 82.5 38.5
t119.5 104.5q20 20 34 14q5 -1 5 -7q0 -14 -16 -46q-27 -54 -94.5 -117.5t-139 -106t-112.5 -42.5q-17 0 -35 20t-18 36q0 6 8 34q4 13 50.5 134.5t53.5 142.5q10 31 1.5 32t-27.5 -22q-75 -91 -184 -184t-195 -150q-67 -43 -117 -43q-34 0 -55 25q-28 33 -9 88
q21 57 108.5 272t121.5 291q7 15 4.5 22t-10.5 7t-34 -15.5t-63 -40.5t-38 -26q-15 -10 -30 -10.5t-16 8.5q0 14 15 33q14 27 70.5 75.5t128.5 89.5t116 41z" />
    <glyph glyph-name="udieresis" unicode="&#xfc;" horiz-adv-x="1011" 
d="M522 1237q31 0 51.5 -24.5t20.5 -55.5q2 -40 -25.5 -71t-64.5 -31q-32 0 -50 24.5t-18 59.5q0 43 25.5 70.5t60.5 27.5zM823 1237q31 0 50.5 -24.5t19.5 -55.5q2 -40 -24 -71t-64 -31q-32 0 -52 25t-20 59q0 42 28.5 70t61.5 28zM434 827q8 0 19.5 -10t15.5 -22
q1 -4 -1 -18.5t-5 -20.5q-30 -57 -121.5 -290t-103.5 -282q-20 -80 20 -80q59 0 183 130t206 268q47 75 156 270q13 23 29.5 39t29.5 16q15 0 37.5 -16.5t22.5 -32.5q0 -22 -27 -84q-166 -410 -203 -524q-14 -41 17 -41q25 0 82.5 38.5t119.5 104.5q20 20 34 14q5 -1 5 -7
q0 -14 -16 -46q-27 -54 -94.5 -117.5t-139 -106t-112.5 -42.5q-17 0 -35 20t-18 36q0 6 8 34q4 13 50.5 134.5t53.5 142.5q10 31 1.5 32t-27.5 -22q-75 -91 -184 -184t-195 -150q-67 -43 -117 -43q-34 0 -55 25q-28 33 -9 88q21 57 108.5 272t121.5 291q7 15 4.5 22t-10.5 7
t-34 -15.5t-63 -40.5t-38 -26q-15 -10 -30 -10.5t-16 8.5q0 14 15 33q14 27 70.5 75.5t128.5 89.5t116 41z" />
    <glyph glyph-name="yacute" unicode="&#xfd;" horiz-adv-x="786" 
d="M649 1270q15 22 45 22q16 0 31 -32.5t12 -51.5q-3 -22 -28 -53q-67 -79 -197 -217q-26 -35 -57 -35q-13 1 -12.5 20.5t10.5 34.5q47 84 196 312zM289 827q41 0 71.5 -49.5t38.5 -95.5q43 -214 21 -565q-1 -3 3 -3q15 -1 28 19l4 6q81 144 134.5 319.5t57.5 348.5
q0 10 13 21.5t20 11.5q23 0 48.5 -31.5t25.5 -50.5q0 -113 -82 -310t-154 -317q-177 -292 -221 -346q-112 -136 -174 -195q-22 -22 -45 -41q-117 -94 -219 -94q-42 0 -73.5 23.5t-31.5 60.5q0 34 27.5 68.5t56.5 34.5q19 0 25 -9q10 -7 27 -25.5t32.5 -29t34.5 -10.5
q46 0 91 29.5t108 101.5q68 80 108.5 238t40.5 342q0 120 -9.5 226.5t-21.5 145.5q-2 5 -5.5 18.5t-6 19.5t-6.5 14.5t-10.5 12t-14.5 3.5q-21 0 -53.5 -42.5t-66.5 -109.5q-24 -49 -37 -49q-16 0 -19 35q-3 51 28.5 114.5t88.5 111.5t117 48z" />
    <glyph glyph-name="thorn" unicode="&#xfe;" horiz-adv-x="929" 
d="M98 258q93 294 326 1002q9 27 10.5 44.5t-8 31t-17 19.5t-30.5 21q-25 16 -25 23q0 10 13.5 20t31.5 15q20 5 118 19.5t112 14.5q8 0 11.5 -12.5t0.5 -19.5q-33 -69 -156.5 -411t-171.5 -490q-4 -8 6 -13q5 -2 7 2q223 303 409 303q66 0 105 -39q49 -63 49 -129
q0 -105 -63 -230.5t-154 -225.5t-183 -154q-138 -84 -229 -84q-63 0 -102 33q-3 1 -9 -4.5t-8 -9.5q-24 -81 -50 -162t-39 -122.5t-19 -72.5q-10 -47 16 -70.5t88 -33.5q47 -8 47 -29q1 -12 -15.5 -19t-43.5 -7q-30 0 -91 1t-89 1q-36 0 -105.5 -8.5t-91.5 -8.5t-33.5 8
t-11.5 17q0 3 1 6t4 5.5t6 4t8.5 3.5t9.5 3.5t11.5 4t12.5 3.5q61 16 84 37t39 66q1 4 38 109.5t89 258.5t92 279zM682 760q-39 0 -86.5 -29.5t-92.5 -77.5t-82 -95t-69 -97q-139 -219 -135 -322q2 -47 23 -78.5t59 -31.5q50 0 139 80q102 95 211 283t109 304q0 27 -23 45.5
t-53 18.5z" />
    <glyph glyph-name="ydieresis" unicode="&#xff;" horiz-adv-x="786" 
d="M385 1237q31 0 51.5 -24.5t20.5 -55.5q2 -40 -25.5 -71t-64.5 -31q-32 0 -50 24.5t-18 59.5q0 43 25.5 70.5t60.5 27.5zM686 1237q31 0 50.5 -24.5t19.5 -55.5q2 -40 -24 -71t-64 -31q-32 0 -52 25t-20 59q0 42 28.5 70t61.5 28zM289 827q41 0 71.5 -49.5t38.5 -95.5
q43 -214 21 -565q-1 -3 3 -3q15 -1 28 19l4 6q81 144 134.5 319.5t57.5 348.5q0 10 13 21.5t20 11.5q23 0 48.5 -31.5t25.5 -50.5q0 -113 -82 -310t-154 -317q-177 -292 -221 -346q-112 -136 -174 -195q-22 -22 -45 -41q-117 -94 -219 -94q-42 0 -73.5 23.5t-31.5 60.5
q0 34 27.5 68.5t56.5 34.5q19 0 25 -9q10 -7 27 -25.5t32.5 -29t34.5 -10.5q46 0 91 29.5t108 101.5q68 80 108.5 238t40.5 342q0 120 -9.5 226.5t-21.5 145.5q-2 5 -5.5 18.5t-6 19.5t-6.5 14.5t-10.5 12t-14.5 3.5q-21 0 -53.5 -42.5t-66.5 -109.5q-24 -49 -37 -49
q-16 0 -19 35q-3 51 28.5 114.5t88.5 111.5t117 48z" />
    <glyph glyph-name="Amacron" unicode="&#x100;" horiz-adv-x="1302" 
d="M1282 1362q27 0 4 -66q-53 -133 -69 -200q-16 -70 -61.5 -259.5t-81.5 -346.5t-52 -252q-16 -71 -13 -111t30 -57.5t98 -26.5q39 -7 39 -27q0 -22 -62 -22q-34 0 -82.5 3t-87.5 3q-90 0 -174 -7t-111 -7q-17 0 -31.5 6.5t-13.5 13.5q0 9 12.5 17.5t28.5 11.5
q39 5 68 15.5t45.5 21t29.5 31.5t18.5 35t14.5 42q66 215 91 338q2 7 -4.5 16t-14.5 9q-28 0 -142.5 -7.5t-148.5 -11.5q-14 -2 -42.5 -19t-49.5 -38t-87 -105.5t-116 -156.5q-89 -137 58 -166q14 -6 14 -12q0 -10 -13.5 -20.5t-25.5 -10.5q-42 0 -107 2t-116 2
q-24 0 -106 -4t-91 -4q-57 0 -57 28q0 8 15 15t36 8q87 1 140.5 28t121.5 101q136 146 327.5 374.5t342.5 415.5t158 195q37 42 61 76q8 16 12 16q27 4 41.5 7.5t38 12t42.5 25.5t36 43q6 9 18 17t19 8zM647 594q22 0 123.5 5.5t144.5 10.5q24 5 37 37q16 40 49 185.5
t39 185.5q4 25 5.5 37.5t2 20.5t-1 9.5t-4.5 1.5q-13 0 -47 -36q-70 -76 -354 -439q-4 -7 -2.5 -11t4 -5.5t4.5 -1.5zM1036 1544l414 10q6 0 11 -12t3 -20q0 -7 -8.5 -30.5t-15.5 -33.5q-11 -16 -33 -16l-401 -12q-7 0 -14 6t-7 12q3 41 25 76q2 5 12 12.5t14 7.5z" />
    <glyph glyph-name="amacron" unicode="&#x101;" horiz-adv-x="919" 
d="M539 1165l364 15q4 0 8 -4.5t7.5 -15.5t1.5 -25q-6 -29 -18.5 -47.5t-27.5 -18.5l-362 -8q-9 0 -13 11.5t-1 25.5q4 23 18 45t23 22zM621 797q12 0 36.5 -13t44.5 -34q2 -2 8 0.5t9 7.5q4 8 17 29.5t16 27.5q1 4 12 11.5t16 7.5q11 0 36 -9.5t42 -19.5q6 -11 -4 -29
q-35 -80 -120 -299.5t-109 -310.5q-14 -55 39 -55q29 0 73.5 29.5t79.5 68.5q31 36 40 17q1 -3 1 -7q0 -25 -18 -51q-57 -92 -139 -146.5t-152 -54.5q-36 0 -58 21t-24 55q0 10 10.5 40.5t33 87t28.5 73.5q6 12 -3 22q-6 6 -12 0q-43 -46 -94 -92.5t-114 -95.5t-126.5 -80
t-111.5 -31q-28 0 -60 25t-32 53q0 86 88 223q85 140 204.5 270.5t245.5 217.5q24 17 55 29t42 12zM588 688q-52 0 -116.5 -41.5t-121.5 -114.5q-63 -76 -125.5 -198.5t-62.5 -190.5q0 -19 13 -39t28 -20q75 0 207 141q133 136 241 365q21 53 11 63q-16 14 -40 24.5
t-34 10.5z" />
    <glyph glyph-name="Abreve" unicode="&#x102;" horiz-adv-x="1302" 
d="M1282 1362q27 0 4 -66q-53 -133 -69 -200q-16 -70 -61.5 -259.5t-81.5 -346.5t-52 -252q-16 -71 -13 -111t30 -57.5t98 -26.5q39 -7 39 -27q0 -22 -62 -22q-34 0 -82.5 3t-87.5 3q-90 0 -174 -7t-111 -7q-17 0 -31.5 6.5t-13.5 13.5q0 9 12.5 17.5t28.5 11.5
q39 5 68 15.5t45.5 21t29.5 31.5t18.5 35t14.5 42q66 215 91 338q2 7 -4.5 16t-14.5 9q-28 0 -142.5 -7.5t-148.5 -11.5q-14 -2 -42.5 -19t-49.5 -38t-87 -105.5t-116 -156.5q-89 -137 58 -166q14 -6 14 -12q0 -10 -13.5 -20.5t-25.5 -10.5q-42 0 -107 2t-116 2
q-24 0 -106 -4t-91 -4q-57 0 -57 28q0 8 15 15t36 8q87 1 140.5 28t121.5 101q136 146 327.5 374.5t342.5 415.5t158 195q37 42 61 76q8 16 12 16q27 4 41.5 7.5t38 12t42.5 25.5t36 43q6 9 18 17t19 8zM647 594q22 0 123.5 5.5t144.5 10.5q24 5 37 37q16 40 49 185.5
t39 185.5q4 25 5.5 37.5t2 20.5t-1 9.5t-4.5 1.5q-13 0 -47 -36q-70 -76 -354 -439q-4 -7 -2.5 -11t4 -5.5t4.5 -1.5zM1217 1432q-85 0 -134 51t-39 129q1 17 10 28t17 11q13 0 27 -37q39 -76 143 -76q113 0 193 80q4 4 11.5 12.5t12 13.5t11 9t12.5 4q10 0 14 -7.5
t2.5 -18.5t-6.5 -23q-28 -70 -98.5 -123t-175.5 -53z" />
    <glyph glyph-name="abreve" unicode="&#x103;" horiz-adv-x="919" 
d="M659 991q-33 0 -61 12t-51 39.5t-29 71.5t4 109q3 18 15.5 28.5t23.5 10.5q15 0 19 -43q5 -62 31.5 -90.5t82.5 -28.5q41 0 88.5 29.5t85.5 89.5q23 38 43 38q10 0 11 -18t-4 -33q-11 -34 -30.5 -68t-50.5 -69t-77.5 -56.5t-100.5 -21.5zM621 797q12 0 36.5 -13t44.5 -34
q2 -2 8 0.5t9 7.5q4 8 17 29.5t16 27.5q1 4 12 11.5t16 7.5q11 0 36 -9.5t42 -19.5q6 -11 -4 -29q-35 -80 -120 -299.5t-109 -310.5q-14 -55 39 -55q29 0 73.5 29.5t79.5 68.5q31 36 40 17q1 -3 1 -7q0 -25 -18 -51q-57 -92 -139 -146.5t-152 -54.5q-36 0 -58 21t-24 55
q0 10 10.5 40.5t33 87t28.5 73.5q6 12 -3 22q-6 6 -12 0q-43 -46 -94 -92.5t-114 -95.5t-126.5 -80t-111.5 -31q-28 0 -60 25t-32 53q0 86 88 223q85 140 204.5 270.5t245.5 217.5q24 17 55 29t42 12zM588 688q-52 0 -116.5 -41.5t-121.5 -114.5q-63 -76 -125.5 -198.5
t-62.5 -190.5q0 -19 13 -39t28 -20q75 0 207 141q133 136 241 365q21 53 11 63q-16 14 -40 24.5t-34 10.5z" />
    <glyph glyph-name="Aogonek" unicode="&#x104;" horiz-adv-x="1302" 
d="M1284 1362q28 0 2 -66q-55 -151 -67 -200q-16 -70 -61.5 -259.5t-81.5 -346.5t-52 -252q-16 -71 -13 -111t30 -57.5t98 -26.5q39 -7 39 -27q0 -22 -64 -22q-33 0 -80 3t-80 3q-227 -177 -227 -299q0 -36 23 -57t57 -21q64 0 129 43q12 8 17 -1t1 -23q-3 -8 -13.5 -26
t-14.5 -22q-80 -92 -211 -92q-65 0 -104.5 40t-39.5 98q0 51 32 106t83 103t101 85t100 66q-63 -1 -131 -7.5t-97 -6.5q-17 0 -31.5 6.5t-13.5 13.5q0 9 12.5 17.5t28.5 11.5q39 5 68 15.5t45.5 21t29.5 31.5t18.5 35t14.5 42q66 215 91 338q2 7 -4.5 16t-14.5 9
q-28 0 -142.5 -7.5t-148.5 -11.5q-13 -2 -43 -20t-51 -39q-20 -20 -85.5 -104t-115.5 -156q-89 -137 58 -166q14 -6 14 -12q0 -10 -13.5 -20.5t-25.5 -10.5q-42 0 -107 2t-116 2q-24 0 -106 -4t-91 -4q-57 0 -57 28q0 8 15 15t36 8q87 1 140.5 28t121.5 101
q136 146 327.5 374.5t342.5 415.5t158 195q37 42 61 76q8 16 12 16q28 4 42.5 7.5t38.5 12t43 25.5t36 43q6 9 18 17t19 8zM647 594q22 0 123.5 5.5t144.5 10.5q9 2 19.5 11t17.5 26q15 39 48 178.5t42 190.5q9 67 5 70q-1 1 -3 1q-15 0 -49 -36q-70 -76 -354 -439
q-5 -7 -3 -11t4.5 -5.5t4.5 -1.5z" />
    <glyph glyph-name="aogonek" unicode="&#x105;" horiz-adv-x="919" 
d="M674 4q-83 -63 -146 -146.5t-63 -154.5q0 -35 22.5 -55.5t57.5 -20.5q70 0 127 43q13 8 17 2t1 -20q-3 -9 -13.5 -27t-14.5 -22q-82 -99 -213 -99q-64 0 -101 40.5t-37 99.5q0 81 70 165t176 158h-8q-77 0 -80 66q0 10 11 44.5t33 93.5t28 77q7 22 0.5 26.5t-21.5 -10.5
q-44 -48 -91.5 -92.5t-109 -94.5t-124 -80t-111.5 -30q-30 0 -59 24t-29 62q0 91 76 226q172 308 467 489q56 35 82 35q37 0 75 -41q16 -16 29 6q23 44 34 56t23 12q13 0 37 -8.5t35 -18.5q10 -13 -6 -49q-29 -63 -109 -269t-106 -296q-15 -42 -9.5 -62.5t14 -25.5t26.5 -5
q32 0 79 35t82 76q6 6 14 8t13.5 -1.5t5.5 -12.5q0 -22 -16 -45q-50 -78 -168 -158zM596 686q-71 0 -131 -39t-121 -117q-60 -73 -121 -199t-61 -194q0 -24 11.5 -37.5t27.5 -13.5q37 0 87.5 37t125.5 110q134 126 237 353q21 50 11 63q-9 15 -28 26t-38 11z" />
    <glyph glyph-name="Cacute" unicode="&#x106;" horiz-adv-x="1347" 
d="M172 489q0 173 75.5 337.5t207.5 289.5q121 117 275 178.5t314 61.5q149 0 283 -56q29 -12 43 -12.5t41 12.5q37 20 45 15q5 -7 8.5 -21.5t-0.5 -27.5q-95 -149 -121 -279q0 -14 -16 -14q-12 0 -22.5 20.5t-8.5 32.5q12 62 3.5 109t-42.5 84q-40 40 -95 62t-101 22
q-107 0 -227.5 -54t-229.5 -162q-113 -114 -176 -287.5t-63 -332.5q0 -183 81 -291q58 -76 135.5 -112.5t145.5 -36.5q60 0 139.5 29.5t120.5 60.5q2 2 26 23t33.5 29t32 29t36 34.5t31 32.5t30.5 36q12 12 18 12q8 0 8.5 -22.5t-4.5 -44.5q-12 -39 -77 -141.5t-83 -118.5
q-6 -6 -19.5 -11.5t-17.5 -1.5q-52 42 -104 31q-3 -1 -56.5 -13t-101 -19t-88.5 -7q-75 0 -152.5 25t-155.5 86.5t-122 150.5q-49 98 -49 262zM1352 1655q0 -20 -56 -51q-147 -87 -288 -144q-62 -21 -72 -8q-15 20 27 57q161 136 274 213q11 8 27 11.5t22 -0.5
q19 -8 43 -32.5t23 -45.5z" />
    <glyph glyph-name="cacute" unicode="&#x107;" horiz-adv-x="641" 
d="M674 1270q15 22 45 22q16 0 31 -32.5t12 -51.5q-3 -20 -29 -53q-76 -90 -196 -217q-26 -35 -58 -35q-13 1 -12.5 20.5t10.5 34.5q41 74 197 312zM561 827q52 0 88 -18q23 -9 23 -41q0 -44 -28.5 -79.5t-47.5 -35.5q-20 0 -31 23q-41 90 -90 90q-35 0 -76.5 -42.5
t-81.5 -119.5q-53 -96 -87.5 -207t-34.5 -207q0 -37 8.5 -61t25 -33t28.5 -11.5t30 -2.5q44 0 99 25t106 73q8 6 17 6t9 -6q0 -28 -20 -53q-64 -75 -143.5 -113.5t-151.5 -38.5t-115 62.5t-43 132.5q0 65 23.5 153t66.5 171q116 219 275 299q33 18 79.5 26t71.5 8z" />
    <glyph glyph-name="Ccircumflex" unicode="&#x108;" horiz-adv-x="1347" 
d="M172 489q0 173 75.5 337.5t207.5 289.5q121 117 275 178.5t314 61.5q149 0 283 -56q29 -12 43 -12.5t41 12.5q37 20 45 15q5 -7 8.5 -21.5t-0.5 -27.5q-95 -149 -121 -279q0 -14 -16 -14q-12 0 -22.5 20.5t-8.5 32.5q12 62 3.5 109t-42.5 84q-40 40 -95 62t-101 22
q-107 0 -227.5 -54t-229.5 -162q-113 -114 -176 -287.5t-63 -332.5q0 -183 81 -291q58 -76 135.5 -112.5t145.5 -36.5q60 0 139.5 29.5t120.5 60.5q2 2 26 23t33.5 29t32 29t36 34.5t31 32.5t30.5 36q12 12 18 12q8 0 8.5 -22.5t-4.5 -44.5q-12 -39 -77 -141.5t-83 -118.5
q-6 -6 -19.5 -11.5t-17.5 -1.5q-52 42 -104 31q-3 -1 -56.5 -13t-101 -19t-88.5 -7q-75 0 -152.5 25t-155.5 86.5t-122 150.5q-49 98 -49 262zM1153 1712q5 0 9.5 -2t7.5 -4t7.5 -7.5t6 -8t5.5 -9.5t5 -8q29 -55 115 -192q12 -23 7.5 -34t-18.5 -11q-20 0 -45 22
q-73 50 -131 107q-11 7 -22 0q-87 -51 -238 -113q-32 -12 -53 -12q-14 0 -14 13q2 18 32 38q190 128 250 178q15 13 39.5 28t36.5 15z" />
    <glyph glyph-name="ccircumflex" unicode="&#x109;" horiz-adv-x="641" 
d="M633 1303q20 0 26 -54q29 -178 39 -288q2 -18 -5.5 -34t-20.5 -16q-7 0 -17.5 16t-15.5 34t-21.5 70.5t-27.5 92.5q-4 14 -19 2q-36 -39 -194 -190q-7 -6 -22.5 -15.5t-26.5 -9.5q-10 0 -13 8.5t1.5 22t15.5 27.5q31 33 116 134.5t115 145.5q20 22 28.5 30t20.5 16t21 8z
M561 827q52 0 88 -18q23 -9 23 -41q0 -44 -28.5 -79.5t-47.5 -35.5q-20 0 -31 23q-41 90 -90 90q-35 0 -76.5 -42.5t-81.5 -119.5q-53 -96 -87.5 -207t-34.5 -207q0 -37 8.5 -61t25 -33t28.5 -11.5t30 -2.5q44 0 99 25t106 73q8 6 17 6t9 -6q0 -28 -20 -53
q-64 -75 -143.5 -113.5t-151.5 -38.5t-115 62.5t-43 132.5q0 65 23.5 153t66.5 171q116 219 275 299q33 18 79.5 26t71.5 8z" />
    <glyph glyph-name="Cdotaccent" unicode="&#x10a;" horiz-adv-x="1347" 
d="M172 489q0 173 75.5 337.5t207.5 289.5q121 117 275 178.5t314 61.5q149 0 283 -56q29 -12 43 -12.5t41 12.5q37 20 45 15q5 -7 8.5 -21.5t-0.5 -27.5q-95 -149 -121 -279q0 -14 -16 -14q-12 0 -22.5 20.5t-8.5 32.5q12 62 3.5 109t-42.5 84q-40 40 -95 62t-101 22
q-107 0 -227.5 -54t-229.5 -162q-113 -114 -176 -287.5t-63 -332.5q0 -183 81 -291q58 -76 135.5 -112.5t145.5 -36.5q60 0 139.5 29.5t120.5 60.5q2 2 26 23t33.5 29t32 29t36 34.5t31 32.5t30.5 36q12 12 18 12q8 0 8.5 -22.5t-4.5 -44.5q-12 -39 -77 -141.5t-83 -118.5
q-6 -6 -19.5 -11.5t-17.5 -1.5q-52 42 -104 31q-3 -1 -56.5 -13t-101 -19t-88.5 -7q-75 0 -152.5 25t-155.5 86.5t-122 150.5q-49 98 -49 262zM1120 1661q29 0 54 -28.5t24 -67.5q-3 -44 -36 -73.5t-72 -29.5q-40 0 -62 25.5t-20 68.5q3 42 35.5 73.5t76.5 31.5z" />
    <glyph glyph-name="cdotaccent" unicode="&#x10b;" horiz-adv-x="641" 
d="M575 1243q36 0 57 -27t21 -63q0 -45 -27 -73.5t-67 -28.5q-34 0 -54 25.5t-20 62.5q0 43 29.5 73.5t60.5 30.5zM561 827q52 0 88 -18q23 -9 23 -41q0 -44 -28.5 -79.5t-47.5 -35.5q-20 0 -31 23q-41 90 -90 90q-35 0 -76.5 -42.5t-81.5 -119.5q-53 -96 -87.5 -207
t-34.5 -207q0 -37 8.5 -61t25 -33t28.5 -11.5t30 -2.5q44 0 99 25t106 73q8 6 17 6t9 -6q0 -28 -20 -53q-64 -75 -143.5 -113.5t-151.5 -38.5t-115 62.5t-43 132.5q0 65 23.5 153t66.5 171q116 219 275 299q33 18 79.5 26t71.5 8z" />
    <glyph glyph-name="Ccaron" unicode="&#x10c;" horiz-adv-x="1347" 
d="M172 489q0 173 75.5 337.5t207.5 289.5q121 117 275 178.5t314 61.5q149 0 283 -56q29 -12 43 -12.5t41 12.5q37 20 45 15q5 -7 8.5 -21.5t-0.5 -27.5q-95 -149 -121 -279q0 -14 -16 -14q-12 0 -22.5 20.5t-8.5 32.5q12 62 3.5 109t-42.5 84q-40 40 -95 62t-101 22
q-107 0 -227.5 -54t-229.5 -162q-113 -114 -176 -287.5t-63 -332.5q0 -183 81 -291q58 -76 135.5 -112.5t145.5 -36.5q60 0 139.5 29.5t120.5 60.5q2 2 26 23t33.5 29t32 29t36 34.5t31 32.5t30.5 36q12 12 18 12q8 0 8.5 -22.5t-4.5 -44.5q-12 -39 -77 -141.5t-83 -118.5
q-6 -6 -19.5 -11.5t-17.5 -1.5q-52 42 -104 31q-3 -1 -56.5 -13t-101 -19t-88.5 -7q-75 0 -152.5 25t-155.5 86.5t-122 150.5q-49 98 -49 262zM1063 1432q-8 0 -21 14t-20 27q-15 26 -54 86.5t-61 95.5q-13 23 -11.5 38t15.5 15q22 0 47 -18q13 -11 59.5 -46t72.5 -57
q12 -9 26 0q111 55 234 105q29 14 53 14q13 0 14 -13q2 -17 -31 -40q-174 -125 -235 -174q-60 -47 -88 -47z" />
    <glyph glyph-name="ccaron" unicode="&#x10d;" horiz-adv-x="641" 
d="M508 915q-17 0 -29 56q-8 80 -39 282q-2 18 6 37t19 19q7 0 17 -14.5t16 -32.5q40 -116 55 -168q2 -8 7 -9.5t13 5.5q23 22 89 91.5t98 100.5q27 27 51 27q6 0 8.5 -7.5t-1.5 -21.5t-13 -31q-11 -15 -55.5 -69t-98.5 -119t-73 -88q-1 -1 -7.5 -9t-10.5 -12.5t-12 -12.5
t-13.5 -12.5t-13 -8t-13.5 -3.5zM561 827q52 0 88 -18q23 -9 23 -41q0 -44 -28.5 -79.5t-47.5 -35.5q-20 0 -31 23q-41 90 -90 90q-35 0 -76.5 -42.5t-81.5 -119.5q-53 -96 -87.5 -207t-34.5 -207q0 -37 8.5 -61t25 -33t28.5 -11.5t30 -2.5q44 0 99 25t106 73q8 6 17 6t9 -6
q0 -28 -20 -53q-64 -75 -143.5 -113.5t-151.5 -38.5t-115 62.5t-43 132.5q0 65 23.5 153t66.5 171q116 219 275 299q33 18 79.5 26t71.5 8z" />
    <glyph glyph-name="Dcaron" unicode="&#x10e;" horiz-adv-x="1495" 
d="M803 1327q277 0 442 -129q205 -156 205 -442q0 -107 -31.5 -208t-85 -180.5t-116.5 -141t-134 -105.5q-121 -73 -259.5 -102t-311.5 -29q-57 0 -142.5 5t-125.5 5q-47 0 -140 -4t-108 -4q-70 0 -70 26q0 10 17.5 17.5t40.5 9.5q41 3 62 5.5t47 10t40 18.5t30 31.5t28 50
t24 72.5q121 416 268 897q36 118 -37 127q-91 11 -110 11q-23 2 -41.5 9t-18.5 17t20.5 17.5t47.5 7.5q19 0 77 -1t87 -1q25 0 134.5 5t160.5 5zM786 1272q-20 0 -55 -10q-17 -4 -35 -37q-45 -88 -184 -551q-75 -258 -98 -351.5t-23 -148.5q-4 -77 43 -98q79 -35 133 -35
q98 0 212.5 41t197.5 100q125 87 204 261.5t79 344.5q0 117 -41 224t-121 170q-54 44 -139.5 67t-172.5 23zM881 1409q-8 0 -21 14t-20 27q-15 26 -54 86.5t-61 95.5q-13 23 -11.5 38.5t15.5 15.5q20 0 47 -19q14 -11 59.5 -45.5t71.5 -56.5q13 -10 27 0q105 52 233 104
q29 14 54 14q13 0 14 -13q2 -17 -31 -40q-174 -125 -235 -174q-60 -47 -88 -47z" />
    <glyph glyph-name="dcaron" unicode="&#x10f;" horiz-adv-x="987" 
d="M25 111q0 99 59 230.5t159.5 252.5t209.5 182q31 18 67 30.5t56 16.5t28 4q22 0 58.5 -16t62.5 -39q4 -2 13 0t10 6q6 19 30.5 97.5t54 177t60.5 213.5q11 48 3.5 65t-40.5 33q-57 23 -57 37q0 5 11.5 15t20.5 11q33 10 119 25.5t119 15.5q9 0 9 -23.5t-9 -60.5
q-16 -57 -45.5 -149.5t-76.5 -238.5t-85 -267q-22 -73 -83.5 -276t-82.5 -277q-17 -59 23 -59q30 0 83.5 43t98.5 104q11 13 18 10.5t7 -16.5q0 -15 -8 -39q-29 -86 -130 -171t-174 -85q-19 0 -41 29t-22 49q0 41 74 274q1 4 -2.5 9.5t-8 7.5t-6.5 0
q-112 -168 -235.5 -266.5t-229.5 -98.5q-60 0 -90 33q-28 35 -28 111zM168 111q0 -22 12.5 -37t26.5 -15q51 0 149 70.5t181 181.5q88 123 141 273q31 85 12 141q-18 35 -53 35q-87 0 -221 -148q-107 -118 -177.5 -262t-70.5 -239zM1329 1468q20 0 12 -45
q-11 -52 -60.5 -146.5t-94.5 -158.5q-7 -11 -26.5 -24t-33.5 -13q-8 0 -9.5 13.5t3.5 27.5q27 74 50 156t28 121q3 13 21 24q21 16 56 30.5t54 14.5z" />
    <glyph glyph-name="Dcroat" unicode="&#x110;" horiz-adv-x="1495" 
d="M797 1329q284 0 450 -129q103 -79 153 -194t50 -250q0 -199 -106 -370.5t-254 -262.5q-121 -72 -256.5 -102.5t-303.5 -30.5q-59 0 -152.5 5t-133.5 5q-46 0 -133.5 -3t-102.5 -3q-76 0 -76 22q0 30 70 33q47 2 76 8.5t50.5 17t37.5 37.5t27.5 56t29.5 86
q9 29 47.5 152.5t63.5 205.5q4 31 -10 31l-154 -4q-9 0 -12.5 14t4.5 31q13 29 31 29l157 4q7 0 13 8t8 16q85 283 114 389q32 115 -32 127q-34 7 -115 11q-24 2 -41.5 9t-17.5 17q0 11 20.5 18t54.5 7q18 0 70.5 -1t81.5 -1q25 0 131.5 6t159.5 6zM795 1272
q-49 0 -69.5 -11t-31.5 -40q-44 -103 -159 -486q-5 -18 8 -18l331 6q22 0 17 -29q-3 -21 -15.5 -32t-23.5 -11l-332 -8q-6 0 -13.5 -10.5t-10.5 -22.5q-93 -317 -105 -415q-6 -38 8 -71.5t41 -47.5q80 -37 142 -37q73 0 182 33.5t199 95.5q131 95 214 260.5t83 359.5
q0 118 -38 224t-116 168q-56 43 -140.5 67.5t-170.5 24.5z" />
    <glyph glyph-name="dcroat" unicode="&#x111;" horiz-adv-x="987" 
d="M25 111q0 70 27.5 157t78.5 178.5t134 179.5t184 150q45 26 87.5 38.5t63.5 12.5q34 0 71 -17t60 -40q3 -3 10 2t7 8q6 19 36 113.5t56 181.5q1 3 1 8t-2 8.5t-5 2.5l-216 -7q-4 0 -9 8t-5 13q0 13 12 30t25 17l211 6q2 0 9 7t7 10q13 48 21 82q11 48 3.5 65t-40.5 33
q-53 24 -53 37q0 18 30 28q33 10 113 24.5t113 14.5q27 0 6 -84q-2 -8 -57 -188q-8 -25 4 -25l120 4q17 0 17 -24q0 -11 -12.5 -27t-32.5 -16l-109 -4q-11 0 -20 -17q-50 -155 -109 -352q-23 -76 -59 -195.5t-62.5 -207.5t-42.5 -146q-9 -31 -3.5 -49t24.5 -18q28 0 73.5 41
t90.5 100q23 33 32 19q3 -4 3 -13q1 -10 -9 -41q-31 -84 -129 -168t-170 -84q-22 0 -38.5 23t-16.5 61q0 40 68 254q6 18 -3 19q-8 1 -18 -15q-258 -342 -459 -342q-50 0 -84 39t-34 105zM168 113q0 -22 11 -36t28 -14q51 0 149 70t181 180q89 125 141 271q29 80 10 139
q-16 33 -53 33q-97 0 -227 -144q-106 -117 -173 -259.5t-67 -239.5z" />
    <glyph glyph-name="Emacron" unicode="&#x112;" horiz-adv-x="1226" 
d="M553 690l231 8q56 2 89.5 7.5t58.5 21.5t37.5 30t36.5 48q23 33 45 33q8 0 10 -12t-1.5 -30t-12.5 -34q-62 -113 -97 -266q-11 -41 -30 -41q-11 0 -18.5 14t-6.5 45q4 65 -18 86t-62 21l-264 -7q-58 0 -70 -39q-17 -49 -34 -111t-36 -137t-28 -108q-21 -82 4 -119
q15 -22 28.5 -30t39.5 -9q147 -10 299 -10q86 0 141 37q96 47 174 158q13 19 17 25t11.5 14.5t12.5 11t12 2.5q20 0 8 -55q-12 -50 -41 -111t-55 -90q-39 -42 -57 -45q-54 -12 -92 -12q-45 0 -318 7t-334 7q-65 0 -150.5 -6t-109.5 -6q-26 0 -42.5 7.5t-16.5 18.5
q0 10 17 18t46 11q61 5 99 15.5t61 33t33.5 45t24.5 66.5q40 119 149.5 466t138.5 433q11 33 15 52.5t2 42t-16.5 36t-44 24.5t-77.5 17q-53 4 -53 29q0 20 66 20q19 0 99.5 -3t139.5 -3h191q242 0 331 3.5t138 16.5q4 1 7.5 -5.5t5.5 -14.5t1 -12q-29 -52 -57 -129.5
t-31 -106.5q0 -5 -5 -10.5t-11 -5.5q-12 0 -27 16.5t-16 42.5q-6 86 -15 104q-9 20 -32 29q-22 10 -68.5 12.5t-187.5 2.5q-61 0 -90 -9t-48 -34q-10 -14 -27.5 -58.5t-40 -113.5t-38.5 -119t-39 -124.5t-25 -82.5q-3 -7 6 -18t17 -11zM727 1581l414 10q6 0 11 -12t3 -20
q0 -7 -9 -30.5t-16 -33.5q-11 -16 -32 -16l-402 -13q-7 0 -13.5 6.5t-6.5 12.5q3 43 24 76q1 4 11.5 12t15.5 8z" />
    <glyph glyph-name="emacron" unicode="&#x113;" horiz-adv-x="706" 
d="M440 1165l365 15q4 0 8 -4.5t7 -15.5t1 -25q-6 -29 -18 -47.5t-27 -18.5l-362 -8q-9 0 -13.5 11.5t-1.5 25.5q4 23 18 45t23 22zM565 827q43 0 74 -12.5t46.5 -32.5t22.5 -40t7 -40q0 -48 -43 -104t-115 -96q-91 -51 -299 -111q-26 -8 -33 -31q-26 -72 -26 -159
q0 -123 108 -123q49 0 103 27.5t98 68.5q31 31 51 31q4 0 8 -4.5t4 -7.5q0 -20 -24 -52q-52 -60 -144.5 -115t-193.5 -55q-46 0 -102 61.5t-56 151.5q0 111 62 247.5t163 242.5q75 77 152.5 115t136.5 38zM557 778q-49 0 -113.5 -56.5t-114 -130t-67.5 -130.5q-1 -2 -1 -7
t1.5 -9t5.5 -3q324 113 324 285q0 51 -35 51z" />
    <glyph glyph-name="Ebreve" unicode="&#x114;" horiz-adv-x="1226" 
d="M553 690l231 8q56 2 89.5 7.5t58.5 21.5t37.5 30t36.5 48q23 33 45 33q8 0 10 -12t-1.5 -30t-12.5 -34q-62 -113 -97 -266q-11 -41 -30 -41q-11 0 -18.5 14t-6.5 45q4 65 -18 86t-62 21l-264 -7q-58 0 -70 -39q-17 -49 -34 -111t-36 -137t-28 -108q-21 -82 4 -119
q15 -22 28.5 -30t39.5 -9q147 -10 299 -10q86 0 141 37q96 47 174 158q13 19 17 25t11.5 14.5t12.5 11t12 2.5q20 0 8 -55q-12 -50 -41 -111t-55 -90q-39 -42 -57 -45q-54 -12 -92 -12q-45 0 -318 7t-334 7q-65 0 -150.5 -6t-109.5 -6q-26 0 -42.5 7.5t-16.5 18.5
q0 10 17 18t46 11q61 5 99 15.5t61 33t33.5 45t24.5 66.5q40 119 149.5 466t138.5 433q11 33 15 52.5t2 42t-16.5 36t-44 24.5t-77.5 17q-53 4 -53 29q0 20 66 20q19 0 99.5 -3t139.5 -3h191q242 0 331 3.5t138 16.5q4 1 7.5 -5.5t5.5 -14.5t1 -12q-29 -52 -57 -129.5
t-31 -106.5q0 -5 -5 -10.5t-11 -5.5q-12 0 -27 16.5t-16 42.5q-6 86 -15 104q-9 20 -32 29q-22 10 -68.5 12.5t-187.5 2.5q-61 0 -90 -9t-48 -34q-10 -14 -27.5 -58.5t-40 -113.5t-38.5 -119t-39 -124.5t-25 -82.5q-3 -7 6 -18t17 -11zM858 1425q-85 0 -134 51.5t-38 129.5
q1 17 10 28t17 11q2 0 4 -0.5t4 -2t3.5 -3.5t3 -4.5t2.5 -4.5t2.5 -5.5t2.5 -5.5t2 -5.5t2 -5.5q39 -76 144 -76q112 0 192 80q4 4 11.5 12.5t12 13.5t11 9t12.5 4q10 0 14 -7.5t3 -18.5t-6 -23q-28 -70 -99 -123.5t-176 -53.5z" />
    <glyph glyph-name="ebreve" unicode="&#x115;" horiz-adv-x="706" 
d="M563 991q-33 0 -61 12t-51 39.5t-29 71.5t4 109q3 18 15.5 28.5t23.5 10.5q14 0 18 -43q5 -62 32 -90.5t83 -28.5q41 0 88.5 29.5t85.5 89.5q23 38 43 38q10 0 10.5 -18t-4.5 -33q-11 -34 -30.5 -68t-50 -69t-77 -56.5t-100.5 -21.5zM565 827q43 0 74 -12.5t46.5 -32.5
t22.5 -40t7 -40q0 -48 -43 -104t-115 -96q-91 -51 -299 -111q-26 -8 -33 -31q-26 -72 -26 -159q0 -123 108 -123q49 0 103 27.5t98 68.5q31 31 51 31q4 0 8 -4.5t4 -7.5q0 -20 -24 -52q-52 -60 -144.5 -115t-193.5 -55q-46 0 -102 61.5t-56 151.5q0 111 62 247.5t163 242.5
q75 77 152.5 115t136.5 38zM557 778q-49 0 -113.5 -56.5t-114 -130t-67.5 -130.5q-1 -2 -1 -7t1.5 -9t5.5 -3q324 113 324 285q0 51 -35 51z" />
    <glyph glyph-name="Edotaccent" unicode="&#x116;" horiz-adv-x="1226" 
d="M553 690l231 8q56 2 89.5 7.5t58.5 21.5t37.5 30t36.5 48q23 33 45 33q8 0 10 -12t-1.5 -30t-12.5 -34q-62 -113 -97 -266q-11 -41 -30 -41q-11 0 -18.5 14t-6.5 45q4 65 -18 86t-62 21l-264 -7q-58 0 -70 -39q-17 -49 -34 -111t-36 -137t-28 -108q-21 -82 4 -119
q15 -22 28.5 -30t39.5 -9q147 -10 299 -10q86 0 141 37q96 47 174 158q13 19 17 25t11.5 14.5t12.5 11t12 2.5q20 0 8 -55q-12 -50 -41 -111t-55 -90q-39 -42 -57 -45q-54 -12 -92 -12q-45 0 -318 7t-334 7q-65 0 -150.5 -6t-109.5 -6q-26 0 -42.5 7.5t-16.5 18.5
q0 10 17 18t46 11q61 5 99 15.5t61 33t33.5 45t24.5 66.5q40 119 149.5 466t138.5 433q11 33 15 52.5t2 42t-16.5 36t-44 24.5t-77.5 17q-53 4 -53 29q0 20 66 20q19 0 99.5 -3t139.5 -3h191q242 0 331 3.5t138 16.5q4 1 7.5 -5.5t5.5 -14.5t1 -12q-29 -52 -57 -129.5
t-31 -106.5q0 -5 -5 -10.5t-11 -5.5q-12 0 -27 16.5t-16 42.5q-6 86 -15 104q-9 20 -32 29q-22 10 -68.5 12.5t-187.5 2.5q-61 0 -90 -9t-48 -34q-10 -14 -27.5 -58.5t-40 -113.5t-38.5 -119t-39 -124.5t-25 -82.5q-3 -7 6 -18t17 -11zM909 1638q29 0 54 -28.5t24 -67.5
q-3 -44 -36 -73t-72 -29q-40 0 -62 25.5t-20 68.5q3 42 35.5 73t76.5 31z" />
    <glyph glyph-name="edotaccent" unicode="&#x117;" horiz-adv-x="706" 
d="M627 1243q36 0 57 -27t21 -63q0 -45 -27.5 -73.5t-67.5 -28.5q-34 0 -53.5 25.5t-19.5 62.5q0 43 29.5 73.5t60.5 30.5zM565 827q43 0 74 -12.5t46.5 -32.5t22.5 -40t7 -40q0 -48 -43 -104t-115 -96q-91 -51 -299 -111q-26 -8 -33 -31q-26 -72 -26 -159q0 -123 108 -123
q49 0 103 27.5t98 68.5q31 31 51 31q4 0 8 -4.5t4 -7.5q0 -20 -24 -52q-52 -60 -144.5 -115t-193.5 -55q-46 0 -102 61.5t-56 151.5q0 111 62 247.5t163 242.5q75 77 152.5 115t136.5 38zM557 778q-49 0 -113.5 -56.5t-114 -130t-67.5 -130.5q-1 -2 -1 -7t1.5 -9t5.5 -3
q324 113 324 285q0 51 -35 51z" />
    <glyph glyph-name="Eogonek" unicode="&#x118;" horiz-adv-x="1226" 
d="M555 690l229 8q56 2 89.5 7.5t58.5 21.5t37.5 30t36.5 48q23 33 45 33q8 0 10 -12t-1.5 -30t-12.5 -34q-62 -113 -97 -266q-11 -41 -30 -41q-11 0 -18.5 14t-6.5 45q4 65 -18 86t-62 21l-262 -7q-58 0 -70 -39q-17 -49 -34 -111t-36 -137t-28 -108q-21 -82 4 -119
q15 -22 27.5 -30t38.5 -9q147 -10 299 -10q86 0 141 37q96 47 174 158q13 19 17 25t11.5 14.5t12.5 11t12 2.5q20 0 8 -55q-12 -50 -41 -111t-55 -90q-39 -42 -57 -45q-54 -12 -94 -12q-85 -66 -147 -142t-62 -145q0 -36 21.5 -56t54.5 -20q64 0 129 43q12 8 16.5 -1
t1.5 -23q-3 -8 -14 -26t-15 -22q-80 -92 -211 -92q-65 0 -104 40t-39 98q0 49 29.5 101t77.5 98.5t95.5 82t98.5 66.5q-75 1 -303.5 6.5t-278.5 5.5q-65 0 -150.5 -6t-109.5 -6q-26 0 -42.5 7.5t-16.5 18.5q0 10 17 18t46 11q61 5 99 15.5t61 33t33.5 45t24.5 66.5
q40 119 149.5 466t138.5 433q11 33 15 52.5t2 42t-16.5 36t-44 24.5t-77.5 17q-53 4 -53 29q0 20 66 20q19 0 99.5 -3t139.5 -3h191q242 0 331 3.5t138 16.5q4 1 7.5 -5.5t5.5 -14.5t1 -12q-29 -52 -57 -129.5t-31 -106.5q0 -5 -5 -10.5t-11 -5.5q-12 0 -27 16.5t-16 42.5
q-6 86 -15 104q-9 20 -32 29q-22 10 -68 12.5t-186 2.5q-61 0 -90 -9t-48 -34q-10 -14 -27.5 -58.5t-40 -113.5t-38.5 -119t-39 -124.5t-25 -82.5q-3 -7 6 -18t17 -11z" />
    <glyph glyph-name="eogonek" unicode="&#x119;" horiz-adv-x="706" 
d="M565 827q81 0 115.5 -38t34.5 -84q0 -49 -43 -105.5t-113 -95.5q-83 -48 -301 -113q-15 -5 -22 -11t-11 -20q-26 -76 -26 -161q0 -71 28.5 -96t77.5 -25q50 0 105.5 27.5t95.5 64.5q29 31 53 31q3 0 6.5 -4.5t3.5 -8.5q0 -22 -24 -49q-30 -37 -152 -114
q-90 -63 -164.5 -155t-74.5 -167q0 -34 22 -55t55 -21q72 0 129 43q15 7 18.5 1.5t0.5 -19.5q-3 -9 -14 -27t-15 -22q-34 -41 -89 -70t-124 -29q-65 0 -102 40t-37 100q0 83 78 170t192 163q-30 -6 -59 -6q-53 0 -106.5 59t-53.5 154q0 117 60 249.5t163 238.5
q75 77 154.5 116t138.5 39zM553 772q-49 0 -112.5 -55.5t-112 -127t-66.5 -126.5q-3 -10 1.5 -15.5t17.5 -1.5q47 16 83.5 31t81 40.5t74 53t50 67t20.5 83.5q0 51 -37 51z" />
    <glyph glyph-name="Ecaron" unicode="&#x11a;" horiz-adv-x="1226" 
d="M553 690l231 8q56 2 89.5 7.5t58.5 21.5t37.5 30t36.5 48q23 33 45 33q8 0 10 -12t-1.5 -30t-12.5 -34q-62 -113 -97 -266q-11 -41 -30 -41q-11 0 -18.5 14t-6.5 45q4 65 -18 86t-62 21l-264 -7q-58 0 -70 -39q-17 -49 -34 -111t-36 -137t-28 -108q-21 -82 4 -119
q15 -22 28.5 -30t39.5 -9q147 -10 299 -10q86 0 141 37q96 47 174 158q13 19 17 25t11.5 14.5t12.5 11t12 2.5q20 0 8 -55q-12 -50 -41 -111t-55 -90q-39 -42 -57 -45q-54 -12 -92 -12q-45 0 -318 7t-334 7q-65 0 -150.5 -6t-109.5 -6q-26 0 -42.5 7.5t-16.5 18.5
q0 10 17 18t46 11q61 5 99 15.5t61 33t33.5 45t24.5 66.5q40 119 149.5 466t138.5 433q11 33 15 52.5t2 42t-16.5 36t-44 24.5t-77.5 17q-53 4 -53 29q0 20 66 20q19 0 99.5 -3t139.5 -3h191q242 0 331 3.5t138 16.5q4 1 7.5 -5.5t5.5 -14.5t1 -12q-29 -52 -57 -129.5
t-31 -106.5q0 -5 -5 -10.5t-11 -5.5q-12 0 -27 16.5t-16 42.5q-6 86 -15 104q-9 20 -32 29q-22 10 -68.5 12.5t-187.5 2.5q-61 0 -90 -9t-48 -34q-10 -14 -27.5 -58.5t-40 -113.5t-38.5 -119t-39 -124.5t-25 -82.5q-3 -7 6 -18t17 -11zM850 1407q-8 0 -21 14t-20 27
q-15 26 -54 86.5t-61 95.5q-13 23 -11.5 38t15.5 15q22 0 47 -18q15 -12 60.5 -46t71.5 -56q12 -9 26 0q101 50 234 104q29 14 53 14q13 0 15 -13q2 -17 -31 -40q-184 -133 -236 -174q-60 -47 -88 -47z" />
    <glyph glyph-name="ecaron" unicode="&#x11b;" horiz-adv-x="706" 
d="M557 915q-17 0 -29 56q-8 80 -39 282q-2 18 6 37t19 19q7 0 17 -14.5t16 -32.5q40 -116 55 -168q2 -8 7.5 -9.5t13.5 5.5q22 22 88 91.5t98 100.5q27 27 51 27q6 0 8.5 -7.5t-1.5 -21.5t-13 -31q-11 -15 -55.5 -69t-98.5 -119t-73 -88q-1 -1 -7.5 -9t-10.5 -12.5
t-12 -12.5t-13.5 -12.5t-13 -8t-13.5 -3.5zM565 827q43 0 74 -12.5t46.5 -32.5t22.5 -40t7 -40q0 -48 -43 -104t-115 -96q-91 -51 -299 -111q-26 -8 -33 -31q-26 -72 -26 -159q0 -123 108 -123q49 0 103 27.5t98 68.5q31 31 51 31q4 0 8 -4.5t4 -7.5q0 -20 -24 -52
q-52 -60 -144.5 -115t-193.5 -55q-46 0 -102 61.5t-56 151.5q0 111 62 247.5t163 242.5q75 77 152.5 115t136.5 38zM557 778q-49 0 -113.5 -56.5t-114 -130t-67.5 -130.5q-1 -2 -1 -7t1.5 -9t5.5 -3q324 113 324 285q0 51 -35 51z" />
    <glyph glyph-name="Gcircumflex" unicode="&#x11c;" horiz-adv-x="1427" 
d="M1087 1356q139 0 259 -35q42 -8 98 0q9 2 24.5 7t20.5 5q7 0 11.5 -15.5t-3.5 -25.5q-42 -53 -81 -130t-58 -144q-13 -51 -29 -51q-27 0 -24 65q1 16 4 47.5t3.5 47.5t-1.5 36t-8 33q-25 47 -89 78t-153 31q-242 0 -451 -228q-108 -118 -173.5 -287t-65.5 -321
q0 -95 22.5 -174.5t68.5 -143t124.5 -99.5t181.5 -36q36 0 57.5 8t48.5 29q22 16 33 35q55 85 119 311q12 41 11 71t-31 47.5t-93 21.5q-71 9 -71 30q0 13 22 20t49 7q14 0 81 -3t122 -3q63 0 136.5 8t86.5 8q52 0 52 -22q-2 -21 -56 -31q-38 -8 -60 -22t-31.5 -28
t-26.5 -48q-54 -121 -74 -195q-35 -132 -39 -188q-1 -7 -20.5 -22.5t-32.5 -20.5q-19 -5 -88.5 -25.5t-128.5 -32.5t-113 -12q-122 0 -218 32.5t-156 84t-99 122t-54.5 141t-15.5 146.5q0 79 22 173t81 212.5t147 210.5q125 133 292.5 204t366.5 71zM1178 1710q5 0 9.5 -2
t7.5 -4t7.5 -7.5t6 -8t5.5 -9.5t5 -8q34 -64 114 -192q12 -23 8 -34t-18 -11q-20 0 -45 22q-73 50 -131 107q-11 8 -23 0q-89 -53 -237 -113q-32 -12 -53 -12q-14 0 -14 13q2 18 32 38q190 128 250 178q15 13 39.5 28t36.5 15z" />
    <glyph glyph-name="gcircumflex" unicode="&#x11d;" horiz-adv-x="792" 
d="M670 1303q20 0 26 -54q29 -178 39 -288q2 -18 -5.5 -34t-20.5 -16q-7 0 -17.5 16t-15.5 34t-21.5 70.5t-27.5 92.5q-4 14 -19 2q-36 -39 -194 -190q-6 -6 -22 -15.5t-27 -9.5q-10 0 -13 8.5t1.5 22t15.5 27.5q31 33 116 134.5t115 145.5q20 22 28.5 30t20.5 16t21 8z
M551 829q44 0 108 -28q14 -8 24 -9t34 3q8 1 62 15.5t81 14.5q45 0 45 -57q0 -59 -45 -59q-28 0 -71 10t-70 10q-16 0 -20 -8t-1 -16q11 -40 11 -64q-1 -68 -32 -142.5t-77 -133.5t-99 -104t-98 -62q-21 -9 -137 -33q-7 0 -14 -10q-10 -23 -10 -52q0 -26 19.5 -53t35.5 -39
q31 -22 126 -78.5t116 -70.5q55 -38 86.5 -85.5t31.5 -92.5q0 -28 -30 -73t-72 -71q-184 -110 -385 -110q-137 0 -250 65q-52 29 -81 73t-29 81q0 25 10.5 46.5t35.5 44t37.5 31.5t45.5 31q40 26 121.5 65.5t99.5 49.5q4 2 6.5 5t3 5.5t-1.5 3.5q-51 66 -51 82q0 31 20 62
q10 16 23 30t26 26.5t17 17.5q9 18 2 20q-61 27 -92 62t-31 90q0 68 21.5 134t50.5 111.5t67 88.5t62 63t45 35q113 75 223 75zM526 778q-45 0 -100 -51q-87 -77 -155 -209.5t-68 -214.5q0 -42 23 -66t53 -24q25 0 92 57q60 54 141.5 190.5t81.5 225.5q0 41 -22 66.5
t-46 25.5zM268 -496q54 0 108 14t97 47.5t43 80.5q0 50 -49 88q-36 30 -112 79.5t-115 67.5q-9 4 -29.5 4.5t-26.5 -2.5q-22 -7 -57.5 -27t-76.5 -49.5t-70 -70.5t-29 -80q0 -44 49 -78q50 -35 124 -54.5t144 -19.5z" />
    <glyph glyph-name="Gbreve" unicode="&#x11e;" horiz-adv-x="1427" 
d="M1087 1356q139 0 259 -35q42 -8 98 0q9 2 24.5 7t20.5 5q7 0 11.5 -15.5t-3.5 -25.5q-42 -53 -81 -130t-58 -144q-13 -51 -29 -51q-27 0 -24 65q1 16 4 47.5t3.5 47.5t-1.5 36t-8 33q-25 47 -89 78t-153 31q-242 0 -451 -228q-108 -118 -173.5 -287t-65.5 -321
q0 -95 22.5 -174.5t68.5 -143t124.5 -99.5t181.5 -36q36 0 57.5 8t48.5 29q22 16 33 35q55 85 119 311q12 41 11 71t-31 47.5t-93 21.5q-71 9 -71 30q0 13 22 20t49 7q14 0 81 -3t122 -3q63 0 136.5 8t86.5 8q52 0 52 -22q-2 -21 -56 -31q-38 -8 -60 -22t-31.5 -28
t-26.5 -48q-54 -121 -74 -195q-35 -132 -39 -188q-1 -7 -20.5 -22.5t-32.5 -20.5q-19 -5 -88.5 -25.5t-128.5 -32.5t-113 -12q-122 0 -218 32.5t-156 84t-99 122t-54.5 141t-15.5 146.5q0 79 22 173t81 212.5t147 210.5q125 133 292.5 204t366.5 71zM1079 1454
q-85 0 -133.5 51t-38.5 129q1 17 10 28t17 11q13 0 27 -37q38 -75 143 -75q113 0 192 79q4 4 11.5 12.5t12 13.5t11 9t12.5 4q10 0 14 -7.5t3 -18.5t-6 -23q-28 -69 -99 -122.5t-176 -53.5z" />
    </font>
</defs>
</svg>
