<?xml version="1.0" standalone="no"?>
<!DOCTYPE svg PUBLIC "-//W3C//DTD SVG 1.1//EN" "http://www.w3.org/Graphics/SVG/1.1/DTD/svg11.dtd" >
<svg xmlns="http://www.w3.org/2000/svg" xmlns:xlink="http://www.w3.org/1999/xlink" version="1.1">
<metadata>
Created by FontForge 20170731 at Thu Jan 20 22:46:25 2022
 By Aleksey,,,
(c) 2005 Adobe Systems Incorporated. All Rights Reserved.
</metadata>
<defs>
<font id="GaramondPremrPro-Smbd" horiz-adv-x="819" >
  <font-face 
    font-family="Garamond Premr Pro Smbd"
    font-weight="600"
    font-stretch="normal"
    units-per-em="2048"
    panose-1="2 2 6 2 6 5 6 2 4 3"
    ascent="1485"
    descent="-563"
    x-height="813"
    cap-height="1303"
    bbox="-465 -674 2869 1878"
    underline-thickness="102"
    underline-position="-307"
    unicode-range="U+0020-FB04"
  />
<missing-glyph horiz-adv-x="1024" 
d="M0 0v1434h1024v-1434h-1024zM512 809l348 522h-696zM573 717l349 -522v1044zM164 102h696l-348 523zM102 1239v-1044l349 522z" />
    <glyph glyph-name="T_h" unicode="Th" horiz-adv-x="2187" 
d="M696 1294q340 0 367 2q43 0 150.5 4t136.5 9q33 8 73 39q61 45 74 45q9 0 17 -8.5t8 -14.5q0 -3 -11.5 -105.5t-15.5 -181.5q-6 -180 -6 -344q0 -3 4.5 -8.5t9.5 -1.5q55 49 120 77t122 28q147 0 219 -99q59 -79 59 -225q1 -76 5 -214t4 -155q1 -37 19.5 -55t59.5 -29
q56 -14 56 -37q0 -28 -60 -28q-31 0 -87 4t-81 4q-38 0 -95.5 -3t-94.5 -3q-24 0 -36.5 8t-12.5 18q0 21 41 33q35 10 47 30t18 73q2 22 2 342q0 125 -51 168q-48 45 -123 45q-41 0 -74 -10.5t-44 -18.5q-6 -6 -15 -27.5t-10 -42.5q-4 -109 -4 -444q3 -52 19 -75t53 -32
q49 -13 49 -34q0 -29 -62 -29q-4 0 -31 0.5t-69.5 1t-85.5 0.5q-48 0 -105.5 -3t-70.5 -3q-19 0 -35 8t-16 21q0 22 57 38q42 16 56 39.5t18 61.5q18 162 18 596q0 358 -6 387q-4 26 -16 42.5t-23 16.5q-32 3 -197 2.5t-206 -6.5q-8 -1 -14.5 -9t-6.5 -15q0 -37 -1 -182.5
t-1 -243.5q0 -428 10 -555q5 -56 35 -86t125 -50q20 -4 35.5 -17.5t15.5 -23.5q0 -12 -18.5 -19t-38.5 -7q-3 0 -137 4t-166 4q-35 0 -138.5 -6t-117.5 -6q-64 0 -64 22q0 14 14.5 27t30.5 16q52 13 79 25t43.5 37t21 54t6.5 89q6 88 12 325.5t6 358.5q0 66 -1 144t-1 96
q0 12 -8 20t-14 8q-43 7 -228 7q-26 0 -60.5 -14.5t-51.5 -33.5q-30 -35 -70 -104q-35 -57 -45 -57q-14 0 -22.5 15t-8.5 32q0 13 19 114.5t20 159.5q0 9 11.5 26t21.5 17q12 0 39 -31q5 -8 32 -19.5t54 -14.5q38 -3 192.5 -8t251.5 -5z" />
    <glyph glyph-name="Tcaron_h" unicode="&#x164;h" horiz-adv-x="2187" 
d="M696 1294q340 0 367 2q43 0 150.5 4t136.5 9q33 8 73 39q61 45 74 45q9 0 17 -8.5t8 -14.5q0 -3 -11.5 -105.5t-15.5 -181.5q-6 -180 -6 -344q0 -3 4.5 -8.5t9.5 -1.5q55 49 120 77t122 28q147 0 219 -99q59 -79 59 -225q1 -76 5 -214t4 -155q1 -37 19.5 -55t59.5 -29
q56 -14 56 -37q0 -28 -60 -28q-31 0 -87 4t-81 4q-38 0 -95.5 -3t-94.5 -3q-24 0 -36.5 8t-12.5 18q0 21 41 33q35 10 47 30t18 73q2 22 2 342q0 125 -51 168q-48 45 -123 45q-41 0 -74 -10.5t-44 -18.5q-6 -6 -15 -27.5t-10 -42.5q-4 -109 -4 -444q3 -52 19 -75t53 -32
q49 -13 49 -34q0 -29 -62 -29q-4 0 -31 0.5t-69.5 1t-85.5 0.5q-48 0 -105.5 -3t-70.5 -3q-19 0 -35 8t-16 21q0 22 57 38q42 16 56 39.5t18 61.5q18 162 18 596q0 358 -6 387q-4 26 -16 42.5t-23 16.5q-32 3 -197 2.5t-206 -6.5q-8 -1 -14.5 -9t-6.5 -15q0 -37 -1 -182.5
t-1 -243.5q0 -428 10 -555q5 -56 35 -86t125 -50q20 -4 35.5 -17.5t15.5 -23.5q0 -12 -18.5 -19t-38.5 -7q-3 0 -137 4t-166 4q-35 0 -138.5 -6t-117.5 -6q-64 0 -64 22q0 14 14.5 27t30.5 16q52 13 79 25t43.5 37t21 54t6.5 89q6 88 12 325.5t6 358.5q0 66 -1 144t-1 96
q0 12 -8 20t-14 8q-43 7 -228 7q-26 0 -60.5 -14.5t-51.5 -33.5q-30 -35 -70 -104q-35 -57 -45 -57q-14 0 -22.5 15t-8.5 32q0 13 19 114.5t20 159.5q0 9 11.5 26t21.5 17q12 0 39 -31q5 -8 32 -19.5t54 -14.5q38 -3 192.5 -8t251.5 -5zM682 1382q-22 0 -84 52
q-14 14 -75 69.5t-101 93.5q-6 4 -12.5 13.5t-10 20t2.5 18.5t22 8q7 0 18.5 -3t25 -8t17.5 -6q120 -60 185 -98q19 -8 39 0q24 15 92.5 47.5t91.5 44.5q37 21 63 21q20 0 17 -20t-33 -48q-27 -25 -92.5 -81t-85.5 -74q-23 -20 -47 -35t-33 -15z" />
    <glyph glyph-name="Tcommaaccent_h" unicode="&#x162;h" horiz-adv-x="2187" 
d="M696 1294q340 0 367 2q43 0 150.5 4t136.5 9q33 8 73 39q61 45 74 45q9 0 17 -8.5t8 -14.5q0 -3 -11.5 -105.5t-15.5 -181.5q-6 -180 -6 -344q0 -3 4.5 -8.5t9.5 -1.5q55 49 120 77t122 28q147 0 219 -99q59 -79 59 -225q1 -76 5 -214t4 -155q1 -37 19.5 -55t59.5 -29
q56 -14 56 -37q0 -28 -60 -28q-31 0 -87 4t-81 4q-38 0 -95.5 -3t-94.5 -3q-24 0 -36.5 8t-12.5 18q0 21 41 33q35 10 47 30t18 73q2 22 2 342q0 125 -51 168q-48 45 -123 45q-41 0 -74 -10.5t-44 -18.5q-6 -6 -15 -27.5t-10 -42.5q-4 -109 -4 -444q3 -52 19 -75t53 -32
q49 -13 49 -34q0 -29 -62 -29q-4 0 -31 0.5t-69.5 1t-85.5 0.5q-48 0 -105.5 -3t-70.5 -3q-19 0 -35 8t-16 21q0 22 57 38q42 16 56 39.5t18 61.5q18 162 18 596q0 358 -6 387q-4 26 -16 42.5t-23 16.5q-32 3 -197 2.5t-206 -6.5q-8 -1 -14.5 -9t-6.5 -15q0 -37 -1 -182.5
t-1 -243.5q0 -428 10 -555q5 -56 35 -86t125 -50q20 -4 35.5 -17.5t15.5 -23.5q0 -12 -18.5 -19t-38.5 -7q-3 0 -137 4t-166 4q-35 0 -138.5 -6t-117.5 -6q-64 0 -64 22q0 14 14.5 27t30.5 16q52 13 79 25t43.5 37t21 54t6.5 89q6 88 12 325.5t6 358.5q0 66 -1 144t-1 96
q0 12 -8 20t-14 8q-43 7 -228 7q-26 0 -60.5 -14.5t-51.5 -33.5q-30 -35 -70 -104q-35 -57 -45 -57q-14 0 -22.5 15t-8.5 32q0 13 19 114.5t20 159.5q0 9 11.5 26t21.5 17q12 0 39 -31q5 -8 32 -19.5t54 -14.5q38 -3 192.5 -8t251.5 -5zM659 -94q63 0 109.5 -48.5
t46.5 -131.5q0 -47 -20 -86.5t-48 -63t-61 -40.5t-57.5 -23.5t-38.5 -6.5q-13 0 -24 5.5t-11 13.5q0 10 10.5 21t22.5 16q41 15 76.5 48t35.5 73q0 27 -13.5 40t-47.5 19q-78 20 -78 80q0 41 31 62.5t67 21.5z" />
    <glyph glyph-name="f_f_b" unicode="ffb" horiz-adv-x="2234" 
d="M729 705h-315q-7 0 -12 -11.5t-5 -25.5q0 -18 2 -238.5t2 -230.5q1 -39 6 -62.5t17.5 -37.5t24 -19.5t36.5 -13.5q52 -19 52 -35q0 -15 -17 -26t-39 -11q-24 0 -101 3t-97 3q-42 0 -107.5 -5t-81.5 -5q-23 0 -38 7.5t-15 18.5q0 25 43 35q38 11 57.5 28.5t23.5 34.5t5 50
q6 105 6 493q0 28 -20 31l-78 14q-7 1 -12 10t-5 17q0 15 16.5 28t43.5 26.5t35 19.5q22 14 22 35q0 129 60 260q26 52 75 109.5t109 97.5q57 37 132.5 62.5t143.5 25.5t130.5 -19.5t97.5 -48.5q14 -10 24 0q48 48 131.5 83.5t169.5 35.5q87 0 170 -39q11 -5 29 6
q52 41 72 41q9 0 17.5 -11t8.5 -22q0 -75 -8 -485q0 -103 2 -148q0 -5 3 -9.5t6.5 -6.5t4.5 -2q47 29 106 45t105 16q159 0 263 -90q139 -120 139 -319q0 -115 -54.5 -206.5t-138.5 -152.5q-60 -45 -145.5 -67.5t-153.5 -22.5q-55 0 -137 13.5t-139 29.5q-13 7 -43 -8
l-25 -10q-7 0 -15.5 9.5t-8.5 19.5q14 224 14 684q2 66 -0.5 251t-5.5 242q-6 63 -23 84q-16 23 -60.5 45.5t-90.5 22.5q-33 0 -64.5 -19t-50.5 -49q-61 -89 -61 -465q0 -5 6 -10.5t10 -5.5q54 0 102.5 0.5t74.5 0.5l26 1q11 0 24 -32t13 -62q0 -4 -15.5 -13.5t-23.5 -9.5
q-6 0 -97 2t-104 2q-4 0 -9 -8t-5 -16q0 -434 6 -502q1 -28 4 -42.5t15 -28.5t35 -22.5t65 -17.5q24 -5 36.5 -17t12.5 -20q0 -10 -18 -19t-44 -9q-8 0 -89 4t-111 4q-72 0 -138.5 -5t-80.5 -5q-19 0 -35.5 8.5t-16.5 21.5q0 8 13 18.5t30 14.5q26 8 41.5 16.5t25 17t14 26
t5.5 33t2 49.5q0 36 2 229.5t2 255.5q0 7 -5.5 16t-10.5 9zM416 805h311q7 0 12.5 6t5.5 10q0 88 20.5 186t53.5 158q3 4 3.5 15t-1.5 14q-40 46 -100.5 80.5t-124.5 34.5q-31 0 -62.5 -19t-52.5 -45q-84 -103 -84 -416q0 -8 6 -16t13 -8zM1923 379q0 65 -24 137t-66 121
q-28 36 -81.5 62t-111.5 26q-41 0 -77 -16q-4 -1 -10.5 -9.5t-6.5 -13.5q-4 -31 -4 -115q0 -234 17 -356q2 -23 16.5 -57.5t40.5 -59.5q55 -55 127 -55q15 0 41.5 15.5t54.5 45.5q40 44 62 121t22 154z" />
    <glyph glyph-name="f_f_h" unicode="ffh" horiz-adv-x="2232" 
d="M1788 834q75 0 130.5 -24.5t87.5 -69.5t47 -102t15 -128q0 -220 9 -369q0 -21 8 -36t28.5 -26.5t28 -15t33.5 -12.5q35 -14 35 -31q0 -28 -60 -28q-29 0 -84.5 4t-80.5 4q-40 0 -98 -3t-93 -3q-49 0 -49 26q0 21 43 33q34 10 45 30t16 73q4 35 4 284q0 156 -38.5 213.5
t-137.5 57.5q-38 0 -72 -10.5t-44 -18.5q-6 -6 -15 -27.5t-10 -42.5q-7 -365 -4 -444q2 -36 17 -61t28.5 -33.5t36.5 -18.5q11 -5 14.5 -6.5t10.5 -5t9.5 -7.5t2.5 -9q0 -29 -60 -29h-41q-14 0 -87 1t-105 1q-25 -1 -68.5 -3.5t-58.5 -2.5q-20 0 -36.5 8t-16.5 21
q0 24 57 43q32 10 49 29.5t23 66.5q18 162 18 821q0 237 -16 266q-27 40 -81.5 69.5t-105.5 29.5q-31 0 -58 -20.5t-42 -53.5q-26 -52 -41 -170.5t-14 -282.5q0 -5 7 -10.5t11 -5.5h201q10 -1 18 -29.5t8 -56.5q0 -8 -11 -17.5t-21 -9.5q-6 0 -93 2t-100 2q-6 0 -12 -8.5
t-6 -17.5q0 -351 8 -502q1 -31 2.5 -44t9 -29.5t24 -24.5t46.5 -15q25 -5 38 -16t13 -19q0 -11 -17.5 -20.5t-43.5 -9.5q-11 0 -68.5 4.5t-85.5 5.5q-13 0 -36.5 -1t-31.5 -1q-45 -1 -97.5 -5.5t-70.5 -4.5q-19 0 -35 8t-16 22q0 8 14 18t29 13q60 19 73 44t15 102
q6 327 6 487q3 23 -20 23h-309q-6 0 -11.5 -12t-5.5 -27v-21q4 -230 4 -430q0 -60 9.5 -90t24 -39t50.5 -20q50 -18 50 -35q0 -15 -16 -26t-38 -11h-34q-41 0 -152 6q-11 0 -29 -1t-24 -1q-34 0 -85 -4t-63 -4q-23 0 -39 7.5t-16 18.5q0 24 45 35q54 16 69 40.5t17 72.5v12
q1 39 3 235.5t3 245.5q0 9 -4 15.5t-8 10t-14 6.5t-15.5 3.5t-18 2t-16.5 1.5q-18 3 -30 11q-13 19 -13 22q0 23 41 43q8 5 26 14t27.5 15t18 16t8.5 21q2 151 57.5 263.5t174.5 194.5q57 39 136 68t154 29q65 0 129 -20t97 -50q3 -3 11 -3.5t13 3.5q48 48 133 84.5
t170 36.5q96 0 158 -39q17 -10 31 -4q15 6 38 15.5t37 15.5t17 6q7 0 15 -10t8 -15q-25 -170 -25 -674q0 -3 4.5 -8.5t9.5 -1.5q55 49 119 77t121 28zM416 805h311q18 0 18 20q0 85 22 180.5t56 157.5q3 6 3 16.5t-3 14.5q-40 45 -101.5 81t-121.5 36q-28 0 -53.5 -10
t-53.5 -41t-48 -82t-33 -140.5t-13 -208.5q0 -7 5.5 -15.5t11.5 -8.5z" />
    <glyph glyph-name="f_f_j" unicode="ffj" horiz-adv-x="1673" 
d="M731 705h-313q-7 0 -12 -11.5t-5 -27.5q0 -35 3 -240t4 -223q2 -54 11.5 -81.5t22.5 -36t45 -19.5q54 -16 54 -35q0 -15 -17.5 -26t-40.5 -11q-24 0 -100 3t-96 3q-44 0 -109.5 -5t-81.5 -5q-23 0 -38 6.5t-15 17.5q0 26 43 37q29 8 46.5 18.5t26 26.5t11 29t4.5 39
q0 58 6 493q0 6 -6 17.5t-10 11.5q-71 14 -84 16q-14 4 -14 27q0 15 16 28t42 26.5t34 19.5q24 15 24 35q0 131 60 258q23 52 72 110t110 99q55 37 132 62.5t146 25.5q68 0 130.5 -23t99.5 -57q3 -3 11 -3.5t11 3.5q50 50 141.5 90.5t186.5 40.5q150 0 221 -86
q21 -24 21 -62q0 -36 -44.5 -75t-74.5 -39q-10 0 -33.5 14t-44.5 37q-36 40 -90.5 73t-95.5 33q-34 0 -55.5 -14t-45.5 -43q-30 -35 -49.5 -153.5t-19.5 -303.5q0 -20 26 -20q22 -1 49.5 -1t65.5 0.5t62 0.5q171 -2 268 24q38 15 57 15q8 0 15.5 -11.5t7.5 -25.5
q-6 -327 -6 -709q-7 -218 -84 -348q-79 -130 -181 -215q-38 -32 -82.5 -57t-56.5 -25q-10 0 -25 7.5t-22 17.5q-5 3 -3.5 11.5t7.5 12.5q24 15 44 28t31.5 21.5t22 18t14 13.5t10 11.5t7.5 8.5q100 123 100 489q0 489 -8 582q0 11 -5.5 21t-14.5 10q-127 3 -283 0
q-5 0 -9.5 -8.5t-4.5 -22.5q0 -436 8 -506q5 -53 14 -67q17 -27 99 -46q25 -5 37 -16t12 -19q0 -11 -18 -20.5t-44 -9.5q-8 0 -88 5t-110 5q-71 0 -138 -5t-81 -5q-19 0 -35.5 8.5t-16.5 21.5q0 7 14 17.5t29 15.5q26 8 41.5 16.5t25 17t14 26t5.5 33t2 49.5q2 80 2 485
q1 7 -4.5 16t-9.5 9zM418 805h313q5 0 11 6t6 10q0 87 20.5 179t54.5 153q3 7 2.5 17t-2.5 14q-38 54 -97.5 89.5t-127.5 35.5q-32 0 -63.5 -18.5t-51.5 -45.5q-82 -100 -82 -416q0 -7 6 -15.5t11 -8.5z" />
    <glyph glyph-name="f_f_k" unicode="ffk" horiz-adv-x="2193" 
d="M729 705h-313q-7 0 -12 -13t-5 -26q0 -17 3.5 -234t3.5 -231q3 -52 12.5 -78.5t23 -36.5t45.5 -20q52 -19 52 -35q0 -15 -17 -26t-39 -11q-25 0 -102 3t-96 3q-42 0 -108 -5t-83 -5q-21 0 -36 7.5t-15 18.5q0 25 43 35q54 16 69 40.5t17 72.5q1 15 2 103.5t2 212.5t2 177
q0 10 -5.5 20t-12.5 11l-80 14q-8 2 -14.5 11t-6.5 18q0 14 19.5 27.5t51 27.5t38.5 19q12 12 12 33q0 131 60 258q25 54 74 112t108 97q56 37 131.5 62.5t144.5 25.5t132 -20t98 -50q15 -7 22 0q48 50 128.5 85.5t166.5 35.5q83 0 170 -41q13 -6 29 6q48 43 65 43
q19 0 35 -39q-4 -35 -9 -305.5t-5 -439.5q0 -178 6 -205q5 -12 16 -12q7 0 33 22q43 36 119 113t106 114q3 6 5 14t-10.5 18.5t-39.5 15.5q-53 9 -53 32q0 10 13 17.5t30 7.5h84q70 0 174 11t123 11q18 0 18 -16t-16.5 -31.5t-26.5 -17.5q-88 -20 -137 -42.5t-114 -72.5
q-31 -22 -75 -62.5t-50 -54.5q-2 -2 -3 -5.5t-0.5 -6t1.5 -2.5q29 -45 145.5 -195t165.5 -198q57 -54 123 -70q23 -7 37 -16.5t14 -16.5q0 -32 -64 -32q-13 0 -120.5 5.5t-169.5 4.5l-99 -2q-53 0 -53 29q0 16 45 30q49 16 27 47q-22 33 -49.5 69t-70 91t-79.5 105
q-27 41 -39 41q-5 0 -10 -19q-6 -18 -5 -121.5t7 -136.5q5 -33 18.5 -49.5t53.5 -26.5q18 -5 31.5 -14t13.5 -16q0 -31 -58 -31q-26 0 -97.5 3t-96.5 3q-40 0 -106 -4t-74 -4q-58 0 -58 26q0 19 60 37q46 12 61.5 29.5t18.5 62.5q3 33 8.5 293.5t5.5 448.5q0 212 -8 313
q-6 60 -23 84q-16 24 -56.5 46t-86.5 22q-31 0 -63.5 -19.5t-51.5 -48.5q-61 -89 -61 -465q0 -6 4.5 -11t7.5 -5q54 0 103.5 0.5t76.5 0.5l27 1q10 0 19.5 -31.5t9.5 -62.5q0 -4 -12.5 -13.5t-18.5 -9.5t-97 2t-104 2q-6 0 -11 -8t-5 -16q0 -457 4 -502q2 -53 22.5 -78
t75.5 -37q25 -5 36 -15t11 -18q0 -30 -57 -30q-9 0 -79.5 5t-100.5 5q-71 0 -138 -6t-81 -6q-21 0 -36.5 8t-15.5 22q0 7 14 17.5t29 15.5q26 8 41.5 16.5t25 17t14 26.5t5.5 34t2 50q4 164 4 485q1 8 -5 16.5t-11 8.5zM418 805h313q5 0 9.5 6t4.5 10q0 87 21.5 184
t54.5 158q3 6 3.5 16t-1.5 13q-41 47 -100.5 82t-124.5 35q-32 0 -64.5 -19t-52.5 -45q-82 -100 -82 -416q0 -9 6 -16.5t13 -7.5z" />
    <glyph glyph-name="f_f_t" unicode="fft" horiz-adv-x="1785" 
d="M420 807h305q20 0 20 16q0 87 21.5 189t54.5 162q1 3 1 10t-1 10q-38 48 -99 81.5t-124 33.5q-201 0 -201 -478q0 -14 5 -19t18 -5zM723 698h-305q-21 0 -21 -39v-16q1 -43 3 -220.5t3 -209.5q2 -62 10.5 -89.5t21.5 -36.5t50 -21q54 -20 54 -35t-18 -26t-40 -11h-35
q-70 4 -204 4q-34 0 -84.5 -4t-63.5 -4q-23 0 -38 7.5t-15 18.5q0 25 43 35q49 14 65.5 37t18.5 59q8 99 8 523q0 8 -23 17t-61 13q-29 6 -29 31q0 5 1.5 9t5.5 8.5t8.5 8t13 9t15 9.5t19 11.5t21.5 12.5q31 21 31 32q0 304 234 467q159 95 288 95q65 0 130.5 -20.5
t101.5 -51.5q11 -5 18 2q44 46 124 81.5t163 39.5q7 0 23 -1t24 -1q64 -7 112 -38.5t48 -82.5q0 -34 -25 -67t-55 -42q-27 -5 -45 5q-22 6 -77 55.5t-97 66.5q-25 7 -41 7q-56 -6 -88 -86q-49 -115 -49 -435q0 -9 5 -14.5t11 -5.5q17 0 78.5 -0.5t114 -0.5t81.5 1
q37 0 97 63q19 16 43.5 40t39.5 39.5t17 15.5q11 0 26 -13t15 -22q0 -54 -2 -105q0 -5 6 -11.5t12 -6.5q20 0 73 1.5t99 3t48 1.5h7.5t7.5 -2t8.5 -7.5t5.5 -15t5.5 -26.5t1.5 -41q0 -13 -18.5 -19t-34.5 -6h-196q-18 0 -21 -86v-356q0 -131 135 -131q33 0 86 29
q19 14 35 14q14 0 14 -33q0 -37 -43 -74t-104.5 -59.5t-116.5 -22.5q-60 0 -112 25.5t-80 62.5q-20 27 -27.5 57.5t-7.5 88.5q0 39 4 221t4 217q0 45 -18 47q-63 10 -283 4q-4 0 -9 -7.5t-5 -16.5q0 -410 8 -506q3 -55 21 -75t96 -38q24 -5 35.5 -16t11.5 -19q0 -10 -17 -19
t-43 -9q-24 0 -122.5 3t-133.5 3q-45 -1 -97 -4.5t-71 -3.5t-34 8t-15 22q0 7 13 16.5t28 14.5q60 19 74 44.5t16 101.5q6 216 6 477q0 24 -22 24z" />
    <glyph glyph-name="f_h" unicode="fh" horiz-adv-x="1662" 
d="M983 1417q0 -3 -3 -129t-6.5 -292t-4.5 -257q0 -3 3.5 -8.5t8.5 -1.5q54 49 117.5 77t122.5 28q147 0 219 -99q59 -79 59 -225q5 -290 8 -369q0 -37 19 -55t63 -29q53 -14 53 -37q0 -28 -59 -28q-30 0 -86 4t-82 4q-39 0 -96 -3t-92 -3q-51 0 -51 26q0 21 43 33
q35 10 46.5 30.5t16.5 72.5q2 22 2 342q0 125 -51 168q-52 45 -123 45q-40 0 -74.5 -10.5t-44.5 -18.5q-5 -5 -13 -27t-11 -43q-3 -85 -4 -240.5t2 -203.5q1 -52 16 -75t51 -32q51 -12 51 -34q0 -29 -61 -29q-4 0 -31.5 0.5t-70 1t-84.5 0.5q-49 0 -105.5 -3t-68.5 -3
q-20 0 -37 8t-17 21q0 22 58 38q29 11 44.5 28t20 32t6.5 41q19 171 19 637q2 68 -1 201t-7 188q-2 55 -23 84q-14 22 -60 44.5t-94 22.5q-32 0 -63.5 -18t-50.5 -47q-65 -100 -62 -451q0 -5 7.5 -11.5t11.5 -6.5q54 0 102.5 0.5t73.5 0.5l26 1q10 0 19.5 -31.5t9.5 -62.5
q0 -5 -12 -14t-19 -9q-6 0 -94.5 2t-101.5 2q-6 0 -12.5 -8t-6.5 -16q-2 -40 -0.5 -208.5t4.5 -242.5q2 -62 11.5 -93t24 -41t48.5 -19q52 -20 52 -33q0 -15 -16.5 -27t-35.5 -12q-31 0 -102 3t-90 3q-51 0 -116.5 -5t-84.5 -5q-22 0 -37.5 7.5t-15.5 18.5q0 22 45 35
q34 9 53 26t23.5 31.5t7.5 36.5q6 87 6 508q0 32 -20 35q-14 2 -42.5 7.5t-35.5 6.5q-6 1 -10.5 7.5t-4.5 11.5q0 18 15 32t45 30t33 18q22 16 22 35q0 92 23 186q52 193 198 311q54 42 134 72.5t151 30.5q87 0 162 -35q18 -7 33 4q25 22 47 33.5t30 11.5q9 0 18 -11t9 -22z
" />
    <glyph glyph-name="f_j" unicode="fj" horiz-adv-x="1087" 
d="M688 707q-183 3 -270 0q-6 0 -12.5 -8t-6.5 -21q-2 -37 1 -260.5t6 -267.5q3 -39 20 -56t68 -35q41 -14 41 -34q0 -12 -12 -21.5t-34 -9.5q-10 0 -96.5 3t-118.5 3q-40 0 -112 -5t-78 -5q-18 0 -29.5 8.5t-11.5 19.5q0 7 11 17t28 16q57 18 71 41t17 88q6 105 6 477
q0 28 -18 31q-16 2 -40.5 6t-35.5 6q-8 2 -16.5 8.5t-8.5 14.5q0 17 21.5 32.5t75.5 43.5q24 14 24 28q4 183 68 312q63 128 194 215q129 90 277 90q144 0 219 -86q20 -23 20 -62q0 -36 -44 -75t-74 -39q-10 0 -33 13.5t-45 35.5q-37 41 -91.5 73.5t-97.5 32.5
q-35 0 -57 -11.5t-43 -37.5q-30 -37 -53 -159t-23 -302q0 -20 27 -20q70 -2 164 -2q204 0 274 24q30 15 60 15q11 0 18.5 -11t7.5 -26q-1 -51 -3 -366t-3 -343q-7 -218 -84 -348q-81 -133 -182 -215q-36 -32 -80 -57t-57 -25q-10 0 -25.5 7.5t-22.5 17.5q-3 3 -2 11.5
t7 12.5q98 60 129 101q100 119 100 489q0 446 -8 586q-2 11 -10 20t-17 9z" />
    <glyph glyph-name="f_k" unicode="fk" horiz-adv-x="1628" 
d="M969 739q0 -258 4 -276q5 -12 16 -12q7 0 33 22q43 36 119 113t106 114q3 6 5 14t-10.5 18.5t-39.5 15.5q-53 9 -53 32q0 10 13 17.5t30 7.5h84q70 0 174 11t123 11q20 0 20 -16t-17.5 -31t-27.5 -18q-89 -20 -138 -42.5t-116 -72.5q-29 -20 -72.5 -61t-50.5 -56l-2 -14
q28 -43 145 -194t165 -199q59 -53 125 -70q23 -7 37 -16.5t14 -16.5q0 -32 -64 -32q-13 0 -121 5.5t-170 4.5q-15 0 -48 -1t-50 -1q-53 0 -53 29q0 17 45 30q49 16 27 47q-30 42 -95.5 128t-103.5 137q-28 37 -35 40q-2 1 -4 1q-5 0 -10 -19q-6 -18 -5 -121.5t7 -136.5
q5 -33 18.5 -49.5t53.5 -26.5q17 -4 30 -13t13 -17q0 -31 -56 -31q-26 0 -97.5 3t-96.5 3q-42 0 -110.5 -4t-76.5 -4q-59 0 -59 26q0 19 61 37q47 13 64 32t22 60q15 293 15 590q0 312 -11 451q-3 59 -22 86q-16 22 -60.5 43.5t-91.5 21.5q-71 0 -116 -65q-62 -100 -62 -451
q0 -5 8 -11.5t11 -6.5q55 0 103.5 0.5t74.5 0.5l26 1q10 0 19.5 -31.5t9.5 -62.5q0 -4 -12.5 -13.5t-18.5 -9.5t-95.5 2t-102.5 2q-6 0 -12.5 -8t-6.5 -16q-2 -40 -0.5 -208.5t4.5 -242.5q2 -63 10.5 -93t22 -40.5t45.5 -19.5q53 -19 53 -33q0 -15 -17 -27t-36 -12
q-31 0 -99 3t-87 3q-50 0 -116 -5t-85 -5q-22 0 -37.5 7.5t-15.5 18.5q0 22 47 35t63.5 37t18.5 57q2 31 8 508q0 32 -20 35q-15 2 -42 7t-38 7q-4 1 -8.5 7.5t-4.5 11.5q0 17 15.5 32t43.5 30t32 18q22 16 22 35q3 102 23 184q27 100 75 176t127 139q54 41 132.5 71
t152.5 30q87 0 162 -35q6 -3 16.5 -1.5t16.5 7.5q51 43 73 43q9 0 18 -11t9 -22q0 -3 -2.5 -128.5t-5.5 -292t-4 -257.5z" />
    <glyph glyph-name="f_t" unicode="ft" horiz-adv-x="1239" 
d="M948 805q20 0 72.5 1t98.5 2t48 1q5 0 12.5 -6t12.5 -19q6 -14 6 -67q0 -25 -53 -25h-193q-5 0 -11 -6t-7 -14q-3 -46 -3 -131.5t1.5 -179t1.5 -109.5q0 -70 36 -100.5t95 -30.5q21 0 71 21.5t54 21.5q14 0 14 -33q0 -37 -43 -74t-104.5 -59.5t-116.5 -22.5
q-61 0 -113.5 25.5t-78.5 62.5q-21 29 -29 58t-8 88q0 39 4 229t4 226q0 10 -5 21t-12 11h-284q-5 0 -11 -8t-6 -14q-2 -32 1.5 -246t7.5 -264q5 -52 25 -72.5t93 -34.5q25 -5 38.5 -15.5t13.5 -18.5q0 -11 -17.5 -20t-44.5 -9q-13 -1 -67.5 2.5t-79.5 3.5h-56
q-54 -1 -129.5 -4.5t-89.5 -3.5q-51 0 -51 28q0 7 13.5 18t29.5 15q59 19 71.5 42t14.5 98q4 168 4 460q0 41 -16 41q-13 -1 -43.5 -2t-44.5 -2q-6 0 -14 11.5t-7 21.5q0 1 63.5 47t63.5 64q0 71 17.5 151.5t50.5 144.5q64 133 181.5 220.5t238.5 93.5q27 0 41 -2
q61 -4 111 -35t50 -86q0 -50 -37 -83.5t-79 -33.5q-17 0 -46.5 27.5t-68 60.5t-72.5 41q-17 7 -35 4q-35 -2 -59 -32q-37 -46 -55.5 -150.5t-18.5 -333.5q0 -4 6.5 -10t8.5 -6q45 0 154 1t128 1q23 0 37 12q13 10 51.5 48.5t71 70t35.5 31.5q12 0 26.5 -13t14.5 -22l-2 -111
q0 -5 6 -11.5t12 -6.5z" />
    <glyph glyph-name="gamma_gamma" unicode="&#x3b3;&#x3b3;" horiz-adv-x="1628" 
d="M260 844q185 0 248 -289q11 -52 20 -148.5t9 -162.5q0 -11 10 -5q6 4 8 11q130 380 252 506q31 41 79.5 65.5t78.5 24.5q34 0 63 -10t62.5 -37t61.5 -85.5t46 -144.5q12 -57 23.5 -155.5t11.5 -161.5q0 -12 12 -4q5 4 8 10q118 239 168 356q65 155 80 240q0 2 9 4t19.5 2
t14.5 -4q21 -13 45.5 -42t32.5 -58q5 -29 -2.5 -65.5t-15.5 -55.5q-17 -38 -91.5 -160.5t-142 -252t-88.5 -218.5q-10 -52 -10 -59q0 -64 -4 -230.5t-8 -181.5q-2 -9 -20.5 -22.5t-27.5 -10.5q-49 12 -95 40.5t-66 68.5q-18 41 -11 67q46 167 113 353q21 68 12 178
q-3 66 -19 136t-44 138t-75.5 111t-106.5 43q-46 0 -89 -29q-147 -97 -247 -551q-6 -31 -6 -92q1 -90 -9 -265.5t-18 -207.5q-3 -9 -26.5 -24.5t-32.5 -14.5q-46 8 -93.5 40.5t-66.5 74.5q-6 14 -9.5 36.5t-0.5 32.5q26 96 145 408q11 41 10 110t-8 113q-8 54 -28.5 110.5
t-51.5 110t-78.5 87.5t-101.5 34q-50 0 -95 -20.5t-71 -44.5q-15 -13 -24.5 -7.5t-12.5 25.5q-4 22 6 63.5t23 65.5q36 58 97.5 106t127.5 48z" />
    <glyph glyph-name="lambda_lambda" unicode="&#x3bb;&#x3bb;" horiz-adv-x="1579" 
d="M211 1391q75 0 127 -62t102 -229q18 -54 80 -324.5t80 -335.5q20 -76 42 -130t35.5 -78.5t34 -39t25.5 -15.5t21 -3q8 -1 21.5 14t17.5 25q48 81 142 260t110 205q27 49 55 84q10 10 12 20.5t-2 28.5q-86 438 -313 438q-58 0 -96 -9t-80 -36q-4 -3 -13.5 10.5t-9.5 20.5
q0 14 11 40t26 46q88 123 221 123q178 0 262 -303q8 -28 94 -400.5t113 -447.5q6 -15 22.5 -38t51.5 -48t72 -25q64 0 112 11q3 1 4.5 -3t2 -12t1.5 -10q4 -9 -4 -43q-14 -68 -59.5 -115t-97.5 -47q-108 0 -152 143q-18 56 -59.5 235t-46.5 208q-3 13 -13 9.5t-12 -11.5
q-13 -43 -108.5 -259.5t-141.5 -269.5q-14 -23 -42.5 -38t-51.5 -15q-44 0 -80 18t-58.5 42.5t-42.5 65t-29.5 68.5t-21.5 70q-72 270 -83 332q-3 13 -15 8.5t-14 -12.5q-5 -17 -92.5 -243.5t-94.5 -239.5q-51 -113 -79 -113q-26 0 -66 17t-72 45q-8 7 -14 23.5t-4 21.5
q14 53 301 573q54 110 68 127q22 22 10 63q-35 152 -43 178q-40 129 -120 166q-38 17 -89 17q-70 0 -139 -21q-5 -2 -16 8.5t-11 16.5q0 48 37 100q64 95 172 95z" />
    <glyph glyph-name="longs_b" unicode="&#x17f;b" horiz-adv-x="1630" 
d="M942 1411q0 -62 -1 -164t-2.5 -239.5t-2.5 -212.5q0 -6 3.5 -11.5t7.5 -7.5t5 -2q45 28 104 44t107 16q157 0 262 -91q140 -121 140 -319q0 -215 -195 -358q-59 -45 -145 -68t-152 -23q-119 -2 -278 43q-13 6 -41 -8q-20 -8 -25 -8q-7 0 -15.5 8.5t-8.5 18.5
q14 280 14 684q0 455 -6 504q-3 41 -27 69q-23 23 -56.5 38t-66.5 15q-66 0 -102 -55q-26 -35 -43.5 -154t-18.5 -290q0 -449 11 -658q3 -60 20 -85t68 -38q25 -5 38 -15t13 -17q0 -13 -17.5 -24t-42.5 -11q-16 0 -84 4t-94 4q-53 0 -129 -6t-86 -6q-19 0 -34 7.5t-15 20.5
q0 8 12.5 18.5t30.5 16.5q54 16 67.5 38.5t16.5 84.5q4 148 4 496q0 7 -6 14t-16 8l-68 13q-7 2 -13.5 9t-6.5 17q0 6 11 16.5t38 30t37 27.5q24 21 24 31q1 74 21 152.5t47 129.5q64 145 190 238q122 84 246 84q32 0 75.5 -9t65.5 -22q18 -10 51 25q28 28 48 28
q9 0 14.5 -18t5.5 -33zM1317 383q0 67 -21.5 137t-62.5 119q-31 37 -83.5 63.5t-111.5 26.5q-46 0 -82 -16q-11 -7 -16 -23q-4 -62 -4 -112q0 -246 16 -361q12 -76 62 -121q50 -47 112 -47q53 0 105 57q42 45 64 120t22 157z" />
    <glyph glyph-name="longs_h" unicode="&#x17f;h" horiz-adv-x="1624" 
d="M178 670q0 7 -6 14t-16 8q-24 6 -68 13q-7 2 -13.5 9t-6.5 17q0 6 11 16.5t38 30t37 27.5q24 21 24 31q1 74 21 152.5t47 129.5q64 145 190 238q53 38 119 62t127 24q34 0 76.5 -9t64.5 -22q19 -11 54 29q22 26 45 26q9 0 14.5 -18t5.5 -33q0 -62 -6 -305.5t-6 -359.5
q0 -6 4.5 -11.5t9.5 -1.5q50 42 116.5 69.5t121.5 27.5q149 0 221 -99q59 -79 59 -225q6 -359 6 -369q0 -37 19 -55t63 -29q52 -10 52 -37q0 -12 -14.5 -20t-43.5 -8q-30 0 -87 4t-83 4q-37 0 -94.5 -4t-93.5 -4q-26 0 -38.5 10t-12.5 21q0 17 41 32q34 10 47 31t18 70
q6 67 6 348q0 76 -14.5 110t-40.5 56q-50 41 -121 41q-76 0 -121 -27q-7 -4 -13.5 -20t-6.5 -27q-4 -83 -5 -261.5t1 -209.5q1 -52 15.5 -74t51.5 -31q49 -13 49 -36q0 -14 -17.5 -21.5t-41.5 -7.5q-4 0 -31 1t-70 2t-85 1q-48 0 -101.5 -3t-66.5 -3q-19 0 -35 8t-16 21
q0 21 57 40q29 9 44 26.5t17.5 30.5t5.5 42q17 204 17 727q0 153 -4 321q-3 50 -29 76q-22 24 -56 38.5t-67 14.5q-63 0 -104 -57q-24 -34 -41.5 -153t-18.5 -289q0 -450 11 -656q3 -67 15.5 -90.5t57.5 -34.5q22 -5 34.5 -15t12.5 -17q0 -12 -16 -22.5t-39 -10.5
q-16 0 -77 3t-87 3q-53 0 -129 -5t-86 -5q-19 0 -34 8t-15 22q0 8 12.5 17.5t30.5 15.5q54 18 67.5 40.5t16.5 84.5q4 144 4 492z" />
    <glyph glyph-name="longs_i" unicode="&#x17f;i" horiz-adv-x="1099" 
d="M395 817q0 -447 4 -655q3 -47 21.5 -70t64.5 -35q25 -5 37.5 -15t12.5 -19q0 -12 -16 -21.5t-42 -9.5q-9 0 -80.5 4t-101.5 4q-43 0 -114.5 -4t-86.5 -4q-19 0 -34 8.5t-15 22.5q0 7 11.5 16.5t27.5 13.5q58 18 72 42.5t16 101.5q6 252 6 475q0 6 -8 14.5t-18 9.5l-66 6
q-7 0 -15 11t-8 22q0 4 11 12.5t35 26t41 31.5q26 22 26 31q0 69 18 149.5t52 144.5q67 140 194 224q61 42 135.5 66t143.5 24q147 0 219 -88q20 -20 20 -60q0 -37 -43.5 -76.5t-72.5 -39.5q-12 0 -35 14t-45 37q-37 41 -91.5 73.5t-97.5 32.5q-62 0 -102 -49
q-29 -36 -52.5 -163.5t-23.5 -307.5zM725 465q0 112 -4 162q-2 10 -11 20.5t-18 18t-33 26.5q-28 24 -28 37q0 26 57 37q47 8 139.5 37.5t98.5 30.5q7 1 13.5 -7t6.5 -16q-8 -136 -8 -459q0 -63 4 -207q1 -43 16 -58.5t54 -27.5q49 -15 49 -39q0 -12 -16.5 -19t-40.5 -7
q-3 0 -73.5 3t-96.5 3q-38 0 -106 -4t-83 -4q-23 0 -38 8.5t-15 19.5q0 19 55 35q54 19 66 60q12 44 12 350z" />
    <glyph glyph-name="longs_k" unicode="&#x17f;k" horiz-adv-x="1593" 
d="M180 670q0 7 -6 14t-16 8q-7 1 -32.5 6t-35.5 7q-7 2 -14.5 9.5t-7.5 16.5q0 6 12 16.5t38 29t38 28.5q24 21 24 31q0 74 19.5 152.5t46.5 129.5q66 149 192 240q122 84 246 84q34 0 76.5 -9t64.5 -22q16 -11 45 21q34 34 54 34q9 0 14.5 -18t5.5 -33q0 -74 -5.5 -350.5
t-6.5 -376.5q0 -198 6 -223q2 -14 14 -14q15 0 37 22q42 34 116 110.5t107 116.5q3 6 4 13.5t-12.5 16.5t-40.5 15q-25 4 -38 14.5t-13 20.5t13 17.5t30 7.5h88q71 0 170.5 10t118.5 10q27 0 27 -18q0 -16 -17.5 -29t-28.5 -16q-94 -22 -138.5 -42.5t-108.5 -70.5
q-32 -24 -68.5 -59t-56.5 -60q-4 -4 -4 -10t2 -8q43 -63 153 -202.5t160 -186.5q52 -49 123 -68q23 -6 36 -14.5t13 -15.5q0 -35 -65 -35q-12 0 -118.5 4.5t-168.5 3.5q-21 0 -57.5 -1t-49.5 -1q-53 0 -53 29q0 19 43 32q24 6 33 19t-2 28q-26 38 -53.5 75t-70.5 92t-73 96
q-24 36 -41 36q-2 0 -3.5 -0.5t-3 -2.5t-2 -3t-1.5 -4.5t-2 -5.5q-3 -12 -2.5 -122.5t4.5 -133.5q5 -32 19.5 -48.5t54.5 -27.5q43 -10 43 -30q0 -33 -56 -33q-25 0 -97 4t-97 4q-42 0 -104 -4t-70 -4q-58 0 -58 28q0 21 54 37q47 13 60.5 28.5t19.5 59.5q12 65 12 600
q0 383 -4 465q0 45 -27 76q-22 23 -56.5 38t-66.5 15q-63 0 -104 -57q-25 -34 -42.5 -154t-17.5 -288q0 -451 11 -660q3 -65 16 -89t57 -34q24 -7 37 -16t13 -16q0 -12 -18 -22.5t-42 -10.5q-16 0 -76 4t-86 4q-53 0 -129 -6t-88 -6q-17 0 -32 7.5t-15 20.5q0 8 12 18.5
t31 16.5q53 16 66.5 39t15.5 84q6 111 6 496z" />
    <glyph glyph-name="longs_l" unicode="&#x17f;l" horiz-adv-x="1099" 
d="M180 670q0 7 -6 14t-16 8q-44 8 -68 13q-7 2 -14.5 9.5t-7.5 16.5q0 6 12 16.5t38 29t38 28.5q24 21 24 31q0 74 19.5 152.5t46.5 129.5q65 146 192 238q119 86 246 86q34 0 76.5 -9t64.5 -22q18 -13 54 29q22 26 45 26q9 0 14.5 -18t5.5 -33q0 -61 -3 -380t-3 -435
q-3 -275 8 -455q2 -38 19 -57t71 -35q43 -14 43 -35q0 -13 -16 -19.5t-37 -6.5q-26 0 -109 4t-100 4q-24 0 -90 -4t-88 -4t-36 5t-18.5 10.5t-4.5 10.5q0 24 49 37q50 13 62.5 38t17.5 108q12 184 12 512q0 371 -6 497q0 45 -27 76q-22 23 -56.5 38t-66.5 15q-63 0 -104 -57
q-25 -34 -42.5 -154t-17.5 -288q0 -451 11 -660q3 -65 15.5 -88.5t57.5 -36.5q23 -6 36.5 -15.5t13.5 -16.5q0 -11 -17.5 -21t-42.5 -10q-16 0 -76 4t-86 4q-53 0 -129 -6t-88 -6q-17 0 -33 8t-16 20q0 8 13 18.5t32 16.5q53 16 66.5 39t15.5 84q6 111 6 496z" />
    <glyph glyph-name="longs_longs" unicode="&#x17f;s" horiz-adv-x="1128" 
d="M180 674q0 6 -7 13.5t-17 8.5q-8 2 -62 11q-13 1 -19.5 13t-0.5 23q14 25 71 54q35 21 35 43q0 140 64 266q27 49 72 101.5t100 90.5q141 95 270 95q109 0 176 -50q47 -5 80 -20q32 32 88 56.5t121 25.5q39 17 92.5 21t95.5 -7q33 -8 62 -38.5t29 -59.5
q0 -30 -18.5 -58.5t-43.5 -39.5q-22 -13 -47 -13q-24 0 -59 37q-34 33 -49.5 47t-46.5 33t-54 19q-46 0 -82 -48q-72 -94 -72 -471q0 -36 3.5 -329.5t3.5 -309.5q3 -63 19 -90t65 -37q51 -12 51 -41q0 -9 -17 -18.5t-34 -9.5q-27 0 -86.5 4t-108.5 4q-53 0 -111 -4t-77 -4
q-26 0 -41 10t-15 23q0 8 15.5 18t36.5 16q43 14 58 41t17 80q0 27 2 224.5t2 265.5q0 7 -6.5 17t-15.5 11q-32 6 -66 11q-15 3 -21.5 13.5t-0.5 22.5q10 17 76 56q32 18 32 43q20 230 74 325q9 23 2 33q-101 105 -221 105q-66 0 -111 -56q-82 -82 -82 -557q0 -426 7 -536
q0 -44 15.5 -64t55.5 -31q53 -16 53 -38q0 -31 -61 -31q-24 0 -83.5 3t-96.5 3q-63 0 -116 -4t-75 -4q-53 0 -53 28q0 8 13 20t36 17q12 4 22 8.5t17.5 7.5t13 10t9.5 10t7 13.5t4.5 13.5t3 17.5t1.5 18.5t1 23.5t1 25.5q0 28 2 217t2 252z" />
    <glyph glyph-name="longs_longs_i" unicode="&#x17f;si" horiz-adv-x="1675" 
d="M688 1393q147 0 240 -76q7 -7 20 6q50 52 124 86.5t161 34.5q45 0 88 -11.5t76.5 -41t34.5 -70.5q0 -30 -19 -58.5t-43 -39.5q-26 -13 -47 -13q-26 0 -61 37q-29 29 -47 45.5t-48 35t-53 18.5q-51 0 -82 -48q-74 -97 -74 -477q0 -30 3.5 -324.5t3.5 -308.5
q3 -64 17 -89.5t62 -35.5q52 -13 52 -43q0 -9 -17.5 -18.5t-34.5 -9.5q-27 0 -84 4t-106 4q-53 0 -112 -5t-78 -5q-26 0 -40 10.5t-14 24.5q0 8 14.5 19t34.5 17q44 15 60 40.5t18 78.5q0 14 2 210t2 280q0 7 -6.5 17t-15.5 11l-66 11q-15 3 -21.5 15t-0.5 26q9 14 69 51
q39 19 39 43q19 225 74 327q2 8 0 19t-4 16q-97 101 -213 101q-32 0 -63 -18t-52 -44q-80 -80 -80 -543q0 -455 7 -544q0 -43 15 -62t56 -30q53 -16 53 -37q0 -37 -61 -37q-24 0 -83.5 4t-96.5 4q-63 0 -116 -4t-75 -4q-52 0 -55 26q0 8 12 19t35 18q58 18 72 53q9 20 12 97
q0 28 2 217t2 252q0 6 -7 13.5t-17 8.5l-62 11q-13 1 -19.5 13t-0.5 23q14 25 71 54q35 21 35 43q0 75 19.5 146.5t44.5 117.5q66 121 172 194q146 95 272 95zM1202 727q0 11 16 22t39 15q50 10 146 41.5t100 32.5q7 0 14 -9t7 -14q-11 -128 -11 -463q0 -27 5 -207
q1 -42 17 -57t60 -29q50 -15 50 -39q0 -12 -18 -19t-42 -7q-3 0 -73 3t-95 3q-38 0 -108.5 -4t-85.5 -4q-24 0 -41 7.5t-17 18.5q0 21 56 37t69 60q10 48 10 319q0 167 -4 184q-6 22 -67 74q-27 20 -27 35z" />
    <glyph glyph-name="longs_longs_l" unicode="&#x17f;sl" horiz-adv-x="1650" 
d="M688 1393q143 0 238 -72q12 -8 22 2q52 50 127.5 82.5t163.5 32.5q78 0 147 -35q21 -4 31 8q22 21 42 34t26 13q9 0 17.5 -11t8.5 -22q0 -4 -2 -129t-4.5 -294.5t-3.5 -266.5q-8 -303 4 -581q1 -23 2.5 -33t8.5 -24.5t24 -23.5t45 -16q19 -4 33 -13.5t14 -16.5
q0 -18 -16 -25.5t-35 -7.5q-22 0 -90.5 3t-87.5 3q-40 1 -111 -2.5t-78 -3.5q-67 0 -67 31q0 21 51 32q47 12 60 36.5t16 84.5q3 62 6 311.5t2 309.5q0 281 -6 395q0 55 -27 86q-16 22 -50 40.5t-71 18.5q-55 0 -90 -47q-80 -105 -80 -471q0 -31 3.5 -324t3.5 -309
q3 -64 17 -89.5t62 -35.5q52 -13 52 -43q0 -9 -17.5 -18.5t-34.5 -9.5q-27 0 -84 4t-106 4q-53 0 -113 -5t-79 -5q-26 0 -39 10t-13 23q0 8 14 19t33 17q45 15 61.5 41.5t18.5 79.5q4 102 4 490q0 7 -6.5 17t-15.5 11l-66 11q-15 3 -21.5 15t-0.5 26q9 14 69 51q39 19 39 43
q15 220 76 327q10 21 0 31q-38 43 -96.5 74t-122.5 31q-32 0 -64.5 -18.5t-52.5 -43.5q-78 -78 -78 -543q0 -418 7 -544q0 -42 18 -61.5t59 -30.5q60 -18 60 -41q0 -33 -66 -33q-24 0 -87.5 4t-100.5 4q-63 0 -117 -4t-76 -4q-52 0 -55 26q0 8 12.5 19t34.5 18
q25 8 40.5 17.5t24 18.5t12.5 29.5t5 35t2 49.5q6 204 6 469q0 6 -7 13.5t-17 8.5l-62 11q-10 1 -16.5 14.5t-3.5 21.5q13 23 71 54q35 21 35 43q0 136 64 266q27 49 72 101.5t100 90.5q59 40 132 67.5t140 27.5z" />
    <glyph glyph-name="longs_t" unicode="&#x17f;t" horiz-adv-x="1245" 
d="M156 692q-11 2 -66 8q-7 2 -14.5 12t-7.5 21q0 4 11 13.5t38.5 30.5t38.5 30q18 14 22 21.5t4 31.5q0 124 53 241t150 199q129 105 266 105q74 0 131 -21.5t90 -57.5t49.5 -78t16.5 -89v-332q0 -5 6 -11.5t12 -6.5q20 0 69.5 0.5t92.5 1t45 0.5q10 0 22 -6t13 -19l6 -78
v-1q0 -25 -53 -25q-3 0 -95 1t-98 1q-16 0 -16 -37v-389q0 -67 29 -100q15 -17 43 -28t55 -11q19 0 47 10.5t43 20.5q21 16 35 16q6 0 11 -11.5t5 -25.5q0 -11 -14.5 -32t-26.5 -31q-84 -91 -221 -91q-59 0 -112.5 27t-79.5 64q-20 29 -28.5 57.5t-8.5 85.5q0 39 4 232
t4 229q0 7 -10.5 10.5t-50.5 12.5q-24 6 -39 9q-23 4 -23 25q0 6 6 15.5t13 13.5q12 7 44 24t38 21q11 11 14.5 18t7.5 27q14 63 14 323q0 31 -17 63t-38 52q-23 20 -44.5 27.5t-59.5 7.5q-36 0 -66.5 -21.5t-57 -70.5t-41.5 -141t-16 -220q0 -282 7 -706q2 -48 15.5 -68.5
t53.5 -30.5q58 -15 58 -36q0 -18 -21 -25.5t-43 -7.5q-24 0 -83 4t-99 4q-63 0 -114.5 -4t-74.5 -4q-51 0 -51 26q0 8 10 18t33 17q57 17 70 42.5t14 97.5v8q4 148 4 473q0 15 -24 18z" />
    <glyph glyph-name="f_f" unicode="ff" horiz-adv-x="1191" 
d="M733 705h-319q-5 0 -11 -12t-6 -29q0 -18 2 -236.5t2 -228.5q1 -39 6 -62.5t17.5 -37.5t24 -19.5t36.5 -13.5q52 -19 52 -35q0 -15 -17 -26t-39 -11q-24 0 -101 3t-97 3q-42 0 -107.5 -5t-81.5 -5q-23 0 -38 7.5t-15 18.5q0 25 43 35q38 11 57.5 28.5t23.5 34.5t5 50
q6 105 6 493q0 28 -20 31l-76 14q-6 1 -11.5 10t-5.5 17q0 15 16 28t42.5 26.5t34.5 19.5q22 14 22 35q0 129 60 260q26 53 74.5 111t107.5 96q55 37 132 62.5t146 25.5q66 0 129.5 -21t98.5 -51q15 -7 22 0q48 50 131.5 86.5t169.5 36.5q71 0 132 -31.5t61 -91.5
q0 -29 -20.5 -61t-45.5 -41q-26 -13 -45 -13q-24 0 -61 39q-29 30 -47.5 47.5t-50.5 36.5t-58 19q-42 0 -82 -50q-68 -90 -65 -479q0 -4 6 -9t8 -5h203q10 -1 18 -29.5t8 -56.5q0 -8 -11 -17.5t-21 -9.5q-6 0 -94 2t-101 2q-3 0 -8.5 -8.5t-5.5 -15.5q0 -436 6 -504
q2 -52 22 -74.5t93 -38.5q25 -5 38 -16t13 -19q0 -11 -18 -20.5t-44 -9.5q-9 0 -88.5 5t-109.5 5q-72 0 -140 -6t-82 -6q-19 0 -34 8t-15 22q0 8 13 18.5t28 14.5q60 18 74 43t16 101q0 36 2 229.5t2 255.5q0 7 -4 16t-8 9zM414 805h313q7 0 12.5 6t5.5 10q0 88 20.5 185
t53.5 157q3 6 3.5 16.5t-1.5 14.5q-39 44 -102.5 80.5t-124.5 36.5q-32 0 -63 -19.5t-52 -46.5q-82 -97 -82 -416q0 -8 5.5 -16t11.5 -8z" />
    <glyph glyph-name="f_i" unicode="fi" horiz-adv-x="1118" 
d="M420 807q43 -2 186 -2q186 0 271 26q42 11 65 11q7 0 10.5 -4.5t6 -20.5t3.5 -44.5t1 -78.5q0 -81 -1 -212t-0.5 -203t3.5 -140q1 -40 15 -53t52 -25q32 -10 42.5 -18.5t10.5 -19.5q0 -13 -18 -21t-41 -8q-11 0 -80.5 3t-95.5 3q-38 0 -100 -3t-78 -3q-54 0 -54 31
q0 15 40 30q1 0 18 6q52 24 55 76q10 166 10 541q0 7 -9 17t-15 12q-175 7 -299 0q-1 0 -5.5 -3.5t-9 -10.5t-4.5 -13q-2 -35 1 -256.5t6 -265.5q5 -45 21 -63t73 -36q41 -14 41 -34q0 -11 -12 -21t-33 -10q-10 0 -99.5 3t-120.5 3q-41 0 -114.5 -6t-77.5 -6
q-18 0 -29.5 8.5t-11.5 19.5q0 8 10.5 17.5t28.5 13.5q57 19 71 42.5t17 90.5q6 105 6 477q0 7 -5.5 18.5t-12.5 12.5q-16 2 -42 6t-36 6q-8 2 -15 8.5t-6 14.5q0 9 5.5 17.5t22 19t27.5 17t40 22.5q24 14 24 30q0 77 17.5 161t50.5 149q64 130 192 215q61 42 136.5 66
t146.5 24q147 0 219 -88q21 -24 21 -60q0 -37 -44 -76.5t-75 -39.5q-10 0 -33.5 14t-44.5 37q-37 40 -92.5 73t-98.5 33q-65 0 -102 -49q-31 -36 -53.5 -157.5t-22.5 -303.5q0 -7 8.5 -13.5t16.5 -6.5z" />
    <glyph glyph-name="f_l" unicode="fl" horiz-adv-x="1112" 
d="M678 1436q85 0 160 -35q16 -8 34 6q48 43 72 43q9 0 18 -11t9 -22q0 -16 -13 -682q-3 -378 7 -581q1 -23 2.5 -33t8.5 -24.5t22.5 -23.5t41.5 -16q18 -4 31.5 -13t13.5 -15q0 -19 -15 -27t-32 -8q-21 0 -90 3t-88 3q-45 1 -109 -2.5t-69 -3.5q-64 0 -64 31q0 20 48 34
q41 11 53 34t14 69q4 79 6 257t0 255q0 31 -16 31q-65 6 -307 6q-6 0 -12.5 -7.5t-6.5 -17.5q-2 -40 -0.5 -218t4.5 -251q2 -63 11 -93.5t23 -41t48 -19.5q52 -20 52 -34t-18 -24.5t-38 -10.5q-31 0 -99 3t-87 3q-50 0 -116 -5t-85 -5q-22 0 -37.5 7.5t-15.5 18.5
q0 22 47 35t63.5 37t18.5 57q2 31 8 508q0 32 -20 35l-82 14q-4 1 -8.5 7.5t-4.5 11.5q0 17 16 32t44 29.5t33 18.5q22 16 22 35q3 92 23 180q27 103 74 179t126 140q57 43 131.5 72t147.5 29zM567 1339q-32 0 -62.5 -18t-49.5 -47q-60 -92 -60 -449q0 -6 7.5 -12t17.5 -6
l241 -1q40 1 60 3q7 0 12.5 7t5.5 15q1 28 -2 162t-6 189q-3 66 -20 90q-17 23 -57.5 45t-86.5 22z" />
    <glyph glyph-name="f_f_i" unicode="ffi" horiz-adv-x="1683" 
d="M727 705h-309q-8 0 -14.5 -12t-6.5 -27q0 -38 2.5 -238.5t3.5 -220.5q3 -52 12.5 -80t24.5 -39.5t45 -21.5q24 -7 39 -17t15 -18q0 -15 -18 -26t-40 -11q-24 0 -101 3t-97 3q-42 0 -107.5 -5t-81.5 -5q-23 0 -39 7.5t-16 18.5q0 23 45 37q54 16 69 39.5t17 71.5
q6 105 6 493q0 15 -5 23t-11 8l-84 12q-12 3 -14.5 14t2 22t10.5 18q9 9 42 26.5t40 22.5q24 15 24 35q0 131 58 258q26 52 75.5 110t108.5 97q56 38 133 64t145 26q67 0 133.5 -22t102.5 -52q3 -3 10 -3.5t12 3.5q47 47 142.5 86t181.5 39q151 0 223 -88q21 -24 21 -60
q0 -37 -44 -76.5t-75 -39.5q-10 0 -33.5 14t-44.5 37q-35 40 -90.5 74t-97.5 34q-36 0 -59 -11t-44 -38q-29 -35 -52 -158t-23 -303q0 -7 6.5 -13.5t13.5 -6.5q24 -2 188 -2q166 -2 273 24q43 13 61 13q9 0 13.5 -10t7 -42.5t2.5 -95.5q0 -81 -1 -212.5t-0.5 -204
t3.5 -140.5q1 -21 4.5 -33.5t14 -21t18.5 -11.5t30 -10q33 -12 43.5 -20t10.5 -20q0 -13 -18.5 -21t-41.5 -8q-11 0 -80 3t-96 3q-38 0 -100 -3t-78 -3q-53 0 -53 33q0 8 10.5 14.5t34.5 16.5q8 3 12 5q54 21 57 74q9 200 9 541q0 8 -8 17.5t-15 11.5q-178 8 -301 0
q-4 0 -9 -7.5t-5 -15.5q0 -414 6 -516q2 -31 4 -43.5t13 -28.5t34 -25t64 -18q25 -5 37 -15t12 -18q0 -11 -18 -20.5t-44 -9.5q-8 0 -87 5t-109 5q-72 0 -141 -6t-83 -6q-19 0 -34 7.5t-15 20.5q0 8 13 18.5t30 14.5q59 19 72.5 44.5t15.5 101.5q4 160 4 485q0 7 -5 16
t-11 9zM416 805h313q7 0 11.5 5.5t4.5 10.5q0 85 23 180.5t57 159.5q3 5 2.5 15t-2.5 14q-100 119 -229 119q-31 0 -62.5 -19t-52.5 -45q-84 -103 -84 -416q0 -7 5.5 -15.5t13.5 -8.5z" />
    <glyph glyph-name="f_f_l" unicode="ffl" horiz-adv-x="1679" 
d="M731 705h-317q-17 0 -17 -39q0 -18 3 -235.5t3 -227.5q3 -74 19.5 -98t62.5 -39q54 -20 54 -35t-18 -26t-40 -11q-24 0 -101 3t-97 3q-42 0 -107.5 -5t-81.5 -5q-23 0 -38 6.5t-15 17.5q0 27 43 37q54 16 69 40.5t17 72.5q6 105 6 493q0 28 -20 31q-31 7 -72 14
q-8 2 -15.5 11t-7.5 16q0 15 16.5 28t44 26.5t34.5 17.5q22 14 22 35q0 127 62 262q26 53 74.5 111t107.5 96q135 88 278 88q64 0 129 -19t99 -47q4 -4 10.5 -5t11.5 3q129 111 287 111q91 0 166 -35q23 -5 31 4q54 45 75 45q9 0 18 -11t9 -22q0 -4 -2 -130.5t-4.5 -294
t-3.5 -257.5q-4 -428 4 -581q1 -22 3 -33t9 -25t23 -23t43 -16q18 -4 31.5 -13t13.5 -15q0 -19 -15 -27t-32 -8q-20 0 -90 3t-91 3q-45 1 -108 -2.5t-68 -3.5q-25 0 -40.5 5.5t-20 12t-4.5 13.5q0 19 49 34q41 12 53 35t14 68q4 80 6.5 260t0.5 256q0 24 -13 27
q-37 2 -313 2q-5 0 -9.5 -6.5t-4.5 -16.5q0 -425 8 -516q2 -54 18.5 -74t81.5 -37q25 -7 37 -16.5t12 -17.5q0 -11 -16.5 -20t-42.5 -9q-9 0 -81.5 3t-102.5 3q-72 0 -140 -5t-82 -5q-19 0 -35 8.5t-16 21.5q0 7 14 17.5t29 15.5q61 20 74.5 43.5t15.5 98.5q0 36 2 230.5
t2 256.5q0 7 -4 15t-10 8zM418 807h317q10 0 10 16q0 87 21.5 186.5t54.5 159.5q6 13 0 25q-39 50 -98.5 82.5t-126.5 32.5q-32 0 -63.5 -18.5t-51.5 -45.5q-84 -103 -84 -414q0 -11 6.5 -17.5t14.5 -6.5zM1135 1343q-68 0 -111 -67q-61 -94 -61 -451q0 -6 6.5 -12t11.5 -6
q277 0 307 2q6 0 12.5 6.5t6.5 15.5q0 229 -7 351q-3 63 -22 90q-17 24 -57 47.5t-86 23.5z" />
    <glyph glyph-name=".notdef" horiz-adv-x="1024" 
d="M0 0v1434h1024v-1434h-1024zM512 809l348 522h-696zM573 717l349 -522v1044zM164 102h696l-348 523zM102 1239v-1044l349 522z" />
    <glyph glyph-name=".null" horiz-adv-x="0" 
 />
    <glyph glyph-name="nonmarkingreturn" horiz-adv-x="682" 
 />
    <glyph glyph-name="space" unicode=" " horiz-adv-x="395" 
 />
    <glyph glyph-name="exclam" unicode="!" horiz-adv-x="589" 
d="M330 1253q49 0 84 -38.5t47.5 -85t9.5 -85.5q-6 -73 -41.5 -280t-58.5 -297q-4 -24 -19 -48t-35 -24q-10 0 -25 20.5t-22 53.5q-82 425 -94 565q-7 104 42.5 161.5t111.5 57.5zM319 287q65 0 108.5 -47.5t43.5 -106.5q0 -61 -45.5 -109.5t-108.5 -48.5q-62 0 -105.5 45
t-43.5 113q0 66 47 110t104 44z" />
    <glyph glyph-name="quotedbl" unicode="&#x22;" horiz-adv-x="718" 
d="M268 1386q12 0 23.5 -18t11.5 -45q0 -54 -25.5 -197.5t-44.5 -205.5q-7 -24 -24.5 -48t-34.5 -24q-13 0 -23 18.5t-12 38.5q-31 274 -43 355q0 4 6 17.5t13 20.5q88 88 153 88zM594 1409q13 0 25 -16.5t12 -46.5q0 -56 -26 -200.5t-48 -217.5q-7 -26 -25 -51t-36 -25
q-11 0 -21 21t-12 38q-27 273 -35 379q0 7 7.5 20.5t15.5 20.5q90 78 143 78z" />
    <glyph glyph-name="numbersign" unicode="#" horiz-adv-x="1017" 
d="M938 897q-23 -94 -45 -94l-152 -6q-3 0 -9 -7.5t-7 -13.5l-51 -203q-2 -5 1 -9t7 -3l158 4q7 0 10.5 -21t1.5 -32q-4 -29 -20.5 -66.5t-32.5 -37.5l-150 -7q-7 0 -12.5 -5t-5.5 -9l-84 -324q-4 -12 -22 -20t-36 -8q-10 0 -19 5.5t-5 16.5l82 324q1 7 -3.5 12.5t-8.5 5.5
l-195 -8q-3 0 -12 -6.5t-9 -9.5l-86 -328q-3 -10 -22 -16t-29 -6t-20 10t-8 16l82 318q2 7 -1.5 13.5t-11.5 6.5l-147 -4q-4 0 -9.5 19t-5.5 24q7 35 23 74t27 39l153 8q14 0 19 14l51 203q0 18 -10 18l-160 -4q-3 0 -6.5 12.5t-4 31.5t4.5 42q6 19 21 43t22 25l157 8
q12 0 19 14l76 291q5 9 22.5 17t34.5 8q6 0 15.5 -7t9.5 -12l-72 -290q0 -15 6 -15l199 6q15 0 18 15l80 301q6 18 61 18q3 0 7 -2.5t7.5 -9.5t0.5 -16l-74 -285q-5 -19 6 -19l156 2q5 -7 7.5 -29.5t0.5 -31.5zM645 772q2 9 0.5 15.5t-8.5 5.5l-207 -7q-8 0 -12 -16
l-51 -205q-2 -4 2.5 -10.5t9.5 -5.5l192 8q15 0 21 18z" />
    <glyph glyph-name="dollar" unicode="$" horiz-adv-x="1017" 
d="M532 479l-43 -403q0 -10 11 -10q87 10 151 64t64 146q0 65 -38.5 112t-131.5 99q-13 7 -13 -8zM500 788l41 388q0 6 -4 11t-9 5q-92 -3 -146 -57.5t-54 -147.5q0 -127 159 -207q13 0 13 8zM553 1266l16 131q0 3 4.5 7.5t8.5 4.5q16 0 33.5 -6.5t17.5 -13.5l-17 -123
q0 -15 9 -15q109 -11 188 -45q17 -3 33 -59q20 -83 20 -133q0 -24 -6.5 -42t-15.5 -18q-23 0 -35 29q-59 154 -188 199q-17 4 -17 -11l-41 -415q0 -16 10 -19q57 -28 96 -49t81.5 -49t69 -55.5t49.5 -62.5t33.5 -77t10.5 -92q0 -77 -41.5 -144.5t-107.5 -117.5
q-43 -33 -118.5 -55.5t-151.5 -28.5q-15 -3 -15 -16l-16 -154q-3 -6 -19 -11t-24 -3q-13 0 -25 12l17 156q0 16 -9 16q-36 2 -124 23q-110 25 -127 30q-12 3 -23 17.5t-16 32.5q-4 24 -14.5 108.5t-10.5 89.5q0 11 4.5 24t13.5 13q20 0 38 -18t46 -70q54 -95 101 -132.5
t117 -53.5q12 -2 12 8l47 434q3 12 -6 18q-59 29 -99.5 52.5t-84.5 58.5t-70.5 72t-43.5 89.5t-18 115.5q0 120 101 221q48 47 128 78t165 34q11 0 14 15z" />
    <glyph glyph-name="percent" unicode="%" horiz-adv-x="1492" 
d="M391 1280q57 0 106.5 -23t82.5 -60t56.5 -83.5t34.5 -94t11 -91.5q0 -99 -32 -182.5t-102 -139t-167 -55.5q-64 0 -116 22.5t-85 59t-56 83.5t-32.5 94t-9.5 93q0 76 18.5 142.5t55 119.5t97 84t138.5 31zM399 608q107 0 107 291q0 48 -6 98.5t-20 104t-43 87.5t-68 34
q-113 0 -113 -291q0 -43 7.5 -94t23 -105t45 -89.5t67.5 -35.5zM1147 1307q15 0 29 -8.5t20 -19t2 -15.5q-101 -158 -393.5 -621t-446.5 -700q-4 -5 -19 -2t-24 10q-27 24 -14 45q140 223 415.5 655t399.5 629q22 27 31 27zM1116 700q72 0 130 -34t92.5 -87.5t52.5 -112.5
t18 -114q0 -76 -17.5 -143t-53 -121t-95.5 -85.5t-139 -31.5q-62 0 -113 22.5t-84 58.5t-56 82t-32.5 91.5t-9.5 89.5q0 61 10.5 116t34.5 104.5t59 86t87 57.5t116 21zM1126 27q107 0 107 290q0 47 -7.5 99.5t-22.5 105t-43 87t-64 34.5q-32 0 -55.5 -28t-35 -74t-17 -92.5
t-5.5 -96.5q0 -43 7 -94t22.5 -105t45 -90t68.5 -36z" />
    <glyph glyph-name="ampersand" unicode="&#x26;" horiz-adv-x="1601" 
d="M569 1247q65 -1 121.5 -24t93 -60t57.5 -83t21 -93q0 -29 -9 -54.5t-19.5 -42.5t-35.5 -38t-38.5 -30t-46.5 -29.5t-43 -26.5q-3 -3 -3.5 -9t3.5 -9q55 -36 151 -126.5t162 -170.5q10 -13 27 4q48 48 103 123t81 120q25 52 25 70q0 11 -26 24t-75 21q-8 2 -15 8t-7 13
q-2 9 13 22.5t34 13.5q132 0 239 11q22 2 72 8t62 6q23 0 37 -7t14 -14q0 -28 -43 -38q-80 -23 -126 -54t-120 -108q-41 -44 -236 -277q-13 -13 -6 -24q22 -29 107 -144q33 -45 92 -74t129 -30q57 0 145 43q6 4 11.5 -3.5t5.5 -17.5q0 -32 -35 -67q-108 -113 -297 -113
q-77 0 -147 25q-50 18 -82 67q-14 21 -34.5 54t-35.5 56.5t-23 33.5q-5 5 -18 -2q-100 -123 -192 -181q-92 -62 -199 -59q-169 3 -272 106t-103 257q0 44 13.5 85t30 68.5t46 57.5t46.5 43.5t46 35.5q50 41 105 74q6 1 6.5 8.5t-4.5 10.5q-121 112 -121 231q0 144 109 231
q42 34 100.5 56t103.5 22zM539 1184q-34 0 -70.5 -37.5t-36.5 -118.5q0 -61 51.5 -127t112.5 -100q16 -10 27 -4q27 15 49 57q26 42 26 125q0 22 -8.5 54t-26 67t-50 59.5t-74.5 24.5zM584 131q53 0 122.5 35.5t106.5 81.5q13 17 2 33q-71 98 -199.5 222.5t-173.5 147.5
q-13 9 -28 -6q-113 -110 -113 -242q0 -54 25.5 -110.5t66.5 -91.5q82 -70 191 -70z" />
    <glyph glyph-name="quotesingle" unicode="'" horiz-adv-x="411" 
d="M281 1399q13 0 25.5 -17.5t12.5 -46.5q0 -59 -23 -190.5t-46 -206.5q-9 -27 -27 -53.5t-35 -26.5q-12 0 -25.5 20.5t-15.5 39.5q-22 220 -51 354q0 4 5 17t12 20q121 90 168 90z" />
    <glyph glyph-name="parenleft" unicode="(" horiz-adv-x="677" 
d="M285 584q0 -129 13 -234t33.5 -184.5t61 -162.5t80.5 -147t107 -159q18 -23 -2 -43q-2 -1 -13 -8t-19 -11.5t-19.5 -9t-20.5 -4.5q-32 0 -64 35q-299 357 -299 885q0 148 31.5 291t84 256.5t108.5 200.5t118 155q10 12 30 23.5t28 11.5q19 0 39 -12.5t22 -22.5
q5 -14 -12 -31q-143 -156 -225 -383t-82 -446z" />
    <glyph glyph-name="parenright" unicode=")" horiz-adv-x="677" 
d="M410 512q0 157 -18 278.5t-59.5 227t-91 187.5t-130.5 192q-16 25 4 45q2 1 13 8t19 11.5t20 9t21 4.5q36 0 66 -35q155 -191 225 -405.5t70 -471.5q0 -148 -32 -291.5t-85 -258t-109 -201.5t-118 -154q-10 -12 -27.5 -23.5t-25.5 -11.5q-18 0 -37 11.5t-21 21.5
q-8 12 8 33q143 158 225.5 383t82.5 440z" />
    <glyph glyph-name="asterisk" unicode="*" horiz-adv-x="661" 
d="M319 1329q10 1 21 -10t16 -25q16 -46 47 -182q0 -2 2.5 -4t7 -2.5t9.5 2.5q98 68 151 84q47 10 50 -12q2 -16 -23 -45q-48 -48 -137 -111q-9 -9 2 -18q100 -56 162 -97q28 -22 28 -45q0 -13 -19.5 -17t-31.5 1q-90 19 -176 63q-4 4 -8 0t-4 -8q2 -61 2 -153
q0 -37 -10 -54.5t-23 -17.5q-14 0 -26 16t-17 35q-19 74 -31 166q0 4 -3 6.5t-6.5 3t-4.5 -1.5q-92 -54 -162 -78q-23 -9 -41 -4t-18 17q0 23 26 45q8 7 140 104q6 5 4 10t-6 7q-6 3 -37 19t-42.5 22.5t-32 19.5t-34.5 25q-28 19 -28 36q0 16 17 21.5t36 -0.5q33 -6 168 -60
q1 -1 3.5 0.5t4.5 4.5t2 6q-10 134 -2 184q3 44 24 47z" />
    <glyph glyph-name="plus" unicode="+" horiz-adv-x="1277" 
d="M571 1020q0 11 42 21t69 10q9 0 20 -6.5t11 -16.5l-6 -432q0 -6 4.5 -10t9.5 -4h412q6 0 13 -10t7 -21q0 -35 -9.5 -63.5t-19.5 -28.5l-401 -4q-7 0 -11.5 -7t-4.5 -14l-2 -430q0 -16 -33.5 -25.5t-67.5 -9.5q-11 0 -21 9.5t-10 19.5l-2 434q0 23 -14 23h-399
q-35 0 -35 45q0 23 9 52.5t20 29.5h403q7 0 11.5 4.5t4.5 9.5v424z" />
    <glyph glyph-name="comma" unicode="," horiz-adv-x="491" 
d="M223 293q74 0 128.5 -61t54.5 -164q0 -60 -24.5 -112t-60 -85t-76 -57t-72.5 -34.5t-50 -10.5q-41 0 -41 24q0 21 41 39q61 33 99 75.5t38 86.5q0 32 -24 50.5t-56 23.5q-84 21 -84 100q0 56 41 90.5t86 34.5z" />
    <glyph glyph-name="hyphen" unicode="-" horiz-adv-x="636" 
d="M121 479q48 9 212 27t202 20q8 0 16 -7.5t8 -14.5q2 -39 -11.5 -84.5t-33.5 -46.5q-221 -17 -401 -35q-12 -1 -22.5 11t-10.5 22q0 33 13 69t28 39z" />
    <glyph glyph-name="period" unicode="." horiz-adv-x="491" 
d="M250 272q48 0 81.5 -28.5t45.5 -60.5t12 -60q-3 -68 -44.5 -108t-96.5 -40q-52 0 -94.5 39t-42.5 109q0 39 15 69.5t37.5 47t45 24.5t41.5 8z" />
    <glyph glyph-name="slash" unicode="/" horiz-adv-x="849" 
d="M96 -100q134 345 549 1423q22 43 39 43q31 0 61 -12q11 -3 16 -15t1 -24q-102 -262 -290 -742.5t-263 -674.5q-9 -26 -23 -34t-41 1q-6 0 -15 3t-12 3.5t-5 -2.5q-10 5 -14.5 15.5t-2.5 15.5z" />
    <glyph glyph-name="zero" unicode="0" horiz-adv-x="1017" 
d="M516 1280q70 0 130.5 -23t104.5 -61.5t79.5 -91t58 -110t37.5 -120.5t21.5 -120t6.5 -111q0 -236 -67 -392t-170 -218q-99 -63 -205 -60q-99 0 -179 45t-129 114t-82 158.5t-46 172.5t-13 162q0 440 254 600q92 55 199 55zM489 1217q-62 0 -110 -87q-76 -144 -76 -458
q0 -168 25.5 -309.5t80 -233.5t128.5 -92q67 0 106 78q70 136 70 506q0 239 -44.5 381t-95.5 182q-38 33 -84 33z" />
    <glyph glyph-name="one" unicode="1" horiz-adv-x="1017" 
d="M201 14q0 27 69 45q44 11 68.5 21.5t37 29t16 33.5t7.5 50q7 49 13 228.5t6 373.5q0 228 -4 247q-2 13 -11 26.5t-20 16.5q-21 6 -55 12t-37 7q-21 4 -35 15.5t-14 23.5q0 10 14 19t31 12q15 4 53.5 12t61.5 13.5t54 14t54 17.5t39 18q72 35 94 35q6 2 12.5 -4.5
t6.5 -15.5q0 -8 -1.5 -42.5t-3 -96t-2.5 -126.5q-4 -279 0 -749v-38.5t1 -30.5t2 -26.5t4.5 -20t8 -18.5t12.5 -13.5t17 -12.5t22.5 -9.5t29 -10.5t36.5 -9q20 -5 35 -17t15 -28q0 -11 -18 -17.5t-38 -6.5q-11 0 -96 4t-131 4q-69 0 -138 -3t-112 -6t-49 -3q-55 0 -55 26z
" />
    <glyph glyph-name="two" unicode="2" horiz-adv-x="1017" 
d="M109 -6q-11 0 -29.5 12t-18.5 21q-4 18 25 43q67 61 162 166.5t170 199.5q180 230 180 428q0 119 -62.5 181.5t-152.5 62.5q-127 0 -242 -119q-39 -39 -43 -39q-6 0 -16 11t-10 20q0 26 32 72q71 106 169.5 166.5t211.5 60.5q151 0 252 -101t101 -257q0 -167 -172 -353
q-106 -116 -363 -366q-3 -4 1 -9.5t9 -7.5q69 -8 250.5 -8t222.5 8q63 10 115 76q29 37 45 37q21 0 22 -25.5t-12 -48.5q-52 -111 -73 -215q-1 -8 -11 -14t-20 -6q-2 0 -118 2.5t-249 5t-174 2.5q-49 0 -202 -6z" />
    <glyph glyph-name="three" unicode="3" horiz-adv-x="1017" 
d="M506 1280q72 0 132.5 -24.5t97 -62.5t56 -81.5t19.5 -83.5q0 -102 -74 -176q-54 -48 -133 -94q-5 -3 -3 -8.5t9 -8.5q175 -29 260 -139q58 -77 58 -188q0 -132 -79.5 -247t-215.5 -194q-76 -44 -168.5 -68t-169.5 -24q-79 0 -143 32t-64 77q0 13 16 53q14 21 36 35t36 14
q6 0 27 -11.5t30 -19.5q103 -86 211 -86q72 0 131 45q58 42 89.5 119.5t31.5 147.5q0 146 -71 223q-65 70 -176 70q-69 0 -158 -29q-7 -1 -13 7t-4 17q2 6 5.5 12.5t6 10.5t8 10t7.5 7.5t9 7.5l7 6q34 26 99 55q182 79 182 240q0 88 -59 148.5t-138 60.5q-127 0 -215 -107
q-32 -37 -47 -37q-20 0 -20 31q-2 23 37 75.5t86 90.5q114 94 264 94z" />
    <glyph glyph-name="four" unicode="4" horiz-adv-x="1017" 
d="M795 903v-397q0 -5 3.5 -12t6.5 -7l176 7q6 0 13 -7t7 -14q0 -16 -14.5 -50.5t-28.5 -39.5l-151 4q-7 0 -12 -14q0 -147 2 -174q4 -76 21.5 -98t88.5 -44q45 -13 45 -34q0 -10 -14 -20.5t-41 -10.5q-25 -1 -109.5 3.5t-115.5 4.5q-40 0 -121.5 -4t-116.5 -4q-51 0 -51 26
q0 23 57 41q71 18 86.5 39t22.5 89q1 12 2 18q4 55 4 157q0 19 -14 19q-419 6 -492 0q-37 -3 -37 18q0 7 1.5 13.5t7 15t9.5 14.5t13.5 20t15.5 23l650 901q7 12 19.5 21.5t23.5 9.5l32 -2q13 0 20 -5t7 -11q0 -15 -6 -23l-639 -864q-8 -13 2 -16q51 -9 379 -9q2 0 6 7t4 10
l2 364q0 25 21 39q20 11 90.5 30t95.5 19q10 0 19.5 -13t9.5 -40z" />
    <glyph glyph-name="five" unicode="5" horiz-adv-x="1017" 
d="M899 381q0 -108 -52 -199t-138 -157q-92 -72 -236.5 -115t-230.5 -43h-43q-49 0 -49 20q0 9 15.5 28t24.5 19q66 7 131.5 24.5t130.5 48.5t114.5 71.5t80.5 98t31 122.5q0 83 -53 149t-146 105q-153 64 -332 98q-6 2 -19 26t-13 36q0 51 42 199t74 221q7 14 26.5 41.5
t23.5 27.5q40 17 231 47.5t285 30.5q5 0 15.5 -8.5t10.5 -14.5q0 -51 -46.5 -127t-78.5 -81q-78 -14 -206 -22.5t-199 -8.5q-8 0 -20.5 -9t-14.5 -14q-28 -67 -31 -94q-1 -6 6 -15.5t13 -11.5q100 -22 243 -70.5t199 -80.5q211 -123 211 -342z" />
    <glyph glyph-name="six" unicode="6" horiz-adv-x="1017" 
d="M670 756q75 0 133.5 -29.5t91.5 -77t49.5 -100t16.5 -105.5q0 -247 -209 -391q-120 -88 -258 -88q-203 0 -318 131t-115 342q0 226 139 448.5t355 364.5q105 67 207.5 107.5t165.5 40.5q25 0 38 -9t13 -20q0 -10 -6.5 -16.5t-28.5 -14.5q-186 -76 -354 -239
q-120 -116 -202.5 -289.5t-82.5 -339.5q0 -189 81.5 -302.5t203.5 -113.5q53 0 98 39q72 66 72 201q0 138 -63 220.5t-171 82.5q-38 0 -118 -31q-7 -3 -15 3t-8 12q0 30 27 57q50 45 125 80q73 37 133 37z" />
    <glyph glyph-name="seven" unicode="7" horiz-adv-x="1017" 
d="M535 1251q110 -2 321 6l42 2t33 2t15 1q10 0 20.5 -7.5t12.5 -15.5q4 -12 -6 -22q-46 -67 -428 -844q-209 -423 -213 -434q-7 -14 -16 -21.5t-15 -7.5q-14 0 -36.5 14t-22.5 27q0 20 34 82q377 721 508 989q3 6 0 12t-6 6q-94 11 -420 11q-105 0 -145 -13
q-41 -5 -109 -104q-9 -13 -23.5 -24t-23.5 -11q-18 0 -18 27q0 22 18 63q9 26 19 64t16 68t12 61.5t7 36.5q4 20 26 47q8 3 25 0q38 -9 373 -15z" />
    <glyph glyph-name="eight" unicode="8" horiz-adv-x="1017" 
d="M502 1317q159 0 263.5 -88.5t104.5 -224.5q0 -107 -112 -197q-19 -16 -60 -45t-51 -37q-6 -3 -6 -9t6 -9q57 -39 99 -76t81 -84t59.5 -102t20.5 -115q0 -77 -38 -142.5t-97 -111.5q-65 -53 -146 -77t-155 -24q-80 0 -148 20t-113.5 52t-77 73.5t-46 84t-14.5 84.5
q0 46 13 85t39 71t44 48.5t49 41.5q63 46 115 77q8 8 2 15q-68 45 -119 102q-106 109 -106 238q0 157 122 256q50 42 121.5 68t149.5 26zM512 45q88 0 133 57.5t45 145.5q0 81 -70 159.5t-192 163.5q-28 17 -35 13q-47 -27 -88 -106t-41 -167q0 -97 68 -178q35 -40 84 -64
t96 -24zM477 1249q-77 0 -123.5 -51t-46.5 -137q0 -47 21.5 -91t62 -83t80.5 -68.5t94 -62.5q3 -3 11.5 -3.5t13.5 3.5q48 39 72 90q34 80 34 153q0 84 -65 167t-154 83z" />
    <glyph glyph-name="nine" unicode="9" horiz-adv-x="1017" 
d="M520 1280q99 0 180.5 -41t134 -110t81 -158.5t28.5 -188.5q0 -226 -145 -456t-369 -361q-167 -98 -270 -98q-14 0 -30.5 9t-16.5 22q0 4 4.5 10t9.5 8q206 104 346 277q105 127 165 278.5t60 300.5q0 116 -30.5 222t-92.5 161q-26 21 -61.5 33t-60.5 12q-57 0 -99 -40.5
t-60 -94t-18 -109.5q0 -136 66 -222.5t180 -86.5q33 0 82 21q8 4 15.5 -2t7.5 -13q0 -17 -11 -39q-20 -33 -38 -47q-40 -33 -94 -53t-103 -20q-134 0 -222.5 93.5t-88.5 252.5q0 103 54.5 207.5t176.5 173.5q45 25 107 42t112 17z" />
    <glyph glyph-name="colon" unicode=":" horiz-adv-x="608" 
d="M307 791q65 0 100 -49.5t35 -96.5q-3 -65 -44 -102t-95 -37q-52 0 -94.5 36t-42.5 109q0 70 47.5 105t93.5 35zM307 262q34 0 62 -16t43 -40t22.5 -47t7.5 -42q-3 -65 -44.5 -102.5t-94.5 -37.5q-52 0 -94.5 36.5t-42.5 107.5q0 38 15.5 67.5t38.5 44.5t45.5 22t41.5 7z
" />
    <glyph glyph-name="semicolon" unicode=";" horiz-adv-x="608" 
d="M307 791q65 0 100 -49.5t35 -96.5q-3 -66 -44 -102.5t-95 -36.5q-50 0 -93.5 35.5t-43.5 107.5q0 70 47.5 106t93.5 36zM279 276q72 0 123 -57.5t51 -157.5q0 -57 -23 -107.5t-57 -82t-72.5 -55t-69 -33.5t-47.5 -10q-12 0 -25.5 6t-13.5 18q0 21 37 39q59 26 95 66.5
t36 89.5q0 30 -16.5 43t-46.5 18q-33 6 -63.5 32t-30.5 73q0 53 40 85.5t83 32.5z" />
    <glyph glyph-name="less" unicode="&#x3c;" horiz-adv-x="1079" 
d="M952 176q4 -6 2 -23t-14.5 -43.5t-28.5 -43.5q-13 -13 -37 2l-665 366q-51 28 -67.5 42.5t-16.5 25.5q0 8 10 28q33 46 68 64l665 373q19 10 25.5 11t15.5 -7q13 -13 26.5 -35t19 -43t-8.5 -29l-620 -329q-6 -2 -8 -9.5t6 -13.5z" />
    <glyph glyph-name="equal" unicode="=" horiz-adv-x="1277" 
d="M1130 780q8 0 15.5 -6.5t7.5 -17.5q0 -39 -5.5 -71t-14.5 -32l-981 -4q-14 0 -21.5 11.5t-7.5 23.5q0 25 10 56.5t21 31.5zM1135 393q7 0 12.5 -11.5t5.5 -25.5q0 -36 -9.5 -63t-19.5 -27l-974 4q-9 0 -18 17t-9 35q0 22 10.5 46.5t20.5 24.5h981z" />
    <glyph glyph-name="greater" unicode="&#x3e;" horiz-adv-x="1079" 
d="M952 532q0 -8 -12 -28q-29 -45 -66 -64l-675 -379q-12 -7 -43 15q-17 17 -28.5 51t-2.5 39q106 56 318 169.5t309 164.5q6 3 7 9t-5 11q-297 156 -629 336q-4 6 -4.5 22t9.5 42t26 43q4 4 15.5 8.5t14.5 1.5q72 -39 682 -375q53 -30 68.5 -42.5t15.5 -23.5z" />
    <glyph glyph-name="question" unicode="?" horiz-adv-x="770" 
d="M283 1245q96 0 233 -98q12 -10 35.5 -35.5t55.5 -67t54.5 -95.5t22.5 -101q0 -88 -22.5 -137t-63.5 -86q-141 -87 -186 -109q-16 -6 -25 -17.5t-11 -17.5t-3.5 -28t-1.5 -25q-1 -23 -19 -35t-33 -12q-13 0 -45 86q-30 88 -30 151q0 61 56 108t183 105q48 21 68 41t20 52
q-4 110 -131 110q-8 0 -70.5 -13t-84.5 -13q-30 0 -63.5 50t-33.5 95q0 33 30 62.5t65 29.5zM371 270q66 0 103.5 -43t37.5 -100q0 -63 -42 -107.5t-103 -44.5t-101.5 42.5t-40.5 107.5q0 63 45 104t101 41z" />
    <glyph glyph-name="at" unicode="@" horiz-adv-x="1763" 
d="M971 649q-76 0 -144 -76q-66 -70 -113.5 -167.5t-47.5 -165.5q0 -66 36 -66q49 0 125 70q77 67 140.5 165.5t97.5 178.5q3 9 1 20.5t-7 14.5q-37 26 -88 26zM1047 768q38 0 69 -27q3 -3 9.5 -1t9.5 8q17 51 34 63q16 12 35 12q52 0 92 -24q11 -8 11 -31
q-180 -425 -209 -584q-12 -82 67 -82q161 0 275 133.5t114 329.5q0 165 -76.5 287.5t-208 185t-300.5 62.5q-144 0 -266 -45.5t-208 -123t-147 -181t-90 -219.5t-29 -238q0 -93 23 -182t73 -171.5t121.5 -144t177.5 -98.5t232 -37q125 0 246.5 42.5t206.5 111.5q9 8 17.5 1
t8.5 -24q0 -19 -20 -45q-60 -66 -158.5 -109.5t-185.5 -59t-168 -15.5q-109 0 -213 27.5t-197.5 87t-163.5 144t-111.5 207t-41.5 267.5q0 159 54 301.5t144 246.5t204.5 180.5t239 114.5t243.5 38q166 0 300 -50.5t218 -136t129 -193.5t45 -227q0 -111 -45 -213.5
t-122.5 -179t-190.5 -122.5t-242 -46q-68 0 -110 21.5t-44 44.5q0 34 6 57l53 145q2 4 0.5 7.5t-5.5 4t-9 -4.5q-271 -275 -414 -275q-30 0 -51.5 29t-21.5 65q-2 58 47 155t149 218q93 114 210 203.5t184 89.5z" />
    <glyph glyph-name="A" unicode="A" horiz-adv-x="1386" 
d="M729 1331q9 0 16.5 -8.5t18.5 -36.5q20 -53 82 -229q196 -548 293 -791q47 -115 84 -152.5t98 -54.5q53 -15 53 -36q0 -12 -17 -21.5t-50 -9.5q-24 0 -130 4t-139 4q-36 0 -105.5 -2t-94.5 -2q-30 0 -48 8.5t-18 22.5q0 9 13 19t40 15q39 9 59 24.5t22.5 28.5t0.5 33
q-1 9 -2.5 19.5t-5.5 25t-7.5 26.5t-10 33t-11 33.5t-13.5 38.5t-13.5 38t-15.5 42.5t-15 42.5q-2 8 -17 19.5t-32 11.5q-227 2 -344 -6q-10 0 -23 -20q-88 -219 -88 -297q0 -33 21.5 -55t75.5 -36q59 -14 59 -40q0 -12 -18.5 -19.5t-43.5 -7.5q-14 0 -67 2t-96 2
q-46 0 -120 -4t-83 -4q-60 0 -60 24q0 26 52 41q40 11 64.5 23t45.5 35t36 48.5t40 76.5q27 54 174 427t182 457q11 22 11 37q0 14 4 17q22 22 59 66t47 61q17 26 37 26zM760 575q2 0 5.5 6t2.5 11q-24 73 -76.5 217.5t-73.5 194.5q-2 7 -6 8t-8.5 -3t-7.5 -12
q-136 -360 -147 -405q-1 -7 3.5 -14t10.5 -7q160 4 297 4z" />
    <glyph glyph-name="B" unicode="B" horiz-adv-x="1267" 
d="M1094 997q0 -42 -12 -80.5t-24.5 -61.5t-40 -50t-38 -35.5t-39.5 -28.5q-2 -2 -4 -3.5t-4 -2.5q-4 -1 -3.5 -9.5t5.5 -8.5q246 -103 246 -338q0 -180 -174 -297q-65 -47 -174.5 -68.5t-192.5 -21.5q-99 0 -375 6q-44 1 -98 -0.5t-57 -1.5q-28 0 -47 9.5t-19 23.5
q0 24 57 34q46 9 73.5 19.5t41.5 27t18.5 32t8.5 46.5q16 172 16 654q0 249 -12 307q-8 36 -30.5 52t-98.5 30q-54 8 -54 39q0 11 18 18.5t40 7.5h135q31 0 193 7.5t206 7.5q90 0 170 -16.5t125 -45.5q144 -88 144 -252zM854 973q0 124 -74 194t-188 70q-26 0 -72 -12
q-3 -2 -10 -13.5t-8 -19.5q-8 -66 -8 -436q0 -8 7 -17.5t15 -9.5q67 0 137 12t103 37q98 70 98 195zM909 360q0 89 -41 159t-110 108q-68 39 -176 39q-21 0 -43 -5t-27 -10q-16 -16 -16 -96q-1 -38 2 -175t6 -185q5 -42 26 -66q27 -29 64.5 -49.5t64.5 -20.5q100 0 175 88
t75 213z" />
    <glyph glyph-name="C" unicode="C" horiz-adv-x="1454" 
d="M872 1331q131 0 267 -33q96 -23 147 -30q11 0 21 -17t10 -39q3 -84 10 -188q2 -33 -8 -55.5t-27 -22.5q-8 0 -20 16.5t-19 38.5q-33 105 -86 146q-142 119 -303 119q-119 0 -212 -45t-150.5 -124t-87 -180.5t-29.5 -220.5q0 -206 70 -346q54 -107 133.5 -178t159.5 -99
t165 -28q120 0 199 47q107 61 178 187q35 63 56 63q15 0 18.5 -29.5t-2.5 -46.5q-17 -85 -62 -178q-5 -14 -27.5 -34.5t-45.5 -30.5q-174 -60 -359 -60q-108 0 -209 22t-176 58.5t-129 74.5t-88 77q-172 198 -172 460q0 88 22.5 170.5t58.5 144t72 104.5t72 73
q224 184 553 184z" />
    <glyph glyph-name="D" unicode="D" horiz-adv-x="1556" 
d="M725 1313q101 0 193 -19.5t159.5 -51.5t113.5 -62.5t81 -63.5q85 -82 138.5 -202.5t53.5 -243.5q0 -104 -30 -200.5t-79 -168.5t-103.5 -124t-110.5 -83q-91 -53 -214.5 -82.5t-254.5 -29.5q-168 0 -410 12q-61 2 -139 2q-32 0 -50 10t-18 23q0 11 17 21t37 13
q33 4 53.5 9.5t37.5 17t25.5 25t14.5 41.5t8 58t4 81q6 179 4 283q0 370 -6 473q-6 105 -25.5 137t-99.5 43q-18 3 -33.5 14t-15.5 21q0 12 16 21t39 9h107q44 0 224 8.5t263 8.5zM633 1241q-65 0 -107 -22q-16 -11 -16 -29q-8 -98 -8 -361v-297q0 -215 8 -335q4 -54 41 -91
q23 -21 68.5 -38t68.5 -17q162 0 307 121q91 76 141 211.5t50 286.5q0 111 -44 230t-120 196q-66 68 -172.5 106.5t-216.5 38.5z" />
    <glyph glyph-name="E" unicode="E" horiz-adv-x="1202" 
d="M512 1296h307q86 0 180 13q6 2 15 -7.5t10 -19.5q2 -37 2 -219q0 -22 -10 -39.5t-23 -17.5q-12 0 -24 17t-15 34q-32 136 -131 153q-100 15 -284 13q-5 0 -10 -4t-10.5 -18t-6.5 -36q-3 -41 -6 -204t-2 -244q0 -6 6 -13.5t14 -7.5h164q100 0 124 12.5t50 73.5l1.5 3
l1.5 3t1.5 3.5t1.5 3.5q21 53 45 53q11 0 17 -19t4 -38q-8 -114 -8 -142q0 -37 8 -139q1 -27 -7 -44t-20 -17q-11 0 -22.5 14.5t-16.5 30.5q-20 65 -45.5 85t-87.5 25q-66 6 -205 6q-6 0 -16 -10t-10 -14q-10 -73 -4 -285q1 -14 1.5 -52.5t1.5 -67.5t5 -48q5 -15 18 -30.5
t27 -18.5q66 -12 166 -12q137 0 188 18q97 37 162 152q39 71 64 71q23 0 16 -59q0 -13 -32.5 -113.5t-45.5 -124.5q-4 -9 -22 -17.5t-27 -8.5q-6 0 -145.5 2.5t-304 5t-232.5 2.5q-76 0 -140.5 -5t-93.5 -5q-69 0 -69 26q0 27 61 41q81 19 107.5 47t32.5 109q16 229 16 496
q0 365 -2 395q-3 60 -25 90t-84 41q-65 12 -65 37q0 13 20 22t43 9q47 0 182 -3.5t189 -3.5z" />
    <glyph glyph-name="F" unicode="F" horiz-adv-x="1114" 
d="M401 1296h271q255 0 336 9q10 1 18 -7t8 -18q-2 -35 3 -126t5 -101q2 -21 -7 -39.5t-23 -18.5q-27 0 -47 68q-42 136 -138 149q-43 4 -149.5 5.5t-134.5 -0.5q-8 0 -19.5 -9.5t-11.5 -13.5q-12 -73 -12 -438q0 -28 6.5 -50t17.5 -22q208 0 238 4q49 8 70 25.5t38 68.5
q19 54 43 54q11 0 18 -17t7 -33q0 -12 -4 -61.5t-4 -69.5q0 -41 2 -92t2 -63q0 -34 -10.5 -51t-24.5 -17q-7 0 -18 13.5t-19 39.5q-24 87 -84 99q-54 12 -133 12q-81 0 -127 -6q-7 -2 -18 -23q0 -80 4 -223.5t4 -148.5q3 -65 26 -89.5t99 -39.5q59 -11 59 -41
q0 -12 -20 -21.5t-47 -9.5q-23 0 -94 3t-113 3q-56 0 -160 -6t-133 -6q-59 0 -59 24q0 30 59 43q63 18 86.5 43t26.5 66q16 168 16 588q0 309 -4 362q-3 52 -26.5 78t-82.5 39q-65 18 -65 43q0 13 19 21t42 8q46 0 135 -3.5t129 -3.5z" />
    <glyph glyph-name="G" unicode="G" horiz-adv-x="1521" 
d="M868 1331q162 0 334 -43q44 -11 92 -16q7 0 15.5 -13.5t9.5 -33.5q1 -24 16 -112.5t15 -133.5q0 -21 -9.5 -36t-25.5 -15q-18 0 -39 53q-29 82 -78 143q-44 51 -131 95.5t-197 44.5q-113 0 -206.5 -48t-155 -130.5t-95.5 -190t-34 -227.5q0 -220 86 -369
q67 -121 182.5 -193.5t249.5 -72.5q69 0 129 41q19 12 31 51.5t12 91.5q0 149 -8 182q-6 22 -12.5 35t-23 28t-48.5 24.5t-80 13.5q-23 1 -41 13t-18 26q0 11 19.5 19.5t49.5 8.5q41 0 131 -4t115 -4q21 0 109 6t129 6q55 0 55 -30q0 -9 -14 -21t-33 -18q-10 -3 -19 -6
t-15 -5.5t-11.5 -7t-9 -6.5t-6.5 -7.5t-4 -7t-2.5 -8t-2 -7.5t-1.5 -8.5t-1 -8.5q-10 -63 -10 -254q0 -14 4 -24t9 -16t20 -21q22 -17 22 -35q0 -8 -10 -18t-21 -13q-96 -27 -186 -45q-68 -14 -167 -27.5t-136 -13.5q-165 0 -311 47.5t-238 130.5q-211 202 -211 510
q0 296 227 494q97 86 244 136t305 50z" />
    <glyph glyph-name="H" unicode="H" horiz-adv-x="1673" 
d="M504 739q3 -26 24 -26q60 0 284 4t341 4q15 0 18 51q3 16 2.5 153t-6.5 193q-6 58 -23 79t-77 38q-59 16 -59 41q0 27 67 27q10 0 106 -3.5t126 -3.5q38 0 125 4.5t94 4.5q63 0 63 -27q0 -28 -65 -45q-52 -11 -69.5 -35.5t-20.5 -73.5q-17 -163 -17 -571q0 -103 8 -375
q1 -56 19 -73t86 -39q57 -18 57 -43q0 -29 -65 -29q-14 0 -93.5 3t-113.5 3q-23 0 -126.5 -5t-123.5 -5q-70 0 -70 28q0 13 16.5 25t39.5 18q74 20 90 49t24 146q4 61 5.5 175.5t-1.5 154.5q0 26 -16 26q-59 0 -226 1.5t-255 2t-144 -1.5q-8 -2 -17 -11.5t-9 -18.5
q-6 -108 2 -361q2 -75 19.5 -104t78.5 -47q72 -20 72 -52q1 -9 -10.5 -15.5t-26 -8.5t-29.5 -2q-4 0 -53.5 1.5t-110 3t-92.5 1.5q-21 0 -102 -4t-119 -4q-72 0 -72 26q0 28 58 45q67 19 89 44t30 90q6 66 12 266.5t6 400.5q0 18 1 70.5t1 101t-2 84.5q-3 51 -21 73.5
t-69 37.5q-70 21 -70 45q0 29 64 29q28 0 111.5 -4.5t109.5 -4.5q48 0 127.5 3.5t99.5 3.5q68 0 68 -27q0 -29 -70 -45q-60 -13 -76 -42t-18 -99q-4 -75 -6.5 -188.5t0.5 -162.5z" />
    <glyph glyph-name="I" unicode="I" horiz-adv-x="755" 
d="M254 684q0 317 -6 395q-2 37 -4 52t-7.5 36t-16.5 30t-30 18.5t-49 17.5q-61 15 -61 41q0 12 18.5 20.5t46.5 8.5t113.5 -3.5t120.5 -3.5q53 0 132 3.5t112 3.5q63 0 63 -29q0 -13 -18 -24.5t-45 -16.5q-36 -6 -59.5 -18.5t-34 -32t-14 -34.5t-5.5 -40q-8 -68 -8 -475
q0 -305 6 -397q6 -93 28.5 -123.5t106.5 -53.5q57 -12 57 -43q0 -26 -63 -26q-35 0 -147.5 5.5t-159.5 4.5q-27 0 -92 -3t-105 -3q-63 0 -63 35q0 25 61 39q67 16 88.5 49t24.5 104q10 130 10 463z" />
    <glyph glyph-name="J" unicode="J" horiz-adv-x="731" 
d="M-158 -344q0 16 22 49t42 53q6 7 28.5 19t30.5 12q27 0 64 -22q84 -60 129 -60q36 0 55 25q32 38 41 133q6 88 6 678q0 368 -10 583q-4 77 -115 105q-32 7 -48.5 19.5t-16.5 25.5q0 29 63 29q28 0 107.5 -4.5t126.5 -4.5q63 0 143.5 3.5t105.5 3.5q24 0 41 -6.5t17 -18.5
q0 -30 -62 -45q-54 -12 -75.5 -41t-22.5 -102q-7 -564 -14 -881q-6 -176 -79 -320t-179 -221q-71 -51 -139 -77.5t-113 -26.5q-52 0 -100 26t-48 66z" />
    <glyph glyph-name="K" unicode="K" horiz-adv-x="1439" 
d="M88 1274q0 13 18.5 21t43.5 8q23 0 103.5 -3.5t113.5 -3.5q32 0 115 2t106 2q65 0 65 -26q0 -20 -55 -37q-62 -18 -79.5 -38.5t-20.5 -86.5q-9 -116 -2 -422q0 -14 14 -14q6 0 19 7.5t16 10.5q54 40 205.5 191t222.5 239q38 39 31.5 67t-68.5 42q-49 12 -49 33
q0 28 51 28h86q75 0 191 5.5t135 5.5q57 0 57 -25q0 -12 -20.5 -23.5t-53.5 -17.5q-43 -8 -78 -21.5t-76 -40.5t-58 -40t-68 -54q-60 -47 -161 -142t-165 -167q-9 -9 -2 -20q34 -52 223.5 -271.5t290.5 -324.5q48 -50 86.5 -69.5t108.5 -33.5q16 -4 29.5 -16t13.5 -19
q0 -14 -20 -23t-40 -9q-27 0 -173 8t-175 8q-40 0 -95 -2t-75 -2q-23 0 -34 9.5t-11 23.5q0 9 19 19t77 28q5 4 4.5 13.5t-4.5 15.5q-50 69 -173 220.5t-191 225.5q-7 9 -20 23q-42 49 -51 52q-2 1 -5 1q-9 0 -11.5 -9.5t-2.5 -37.5q-1 -89 8 -426q0 -31 21.5 -52.5
t82.5 -37.5q58 -16 58 -41q0 -13 -20 -22t-46 -9q-20 0 -120 2t-134 2q-31 0 -114.5 -4t-116.5 -4q-21 0 -38.5 10t-17.5 21q0 24 60 38q76 15 100 49t29 126q6 86 6 462q0 246 -8 394q-1 71 -20.5 97t-78.5 44q-59 16 -59 41z" />
    <glyph glyph-name="L" unicode="L" horiz-adv-x="1200" 
d="M88 1272q0 28 62 28q27 0 100.5 -2t103.5 -2q44 0 147 4.5t124 4.5q63 0 63 -25q0 -12 -14 -23t-31 -16q-75 -18 -101 -38.5t-28 -43.5q-14 -102 -14 -612q0 -291 10 -379q3 -31 31 -53.5t43 -26.5q65 -10 170 -10q101 0 147 10q41 9 64 29q81 81 129 159q27 41 55 41
q21 0 8 -55q-41 -129 -65 -242q-3 -8 -22 -21t-26 -13q-2 0 -75 3.5t-221 7t-332 3.5q-53 0 -164.5 -6t-138.5 -6q-62 0 -62 26q0 11 14 23t37 16q81 14 107.5 45t34.5 103q10 127 10 561q0 278 -2 346q-2 57 -21 83t-86 42q-57 15 -57 39z" />
    <glyph glyph-name="M" unicode="M" horiz-adv-x="1814" 
d="M94 1278q0 27 60 27q59 0 152.5 -4.5t178.5 -4.5q3 0 12.5 -10.5t10.5 -17.5q18 -59 78 -185q300 -620 334 -665q3 -3 9.5 -5.5t8.5 -0.5q49 89 173.5 339.5t168.5 356.5q53 133 59 158q1 6 11.5 18t13.5 12q63 0 140 2t129.5 4.5t56.5 2.5q55 0 55 -25q0 -26 -59 -39
q-42 -10 -93 -35q-26 -12 -37.5 -49.5t-11.5 -114.5q0 -252 8 -511t17 -338q8 -55 33.5 -83t97.5 -47q25 -6 40 -19t15 -24q0 -30 -61 -30q-5 0 -125.5 5t-163.5 5q-17 0 -93.5 -3t-101.5 -3q-59 0 -59 29q0 13 17.5 25.5t39.5 17.5q30 7 49.5 21.5t28.5 39t12.5 45.5
t6.5 59q5 68 8.5 354t1.5 378q0 20 -11 22q-6 1 -10 -8q-50 -98 -152 -314t-147 -319q-38 -86 -123 -293q-27 -63 -57 -63q-7 0 -19 14t-20 31q-26 86 -76 209q-71 175 -178 410.5t-145 310.5q-7 14 -11 2q-1 -4 -1 -9q-13 -109 -23.5 -332.5t-9.5 -381.5q1 -88 24 -119.5
t101 -56.5q59 -19 59 -46q0 -12 -16.5 -20t-42.5 -8q-32 0 -99 4t-90 4q-25 0 -92 -4t-90 -4q-63 0 -63 28q0 20 55 39q85 29 112.5 66t40.5 143q19 162 43 433.5t25 392.5q0 104 -78 123q-61 18 -84 24q-14 4 -28.5 14.5t-14.5 22.5z" />
    <glyph glyph-name="N" unicode="N" horiz-adv-x="1581" 
d="M45 1274q0 13 17 22t44 9q15 0 134 -4.5t178 -4.5q7 0 23 -10t22 -16q15 -18 72 -83.5t100 -115.5q35 -43 126 -142t172 -184t188.5 -197.5t123.5 -129.5q6 -6 12.5 0.5t6.5 11.5q5 27 5.5 95.5t-0.5 197t-1 170.5q0 104 -13 219q-8 84 -127 115q-67 16 -67 47
q0 24 59 24q27 0 74 -1t66 -1q55 0 134.5 5.5t100.5 5.5q49 0 49 -27q0 -11 -13 -22.5t-38 -18.5q-74 -25 -96.5 -55.5t-30.5 -98.5q-5 -57 -12.5 -347.5t-7.5 -418.5q0 -47 6 -172t6 -147q0 -13 -12.5 -26t-20.5 -13q-28 0 -60 26t-51 52q-22 29 -133 166
q-106 130 -369 422t-339 381q-7 7 -15 1t-8 -12q-8 -112 -10 -264q0 -54 -1 -152t-1.5 -136.5t0 -96.5t2 -92t4.5 -63q6 -52 32.5 -81t96.5 -51q57 -16 57 -38q0 -31 -67 -31q-28 0 -84 4t-94 4q-24 0 -101.5 -3t-93.5 -3q-22 0 -37.5 7t-15.5 19q0 24 45 37
q35 11 51.5 17.5t38.5 20.5t31.5 33t17.5 50.5t10 77.5q4 83 13.5 256.5t16.5 311t7 202.5q0 99 -12 115q-3 3 -10.5 12.5t-10 12.5t-9.5 11t-11 11t-12 9.5t-14.5 9.5t-16.5 8t-20.5 8.5t-24 7.5t-29.5 8q-18 3 -35.5 14t-17.5 21z" />
    <glyph glyph-name="O" unicode="O" horiz-adv-x="1603" 
d="M795 1331q132 0 247.5 -37.5t200 -101.5t145.5 -148.5t91 -180.5t30 -195q0 -350 -258 -557q-88 -68 -209 -108t-239 -40q-159 0 -297 57.5t-236 161.5q-176 189 -176 469q0 177 69 304.5t195 228.5q76 60 196 103.5t241 43.5zM745 1260q-63 0 -126.5 -32t-104.5 -73
q-60 -59 -101.5 -174.5t-41.5 -284.5q0 -119 35.5 -236t97.5 -210.5t156 -152t202 -58.5q125 0 209 84q68 68 113 196t45 285q0 138 -54.5 294t-158.5 251q-54 47 -129.5 79t-141.5 32z" />
    <glyph glyph-name="P" unicode="P" horiz-adv-x="1196" 
d="M858 909q0 83 -33.5 159.5t-98.5 126.5t-146 50q-12 0 -30.5 -6.5t-25.5 -11.5q-15 -15 -18 -76q-1 -18 -1.5 -95t-1 -210t-1.5 -223q0 -110 2 -236t2 -135q1 -43 3 -65.5t8.5 -46.5t20.5 -36.5t36.5 -24t58.5 -20.5q57 -11 57 -43q0 -11 -20 -19.5t-43 -8.5
q-22 0 -116 6t-144 6q-29 0 -110.5 -4t-113.5 -4q-75 0 -75 33q0 10 16 20.5t33 15.5q74 19 100 49t31 101q12 164 12 319q0 525 -4 584q-3 31 -7 47.5t-17 33t-38 25t-67 13.5q-20 3 -33.5 12.5t-13.5 18.5q0 25 43 32q12 2 67 2q70 0 210.5 8.5t181.5 8.5q291 0 413 -119
q119 -117 119 -276q0 -193 -135 -310q-42 -35 -115 -63.5t-131 -28.5q-68 0 -106 14q-43 18 -43 41q0 7 9.5 14t20.5 7h31q75 0 144 84.5t69 230.5z" />
    <glyph glyph-name="Q" unicode="Q" horiz-adv-x="1601" 
d="M807 1331q139 0 266.5 -48.5t223.5 -134.5t153 -211.5t57 -270.5q0 -180 -57 -298t-164 -218q-96 -86 -244 -146q-8 -3 -9.5 -11.5t5.5 -17.5q26 -33 111 -98.5t156 -107.5q203 -123 342 -123q43 0 131 16q11 2 20.5 -2.5t9.5 -11.5q0 -30 -43 -62q-37 -28 -109 -46.5
t-124 -18.5q-132 0 -246 38t-237 115q-33 19 -77.5 51t-115.5 86t-115 87q-117 84 -196 112q-205 79 -328 245t-123 386q0 186 78 325t207 232q182 133 428 133zM758 1255q-118 0 -211 -73q-176 -141 -176 -523q0 -110 43 -230t118 -214q61 -75 151.5 -124.5t156.5 -49.5
q139 0 215 53q57 40 99 136.5t58.5 188.5t16.5 165q0 147 -49 298.5t-142 247.5q-53 56 -132 90.5t-148 34.5z" />
    <glyph glyph-name="R" unicode="R" horiz-adv-x="1333" 
d="M1108 975q0 -148 -143 -262q-16 -12 -80 -43q-7 -3 -7.5 -13t3.5 -16q36 -75 138 -238.5t171 -244.5q68 -82 176 -103q14 -3 25.5 -12t11.5 -16q0 -9 -11 -18.5t-22 -12.5q-44 -16 -137 -16q-212 0 -309 133q-91 124 -248 393q-41 70 -66 86q-11 10 -40.5 18t-57.5 8
q-6 0 -14 -6.5t-9 -13.5q-3 -32 -0.5 -184t7.5 -224q5 -67 24.5 -90.5t89.5 -42.5q49 -14 49 -39q0 -16 -20 -23t-43 -7q-32 0 -120.5 6t-141.5 6q-42 0 -117 -4t-80 -4q-65 0 -65 33q0 17 49 32q70 22 94 45.5t29 73.5q12 158 12 504q0 356 -10 448q-3 40 -27 63.5
t-92 39.5q-51 14 -51 39q0 11 17 19.5t42 8.5h150q34 0 165 5.5t191 5.5q248 0 356 -90q48 -39 79.5 -107t31.5 -137zM854 950q0 50 -20.5 109t-67.5 108q-69 72 -166 72q-10 0 -39 -4.5t-39 -9.5q-7 -4 -14.5 -19t-9.5 -24q-5 -60 -8 -247.5t2 -234.5q1 -9 9.5 -16.5
t16.5 -7.5q69 0 133.5 15.5t87.5 29.5q115 86 115 229z" />
    <glyph glyph-name="S" unicode="S" horiz-adv-x="1019" 
d="M586 1331q33 0 75 -4.5t66 -8.5t69.5 -13t47.5 -9q6 -1 15 -17t11 -24q0 -16 10.5 -103t10.5 -89q0 -51 -19 -51q-14 0 -33 14t-26 35q-14 47 -40 87t-48 58q-69 58 -164 58q-78 0 -143.5 -59.5t-65.5 -153.5q0 -36 12 -67.5t30.5 -57t57 -57t75 -56t100.5 -65.5
q91 -56 152.5 -110.5t93 -106.5t43.5 -97t12 -96q0 -83 -47 -166t-133 -135q-53 -32 -133.5 -53t-153.5 -21q-160 0 -295 53q-12 6 -32.5 30t-20.5 30q-35 158 -35 219q0 10 12.5 26.5t20.5 16.5q23 0 79 -113q44 -90 123 -139t162 -49q78 0 145.5 56.5t67.5 148.5
q0 70 -49 136.5t-182 153.5q-168 110 -245 207t-77 226q0 83 35.5 154t89.5 114q117 98 326 98z" />
    <glyph glyph-name="T" unicode="T" horiz-adv-x="1388" 
d="M700 1294q341 0 443 6q117 9 157 33q27 17 33 17q9 0 16.5 -16t2.5 -36q-34 -120 -43 -237q0 -16 -11 -34.5t-28 -18.5q-25 0 -35 63q-15 86 -43 111t-105 28q-185 0 -249 -10q-8 -1 -14.5 -9t-6.5 -15q0 -37 -1 -182.5t-1 -243.5q0 -428 10 -555q5 -56 35 -86t125 -50
q20 -4 35.5 -17.5t15.5 -23.5q0 -12 -18.5 -19t-38.5 -7q-3 0 -137.5 4t-165.5 4q-35 0 -138.5 -6t-117.5 -6q-64 0 -64 24q0 13 14.5 25.5t30.5 17.5q52 13 78.5 24.5t43 36.5t21 53.5t7.5 88.5q6 88 12 325.5t6 358.5q0 66 -1 144t-1 96q0 12 -8 20t-14 8q-59 9 -232 9
q-26 0 -60.5 -14.5t-51.5 -33.5q-29 -33 -70 -108q-32 -53 -45 -53q-14 0 -22.5 14t-8.5 31q0 13 19 114.5t20 161.5q0 7 12 24t21 17q4 0 7.5 -1.5t7.5 -5.5t6.5 -7t7 -9.5t6.5 -9.5q5 -7 31 -18t53 -14q37 -3 196.5 -8t257.5 -5z" />
    <glyph glyph-name="U" unicode="U" horiz-adv-x="1562" 
d="M68 1276q0 12 17.5 20.5t43.5 8.5q45 0 124.5 -4.5t115.5 -4.5q42 0 129 4.5t106 4.5q28 0 44 -9t16 -22q0 -12 -16.5 -23.5t-45.5 -17.5q-56 -11 -78.5 -35t-31.5 -84q-9 -61 -9 -553q0 -163 28 -240t87 -139q39 -39 118.5 -64.5t131.5 -25.5q297 0 358 268
q39 170 39 564q0 140 -10 198q-5 46 -35 73t-100 44q-19 6 -37.5 17.5t-18.5 23.5q0 10 15.5 17.5t40.5 7.5q22 0 87.5 -4.5t100.5 -4.5q44 0 105 4.5t86 4.5q24 0 37.5 -9t13.5 -22q0 -9 -16 -20t-37 -15q-76 -19 -104.5 -58t-29.5 -134q0 -23 -16 -447q-5 -126 -26 -222.5
t-57.5 -162.5t-79.5 -109t-101 -77q-114 -64 -281 -64q-127 0 -227 36.5t-158 88.5q-90 83 -127 201t-37 356q0 108 -3 292.5t-5 205.5q-7 73 -102 92q-21 5 -38 16t-17 23z" />
    <glyph glyph-name="V" unicode="V" horiz-adv-x="1380" 
d="M-8 1276q0 13 17.5 22t41.5 9q13 0 100 -5.5t144 -5.5q38 0 130.5 2t113.5 2t35 -7t14 -17q0 -29 -51 -43q-45 -12 -64 -27t-18.5 -35.5t8.5 -48.5q23 -75 142.5 -372.5t156.5 -372.5q3 -5 9.5 -5t8.5 5q18 37 136.5 315.5t158.5 384.5q15 40 17 66.5t-12.5 43t-29 24
t-48.5 19.5q-12 4 -19 7q-45 16 -45 35q0 11 16 21t39 10q31 0 85 -3.5t89 -3.5q31 0 98 4.5t87 4.5q26 0 43.5 -8.5t17.5 -20.5q0 -30 -55 -39q-68 -17 -108 -54.5t-79 -117.5q-10 -22 -63.5 -134.5t-114.5 -247t-116 -269.5q-101 -241 -154 -402q-6 -18 -23.5 -35.5
t-31.5 -17.5q-15 0 -28 17t-17 32q-21 96 -107 314q-80 211 -305 749q-35 78 -68 113.5t-98 54.5q-53 13 -53 37z" />
    <glyph glyph-name="W" unicode="W" horiz-adv-x="2011" 
d="M-10 1276q0 12 16.5 20.5t42.5 8.5q51 0 127.5 -4.5t122.5 -4.5q49 0 116 3.5t68 3.5q25 0 41.5 -8t16.5 -19q0 -26 -58 -47q-65 -20 -45 -74q56 -138 375 -833q9 -14 18 2q2 3 21 38.5t37 69.5t42.5 84.5t41.5 91.5q7 11 0 29q-98 237 -203 438q-46 93 -64 115
q-27 32 -77 45q-49 14 -49 41q0 13 19.5 21t45.5 8q9 0 83 -4.5t114 -4.5q57 0 134 3.5t79 3.5q21 0 36 -8t15 -21q0 -12 -14.5 -23.5t-36.5 -17.5q-39 -9 -48.5 -29t5.5 -63q41 -105 116 -267q6 -15 17 3q68 133 102 210q18 41 22.5 68t-5 42.5t-22 22.5t-38.5 15
q-49 20 -49 39q0 26 62 26q17 0 60.5 -2t80.5 -2t94.5 2t69.5 2q49 0 49 -22q0 -28 -60 -43q-43 -15 -64 -25.5t-49 -38.5t-57 -77q-101 -177 -161 -291q-7 -18 2 -33q144 -319 209 -438q8 -14 20 6q175 373 326 745q26 73 10.5 105t-80.5 51q-53 15 -53 37q0 29 61 29
q24 0 73 -4.5t69 -4.5q33 0 92 3.5t92 3.5q61 0 61 -23q0 -27 -59 -43q-58 -12 -88.5 -40t-73.5 -110q-53 -97 -274 -581q-41 -94 -81 -184t-55 -123t-32.5 -76t-38.5 -98q-7 -21 -26.5 -36.5t-33.5 -15.5q-25 0 -36 39q-26 68 -65 153t-91 192.5t-78 164.5q-9 13 -14 2
q-154 -290 -246 -518q-7 -17 -29 -32t-36 -15l-6 3t-5.5 3t-4.5 4t-5 6t-5.5 9t-6.5 14q-2 5 -14 39t-24 66.5t-37 93t-54 125.5q-256 588 -340 751q-45 89 -65 112q-33 36 -93 52q-20 3 -37.5 14t-17.5 25z" />
    <glyph glyph-name="X" unicode="X" horiz-adv-x="1470" 
d="M68 1276q0 12 15 21.5t46 9.5q16 0 136 -5.5t161 -5.5q43 0 97 2t83 2q60 0 60 -22q0 -30 -62 -51q-48 -12 -26 -62q29 -60 95.5 -168.5t117.5 -183.5q6 -7 12 -6.5t8 4.5q47 54 133 171t117 171q28 57 -74 80q-26 5 -39.5 18t-13.5 23q0 26 55 26q32 0 93 -2t89 -2
q26 0 113 4.5t111 4.5q51 0 51 -23q0 -13 -16.5 -25.5t-34.5 -15.5q-94 -23 -153 -55t-116 -96q-19 -23 -62.5 -74t-71.5 -84t-67 -82.5t-71 -93.5q-8 -16 -2 -31q11 -31 118 -198t177 -269q33 -47 53.5 -72t52 -53t70.5 -45t94 -31q26 -5 37.5 -17t11.5 -22q0 -28 -69 -28
q-20 0 -161 6t-196 6q-34 0 -99 -5t-75 -5q-27 0 -39 8.5t-12 19.5q0 26 47 39q49 17 62 25q6 3 9.5 15.5t0.5 19.5q-34 62 -133.5 224.5t-116.5 178.5q-12 12 -20 4q-49 -58 -110 -139t-93 -131q-40 -66 -46.5 -104t10.5 -54.5t62 -31.5q25 -7 38.5 -18t13.5 -21
q0 -14 -15.5 -22.5t-36.5 -8.5q-26 0 -100.5 3t-110.5 3q-47 0 -116 -5t-88 -5q-68 0 -68 24q1 18 18.5 28.5t55.5 18.5q131 30 233 144q164 184 307 379q10 12 5 28q-9 34 -118 208.5t-202 301.5q-37 50 -75.5 73t-100.5 36q-28 6 -44.5 19t-14.5 24z" />
    <glyph glyph-name="Y" unicode="Y" horiz-adv-x="1312" 
d="M10 1282q0 25 62 25q19 0 116 -6.5t150 -6.5q26 0 91 2t108 2q51 0 51 -22q0 -12 -13 -25.5t-34 -17.5q-50 -10 -60 -35.5t13 -64.5q78 -140 235 -408q3 -4 12.5 -2t14.5 8q159 246 227 379q30 46 17.5 78.5t-80.5 46.5q-23 5 -39.5 17.5t-16.5 27.5q0 9 15 14.5t30 5.5
q27 0 72 -2t68 -2q31 0 130 5.5t113 5.5q47 0 47 -23q0 -27 -57 -43q-65 -17 -105.5 -50.5t-101.5 -107.5q-75 -92 -272 -399q-29 -51 -29 -111q0 -286 14 -405q5 -43 29.5 -66t102.5 -43q53 -14 53 -39q0 -12 -17 -20t-47 -8q-12 0 -105.5 5t-119.5 5q-59 0 -127 -3.5
t-115 -7t-55 -3.5q-53 0 -53 24q0 11 15 23.5t44 19.5q75 21 103 44.5t30 50.5q3 42 3.5 117.5t-0.5 171.5t-1 106q0 15 -7 53t-11 47q-31 61 -244 408q-65 104 -104 139.5t-92 48.5q-60 13 -60 41z" />
    <glyph glyph-name="Z" unicode="Z" horiz-adv-x="1294" 
d="M631 1292q395 0 481 13q17 3 29 -2t12 -13q0 -24 -27 -61q-82 -106 -168 -240q-135 -206 -305.5 -491t-208.5 -363q-3 -8 1 -19.5t10 -13.5q50 -21 231 -26q144 0 207 2q80 3 149.5 54.5t141.5 166.5q37 57 53 57q25 0 25 -49q-2 -21 -33 -105t-72 -175q-7 -15 -37 -26
t-80 -11q-146 0 -438.5 4t-318.5 4q-53 0 -117 -2t-68 -2q-12 0 -23.5 7.5t-11.5 18.5q0 18 66 101q91 119 355.5 552t297.5 509q3 9 0 16.5t-8 7.5q-75 11 -305 11q-55 0 -127 -13q-62 -12 -110 -47.5t-91 -114.5q-9 -19 -24.5 -36t-24.5 -17q-15 0 -21 18.5t1 43.5
q4 21 43.5 123.5t52.5 158.5q3 16 8 20.5t17 4.5q18 0 32 -17q16 -22 36 -29t65 -12q93 -8 305 -8z" />
    <glyph glyph-name="bracketleft" unicode="[" horiz-adv-x="692" 
d="M264 1442q69 0 178 1t115 1q19 0 35 -12t16 -23q0 -12 -14.5 -23t-32.5 -14q-107 -14 -180 -18q-11 0 -22.5 -15.5t-12.5 -33.5q-8 -153 -8 -660q0 -36 14 -801q0 -45 10 -72.5t25 -29.5q26 -2 70.5 -7t78 -9.5t37.5 -4.5q11 0 32.5 -12t21.5 -24t-22.5 -24.5
t-41.5 -10.5h-151q-34 0 -105 -1t-74 -1q-11 0 -19.5 16t-8.5 51v1198q0 143 -0.5 256t-1 167.5t-0.5 56.5q0 33 14 43q6 6 47 6z" />
    <glyph glyph-name="backslash" unicode="\" horiz-adv-x="780" 
d="M721 -104q3 -5 -2 -16.5t-14 -14.5q-7 -4 -31.5 -11.5t-30.5 -7.5q-19 -3 -35 43q-139 366 -538 1430q-2 6 3.5 16.5t14.5 14.5q48 18 68 18q13 0 30 -39q436 -1172 535 -1433z" />
    <glyph glyph-name="bracketright" unicode="]" horiz-adv-x="692" 
d="M444 -350q-70 0 -175 -1t-111 -1q-22 0 -40 12t-18 23q0 10 20 22.5t42 15.5q117 18 170 21q10 0 18 14t10 33q9 170 9 657q0 98 -2.5 218.5t-6.5 291.5t-6 291q0 41 -9 71.5t-26 31.5q-69 4 -182 20q-15 2 -34 13.5t-19 21.5q0 14 22.5 28t43.5 11q3 0 57 -1t88 -1
t106 1t74 1q11 0 20 -16.5t9 -51.5v-1198q0 -142 0.5 -256t1 -170.5t0.5 -58.5q0 -27 -14 -37q-6 -6 -48 -6z" />
    <glyph glyph-name="asciicircum" unicode="^" horiz-adv-x="993" 
d="M498 1282q23 0 67 -82l328 -622q8 -18 8.5 -24.5t-6.5 -16.5q-16 -15 -42.5 -27.5t-45.5 -15.5t-25 4l-280 563q-13 19 -23 -2l-274 -555q-11 -15 -47.5 0t-57.5 37q-8 10 -8 15.5t10 25.5l320 612q18 36 41 62t35 26z" />
    <glyph glyph-name="underscore" unicode="_" horiz-adv-x="1013" 
d="M0 -254h1014v-100h-1014v100z" />
    <glyph glyph-name="grave" unicode="`" 
d="M322 1341q14 0 30.5 -19.5t28.5 -51.5q54 -133 106 -297q8 -25 6 -46.5t-16 -21.5q-27 0 -51 33q-43 54 -106.5 156t-86.5 145q-16 32 -12 57q6 22 43 35q23 10 58 10z" />
    <glyph glyph-name="a" unicode="a" horiz-adv-x="856" 
d="M446 834q137 0 213 -111q46 -61 46 -176q0 -47 -4.5 -194.5t-4.5 -151.5q0 -40 23 -61t53 -21q12 0 72 24q6 4 12 -2q6 -12 6 -28q0 -36 -66.5 -88t-144.5 -52q-115 0 -153 99q-1 6 -8.5 8.5t-10.5 -0.5q-50 -36 -162 -86q-49 -17 -90 -17q-59 0 -108 61.5t-49 145.5
q0 53 36 105q5 7 11.5 13.5t12.5 10.5t14 8.5t13 6.5t13 5.5t10 4.5q9 4 279 84q17 6 27 15t10 16q2 16 3.5 77t0.5 80q-2 45 -39 88t-99 43q-45 0 -65 -14q-12 -6 -12 -94q0 -10 -9 -19q-10 -10 -90 -46t-90 -36q-9 0 -17.5 10t-8.5 19q0 45 39 91t133 106
q52 33 114.5 54.5t89.5 21.5zM389 100q14 0 39.5 8t38.5 17q7 4 12.5 18t5.5 21q9 65 9 182q0 6 -5.5 13.5t-9.5 7.5q-26 0 -82 -18.5t-84 -35.5q-21 -15 -29 -30t-8 -52q0 -61 38 -96t75 -35z" />
    <glyph glyph-name="b" unicode="b" horiz-adv-x="1056" 
d="M991 424q0 -115 -54.5 -205.5t-137.5 -152.5q-60 -45 -146 -68t-155 -23q-54 0 -137.5 13.5t-137.5 29.5q-13 7 -43 -8q-20 -8 -26 -8q-7 0 -15 8.5t-8 18.5q12 192 12 684q0 439 -6 485q-5 31 -43 64q-14 10 -31.5 21.5t-22.5 16t-5 9.5q0 10 12.5 23t22.5 16
q8 2 51.5 13t62.5 16t51 16.5t56 23.5q53 27 67 27q5 0 14 -12t9 -21q-2 -45 -7.5 -142.5t-8.5 -178.5t-3 -152q0 -88 3 -156l8 -10q47 29 108.5 45.5t108.5 16.5q157 0 262 -91q139 -120 139 -319zM745 383q0 65 -23.5 137t-64.5 121q-30 36 -83 62t-111 26q-44 0 -80 -16
q-11 -7 -16 -23q-5 -78 -5 -115q0 -219 19 -356q2 -24 16 -58.5t41 -58.5q52 -55 125 -55q15 0 43 16t58 46q37 44 59 121t22 153z" />
    <glyph glyph-name="c" unicode="c" horiz-adv-x="847" 
d="M559 823q52 0 113.5 -12.5t87.5 -32.5q35 -23 35 -73q0 -25 -34 -61t-46 -36q-35 0 -94 51q-6 5 -22.5 18.5t-23 19t-21 16t-23.5 15t-21.5 10.5t-25 8t-25.5 2q-45 0 -88 -46q-37 -39 -58.5 -107.5t-21.5 -141.5q0 -137 65 -215q34 -47 91 -79t133 -32q85 0 196 68
q8 5 17.5 -0.5t9.5 -16.5q0 -30 -33 -63q-56 -60 -140.5 -99t-174.5 -39q-106 0 -191 47t-131 117q-67 103 -67 238q0 223 204 356q53 36 139.5 62t149.5 26z" />
    <glyph glyph-name="d" unicode="d" horiz-adv-x="1069" 
d="M561 829q80 0 113 -4q5 -1 9.5 5t6.5 14q7 53 4 196t-8 189q-1 9 -1.5 12t-5.5 14t-13 18.5t-25 19t-41 22.5q-29 13 -29 20q0 8 14 23t23 16q52 8 136 26.5t122 33.5q23 10 39 10q7 0 13.5 -13.5t5.5 -27.5q-19 -185 -19 -778q0 -279 6 -396q0 -59 5.5 -92t12.5 -42
t17 -9q7 0 48 4t55 4q5 0 8.5 -6.5t3.5 -9.5q0 -9 -17.5 -30.5t-25.5 -24.5q-173 -25 -217 -41q-70 -23 -90 -23q-8 0 -16.5 10t-8.5 19q0 6 2 33.5t2 44.5q0 7 -5.5 11.5t-8.5 2.5q-53 -43 -123.5 -69.5t-128.5 -26.5q-141 0 -246 98q-58 53 -85 130.5t-27 158.5
q0 251 221 381q56 34 136 55.5t138 21.5zM487 756q-58 0 -120 -62q-38 -40 -57 -113t-19 -137q0 -135 79.5 -238.5t194.5 -103.5q63 0 99 31q6 3 17 38.5t11 57.5q7 242 -2 355q-2 12 -13.5 40.5t-23.5 41.5q-39 47 -84.5 68.5t-81.5 21.5z" />
    <glyph glyph-name="e" unicode="e" horiz-adv-x="847" 
d="M494 834q61 0 120 -23t99 -63q78 -75 78 -181q0 -13 -14.5 -31t-31.5 -18h-446q-19 0 -23 -14q-8 -21 -8 -74q0 -37 18.5 -95.5t45.5 -94.5q38 -49 98.5 -76t128.5 -27q129 0 184 72q16 24 27 24q6 0 12 -8.5t6 -17.5q0 -25 -16 -51q-115 -179 -328 -179
q-173 0 -275.5 116.5t-102.5 295.5q0 127 68 238t192 168q80 39 168 39zM479 776q-63 0 -117 -51.5t-73 -122.5q-1 -7 3.5 -13.5t10.5 -6.5h219q28 0 50 17.5t22 51.5q0 44 -36.5 84.5t-78.5 40.5z" />
    <glyph glyph-name="f" unicode="f" horiz-adv-x="622" 
d="M414 805q54 0 103.5 0.5t76.5 0.5l27 1q10 0 19 -31t9 -63q0 -5 -12 -14t-19 -9q-6 0 -96.5 2t-103.5 2q-5 0 -11 -8t-6 -14q-2 -32 1.5 -245t7.5 -263q5 -52 25 -72.5t93 -34.5q25 -5 38.5 -15.5t13.5 -18.5q0 -11 -17.5 -20t-44.5 -9q-9 0 -70 3t-90 3q-73 0 -163 -4
t-99 -4q-51 0 -51 28q0 7 13.5 18t29.5 15q59 19 71.5 42t14.5 98q4 168 4 460q0 39 -16 39q-13 -1 -43.5 -2t-44.5 -2q-6 0 -14 11.5t-7 21.5q1 4 16.5 16t44.5 33.5t46 34.5q20 17 20 29q0 71 17.5 151.5t50.5 144.5q71 151 196 234q110 76 234 80q80 3 141 -37
q18 -11 34.5 -37.5t16.5 -48.5q0 -32 -23 -66t-50 -43q-20 -8 -43 -8q-26 0 -62 41q-29 29 -46 44.5t-46.5 32.5t-54.5 17q-52 0 -80 -47q-32 -45 -49 -148.5t-17 -322.5q0 -4 6.5 -10t8.5 -6z" />
    <glyph glyph-name="g" unicode="g" horiz-adv-x="931" 
d="M461 842q84 0 194 -31q51 -13 56 -14q37 0 121.5 -5.5t109.5 -9.5q9 -1 15 -8.5t6 -15.5q0 -20 -19 -49t-26 -29q-70 0 -119 4q-7 0 -11 -6t-2 -10q13 -54 13 -88q0 -167 -117 -256q-106 -78 -248 -78q-42 0 -82 4q-21 3 -28 -4q-13 -8 -26 -25t-13 -28q0 -27 26.5 -50.5
t48.5 -25.5q364 -16 385 -19q57 -11 105 -49q41 -37 64.5 -87t23.5 -101q0 -59 -20.5 -113t-55 -95t-67 -69.5t-68.5 -50.5q-142 -90 -311 -90q-149 0 -258 70q-51 35 -80 84.5t-29 99.5q0 78 64 121q21 14 69.5 44.5t61.5 39.5q12 8 0 14q-51 17 -84 39q-80 56 -80 162
q0 5 5 13t9 11q5 4 41.5 26.5t73 48t51.5 42.5q3 1 2.5 9t-6.5 12q-61 30 -113.5 95.5t-52.5 162.5q0 140 123 231q100 74 248 74zM440 784q-23 0 -45.5 -12t-34.5 -31q-47 -59 -47 -174q0 -103 46.5 -183.5t117.5 -80.5q24 0 64 31q24 23 39.5 81.5t15.5 125.5
q0 31 -12 84.5t-33 83.5q-49 75 -111 75zM508 -459q94 0 160 35q48 28 70 72t22 90q0 62 -35 100q-39 42 -115 53q-79 11 -213 11q-65 0 -98 -25q-61 -55 -61 -131q0 -87 71 -145q74 -60 199 -60z" />
    <glyph glyph-name="h" unicode="h" horiz-adv-x="1075" 
d="M631 834q149 0 221 -99q57 -76 57 -225q1 -76 5 -214t4 -155q1 -37 19.5 -55t61.5 -29q54 -13 54 -37q0 -28 -60 -28q-30 0 -86 4t-82 4q-39 0 -96 -3t-92 -3q-26 0 -38.5 8t-12.5 18q0 20 43 33q36 10 47 30t16 73q4 45 4 342q0 125 -51 168q-52 45 -125 45
q-40 0 -73 -10.5t-44 -18.5q-7 -5 -15 -26.5t-9 -43.5q-4 -74 -5 -240.5t1 -203.5q1 -52 16.5 -75t52.5 -32q50 -12 50 -34q0 -29 -60 -29q-4 0 -31.5 0.5t-70 1t-84.5 0.5q-49 0 -107 -3t-69 -3q-19 0 -35.5 8t-16.5 21q0 22 58 38q40 16 54 39.5t18 61.5q18 162 18 821
q0 178 -6 219q-1 8 -2 14t-4 12t-4 9.5t-6.5 9.5t-7 8t-10 8.5t-11.5 8.5t-14.5 10.5t-16.5 11.5q-6 3 -13 16t-7 23q0 5 4 10t10 5q206 47 266 82q22 14 35 14q5 0 12.5 -11t7.5 -16q-15 -99 -21 -362.5t-3 -315.5q0 -4 5 -8.5t9 -1.5q54 49 118 77t122 28z" />
    <glyph glyph-name="i" unicode="i" horiz-adv-x="557" 
d="M86 725q0 12 15.5 23.5t39.5 15.5q50 10 146 41.5t100 32.5q7 0 14 -9t7 -14q-11 -193 -11 -463q0 -63 4 -207q1 -42 18 -57t62 -29q45 -15 45 -39q0 -12 -17 -19t-40 -7q-3 0 -73.5 3t-96.5 3q-37 0 -111 -4t-88 -4q-24 0 -40.5 7.5t-16.5 18.5q0 21 53 37
q34 10 53.5 26.5t22.5 33.5q12 43 12 319q0 159 -4 184q-1 11 -16 26.5t-53 47.5q-25 25 -25 33zM303 1262q49 0 79 -42.5t30 -84.5q0 -48 -41 -86.5t-82 -38.5q-16 0 -41 9t-41 25q-39 39 -39 91q0 54 33 90q40 37 102 37z" />
    <glyph glyph-name="j" unicode="j" horiz-adv-x="530" 
d="M59 725q0 16 35 25q162 41 242 86q21 12 37 12q6 0 14 -10.5t8 -16.5q-1 -47 -4 -370.5t-4 -352.5q-6 -215 -86 -348q-80 -137 -180 -215q-36 -32 -80 -57t-57 -25q-9 0 -26 7.5t-24 17.5q-4 3 -2 11.5t9 12.5q91 57 127 99q100 123 100 497q0 399 -6 494q-2 25 -17 45
t-63 53q-7 4 -15 15t-8 20zM252 1268q69 0 103 -44.5t34 -82.5q0 -62 -42 -94.5t-85 -32.5q-36 0 -77 37t-42 88q-3 59 47 102q27 27 62 27z" />
    <glyph glyph-name="k" unicode="k" horiz-adv-x="1034" 
d="M596 805h86q70 0 174 11t123 11q18 0 18 -16t-16.5 -31.5t-26.5 -17.5q-89 -20 -138 -42.5t-116 -72.5q-29 -20 -72 -61t-50 -56l-3 -14q28 -43 145 -194t165 -199q59 -53 125 -70q23 -7 37 -16.5t14 -16.5q0 -32 -64 -32q-13 0 -120.5 5.5t-169.5 4.5l-99 -2
q-53 0 -53 29q0 17 45 30q49 16 27 47q-30 42 -95.5 128t-103.5 137q-30 41 -39 41q-2 0 -3.5 -1t-2.5 -3.5t-1.5 -4.5t-1.5 -5t-1 -5q-6 -18 -5 -121.5t7 -136.5q5 -33 18.5 -49.5t53.5 -26.5q17 -4 30 -13t13 -17q0 -31 -56 -31q-26 0 -97 3t-97 3q-42 0 -110.5 -4
t-76.5 -4q-57 0 -57 26q0 20 59 37q46 14 64 32.5t22 59.5q15 293 15 629q0 339 -12 453q-3 22 -62 57q-14 7 -23.5 20.5t-9.5 22.5q0 5 10 11.5t23 9.5q170 36 242 77q38 19 43 19t12 -10.5t6 -16.5q-7 -40 -12.5 -311.5t-5.5 -450.5q0 -174 6 -194q2 -12 16 -12q7 0 33 22
q43 36 119 113t106 114q3 4 4.5 8t0 10t-7 11t-19 10.5t-33.5 8.5q-43 9 -43 28q0 9 13 19t28 10z" />
    <glyph glyph-name="l" unicode="l" horiz-adv-x="540" 
d="M68 1323q0 8 10 18.5t26 16.5q20 6 66 17.5t72.5 19t63.5 22.5t65 33q4 3 14 -5.5t10 -14.5q-5 -60 -10.5 -318t-5.5 -475q0 -411 8 -492q5 -40 21.5 -59t70.5 -35q43 -15 43 -35q0 -24 -55 -24q-26 0 -106 4t-97 4q-24 0 -96.5 -4t-93.5 -4t-35 4t-19.5 9t-5.5 11
q0 26 49 35q50 13 66 43.5t21 112.5q12 180 12 645q0 59 -1 196.5t-1 161.5q0 18 -11 31t-45 39q-36 31 -36 43z" />
    <glyph glyph-name="m" unicode="m" horiz-adv-x="1603" 
d="M96 711q0 9 14 21.5t25 15.5q39 12 112 43t109 51q11 4 19 0q7 -4 12.5 -13.5t5.5 -13.5q0 -16 -3 -47.5t-3 -40.5q0 -4 5 -10t9 -2q144 119 277 119q95 0 149 -41q32 -25 68 -82q4 -6 16 -6q97 62 150 88q56 30 119 30q106 0 176 -73q71 -68 78 -205q5 -85 10 -412
q4 -61 72 -82q40 -12 40 -33q0 -11 -15 -18.5t-42 -7.5q-19 0 -77 4t-87 4q-38 0 -92.5 -3t-75.5 -3q-27 0 -39 9.5t-12 21.5q0 16 41 30q39 12 51 33t15 82q1 31 -0.5 183.5t-1.5 164.5q0 66 -29 111q-44 69 -131 69q-74 0 -125 -41q-16 -13 -16 -63q0 -414 2 -436
q5 -52 19.5 -71.5t66.5 -33.5q43 -11 43 -30q0 -11 -15 -20t-39 -9q-22 0 -91 3t-93 3q-21 0 -84 -2t-84 -2q-59 0 -59 31q0 5 11.5 14t29.5 14q42 12 57.5 34.5t15.5 76.5l2 352q2 97 -24 129q-48 66 -133 66q-71 0 -125 -43q-7 -6 -13 -20.5t-6 -26.5q-2 -133 -2 -476
q0 -34 16 -54.5t56 -33.5q29 -9 39 -16.5t10 -19.5q0 -9 -17 -18t-38 -9q-1 0 -35.5 1t-83 2t-82.5 1q-37 0 -95.5 -4t-76.5 -4q-57 0 -57 26q0 21 51 35q51 11 65.5 35.5t20.5 95.5q10 137 10 396q0 35 -12 45q-74 74 -74 86z" />
    <glyph glyph-name="n" unicode="n" horiz-adv-x="1093" 
d="M100 717q0 9 13 24.5t24 20.5q101 30 166 61q64 31 70 31t14 -12t8 -19q0 -12 -1 -47t-1 -43q0 -5 3.5 -7.5t7.5 -2.5h4q149 111 260 111q116 0 188 -82q74 -83 74 -248q0 -286 6 -373q3 -26 19 -43t53 -27q53 -14 53 -36q0 -12 -17 -20.5t-43 -8.5q-23 0 -90 2t-96 2
q-28 0 -89 -3t-73 -3q-55 0 -55 29q0 19 49 34q35 13 47 33.5t15 71.5q4 68 4 381q0 33 -12 68.5t-33 54.5q-19 16 -53 29.5t-64 13.5q-76 0 -135 -41q-15 -12 -21 -45q-1 -25 0.5 -252.5t3.5 -247.5q2 -24 15 -37t57 -27q35 -16 35 -34q0 -11 -16 -20t-41 -9q-19 0 -77.5 2
t-80.5 2q-43 0 -111 -3t-80 -3q-26 0 -40.5 8.5t-14.5 22.5q0 21 43 32q51 17 65 37t19 78q10 102 10 432q0 17 -12.5 35t-46.5 49q-23 23 -23 29z" />
    <glyph glyph-name="o" unicode="o" horiz-adv-x="1032" 
d="M535 834q78 0 154.5 -30t138.5 -83t100.5 -135t38.5 -178q0 -118 -57 -211t-126 -138q-120 -84 -282 -84q-69 0 -147.5 30t-135.5 77q-67 55 -110 142.5t-43 172.5q0 102 39 183.5t102 134.5q56 48 140.5 83.5t187.5 35.5zM496 766q-53 0 -101 -45q-84 -77 -84 -268
q0 -117 25 -197q31 -102 93 -157.5t130 -55.5q17 0 42.5 13.5t47.5 37.5q33 43 54.5 119.5t21.5 161.5q0 77 -19.5 162.5t-62.5 146.5q-65 82 -147 82z" />
    <glyph glyph-name="p" unicode="p" horiz-adv-x="1052" 
d="M653 829q60 0 125 -32.5t107 -81.5q100 -115 100 -269q0 -220 -176 -356q-133 -104 -315 -104q-64 0 -101 6q-6 1 -11 -9.5t-5 -19.5q-2 -70 1 -170t7 -133q5 -46 23 -70t75 -41q56 -16 56 -43q0 -13 -18.5 -20.5t-39.5 -7.5q-26 0 -129.5 5t-142.5 5q-21 0 -69 -3
t-97 -3q-26 0 -42.5 9.5t-16.5 23.5q0 9 14.5 19.5t38.5 16.5q71 15 90.5 44.5t22.5 121.5q8 144 8 437q0 405 -2 444q-2 46 -17 57q-76 63 -76 74q0 9 13.5 25t29.5 22q148 43 209 80q30 18 41 18q6 0 15.5 -10.5t9.5 -17.5q0 -4 -6 -96q0 -6 5.5 -11.5t10.5 -3.5
q61 41 121 66q70 28 141 28zM512 709q-61 0 -109 -25q-19 -19 -22 -53q-17 -126 -8 -365q0 -56 20 -94q30 -53 80.5 -85t87.5 -32q36 0 68 25q38 27 65 75t39 98t16.5 83.5t4.5 52.5q0 30 -5 64.5t-25.5 88t-55.5 91.5q-31 34 -78.5 55t-77.5 21z" />
    <glyph glyph-name="q" unicode="q" horiz-adv-x="1046" 
d="M547 834q29 0 86 -6t90 -15q62 -20 70 -20q17 0 47 26q39 39 69 39q8 0 13 -9.5t2 -25.5q-14 -90 -17.5 -254.5t-3.5 -488.5q0 -277 6 -410q2 -57 21 -78.5t86 -33.5q16 -4 31.5 -13t15.5 -20q0 -16 -16.5 -24.5t-40.5 -8.5q-108 0 -273 -11t-166 -11q-34 0 -48.5 5.5
t-14.5 20.5q0 22 49 37q36 10 61 22t38 22.5t20 27t8 26t2 27.5q10 142 10 362q0 7 -3.5 13.5t-8.5 3.5q-50 -25 -113.5 -43.5t-101.5 -18.5q-178 0 -293 115q-48 48 -77 128.5t-29 158.5q0 135 59.5 228.5t146.5 150.5q48 31 129.5 54.5t145.5 23.5zM492 764q-49 0 -91 -37
q-96 -80 -96 -289q0 -177 107 -293q36 -35 88.5 -52t95.5 -17q14 0 37.5 6.5t36.5 15.5q8 4 15 26.5t7 39.5q0 305 -16 401q-12 77 -37 115q-26 38 -70 61t-77 23z" />
    <glyph glyph-name="r" unicode="r" horiz-adv-x="735" 
d="M90 713q0 4 1.5 11t8.5 16t17 12q172 55 207 77q41 25 49 25t16 -9.5t8 -15.5q0 -18 -3 -56t-3 -58q0 -5 6.5 -8.5t10.5 0.5q49 53 110 90t107 37q60 0 89 -27.5t29 -56.5q0 -13 -12 -33q-22 -33 -56.5 -76.5t-43.5 -44.5q-29 0 -37 8q-21 18 -61.5 38t-67.5 20
q-35 0 -51 -13q-19 -16 -19 -41q0 -30 5.5 -217t7.5 -211q6 -98 47 -106q10 -2 88 -27q41 -12 41 -33q0 -24 -58 -24q-23 0 -121.5 5t-166.5 5q-21 0 -66 -3t-70 -3q-49 0 -49 29q0 12 47 30q54 20 66 48t14 124v338q0 65 -16 78q-74 61 -74 72z" />
    <glyph glyph-name="s" unicode="s" horiz-adv-x="710" 
d="M401 834q59 0 117 -13q43 -6 74 -22q15 -11 18 -35q8 -58 8 -131q0 -14 -10 -28.5t-20 -14.5q-19 0 -45 49q-35 67 -75.5 100t-94.5 33q-39 0 -71 -32t-32 -72q0 -27 12 -49.5t42 -46t54 -38.5t73 -42q64 -34 105 -66t61 -65t27 -61.5t7 -66.5q0 -124 -129 -206
q-31 -21 -95.5 -36.5t-111.5 -15.5q-55 0 -117 12.5t-89 35.5q-9 11 -24 65.5t-15 101.5q0 21 6.5 34.5t13.5 13.5q22 0 49 -48q47 -79 101 -116t98 -37q45 0 82 26q41 33 41 93q0 61 -82 112q-83 53 -141 88q-63 39 -103.5 98t-40.5 132q0 60 33.5 115.5t95.5 89.5
q77 43 178 43z" />
    <glyph glyph-name="t" unicode="t" horiz-adv-x="677" 
d="M389 805q20 0 72 1.5t97.5 3t47.5 1.5q8 0 19.5 -7t11.5 -16l6 -82v-1q0 -13 -18.5 -19t-34.5 -6h-195q-8 0 -14 -5t-6 -9q0 -49 -1 -200t-1 -214q0 -67 33 -96q17 -15 46 -25t54 -10q34 0 90 29q22 14 35 14q14 0 14 -33q0 -21 -33 -59q-94 -97 -233 -97
q-59 0 -112 25.5t-79 62.5q-21 27 -28.5 57t-7.5 89q0 39 4 224t4 220q0 16 -78 45q-11 4 -18 14.5t-7 20.5q0 11 11 19q163 109 215 163q40 46 47 46q11 0 26 -12.5t15 -22.5v-103q0 -5 6 -11.5t12 -6.5z" />
    <glyph glyph-name="u" unicode="u" horiz-adv-x="1050" 
d="M524 104q64 0 125 50q6 4 13.5 22t7.5 25l2 458q0 12 -9.5 26.5t-25.5 21.5q-5 2 -82 30q-11 3 -22 14.5t-11 22.5q0 6 11.5 13.5t23.5 7.5q142 0 270 26q40 8 50 8q9 0 14.5 -11.5t5.5 -20.5q-3 -49 -6.5 -320t-3.5 -340q0 -5 1.5 -12.5t8 -16t16.5 -8.5q6 1 41.5 8
t51.5 7q6 0 24 -54q2 -3 -7.5 -12.5t-16.5 -9.5q-57 -4 -209 -43q-95 -27 -107 -27q-6 0 -14 9.5t-8 19.5q0 14 4 84q0 5 -2.5 9t-5.5 5.5t-5 -0.5q-104 -76 -143 -90q-68 -31 -131 -31q-137 0 -209 109q-10 14 -16 49.5t-6 59.5q0 261 -7 452q-1 28 -12 46t-22.5 24.5
t-34.5 15.5q-15 7 -26 18.5t-11 24.5q0 8 9.5 15.5t23.5 7.5q25 0 93.5 5.5t127.5 11t61 5.5q5 0 11 -12t6 -19q2 -104 1.5 -193t-2 -212.5t-1.5 -151.5q0 -53 39 -88q51 -39 114 -39z" />
    <glyph glyph-name="v" unicode="v" horiz-adv-x="868" 
d="M-25 791q0 9 18.5 16.5t39.5 7.5q13 0 107 -5t106 -5q30 0 81.5 3t61.5 3q49 0 49 -25q0 -11 -13 -21.5t-36 -16.5q-36 -8 -43 -25.5t6 -44.5q31 -93 85 -218t71 -153q8 -13 16 4q17 30 70.5 164.5t69.5 183.5q12 40 -2.5 60.5t-61.5 34.5q-41 14 -41 32q0 10 14 17.5
t37 7.5q11 0 51.5 -3t61.5 -3t69 5t68 5q19 0 33 -6t14 -16q0 -24 -47 -39q-35 -12 -59.5 -34t-50.5 -65q-63 -122 -166 -370q-60 -148 -101 -269q-7 -22 -25.5 -37.5t-31.5 -15.5q-18 0 -31 37q-32 99 -80 215q-43 110 -107.5 257.5t-94.5 199.5q-11 21 -19.5 33
t-26.5 25.5t-42 21.5q-27 10 -38.5 18.5t-11.5 20.5z" />
    <glyph glyph-name="w" unicode="w" horiz-adv-x="1347" 
d="M227 805q27 0 74.5 3t65.5 3q25 0 38 -8t13 -17q0 -21 -47 -34q-51 -11 -31 -68t82.5 -215.5t75.5 -187.5q10 -14 18 -2q66 135 113 245q6 14 6 35q-11 47 -45 121q-20 33 -34.5 48.5t-41.5 25.5q-45 15 -45 39q0 20 51 20q12 0 72 -4t88 -4q17 0 83 4t91 4q47 0 47 -22
q0 -11 -11 -21t-30 -14q-57 -16 -57 -45q0 -18 16 -58q1 -2 66.5 -165t85.5 -205q6 -13 16 0q14 34 52.5 131.5t50.5 126.5q43 114 43 149q0 44 -84 64q-50 15 -50 34q0 10 15.5 17.5t34.5 7.5q10 0 59 -4t74 -4q34 0 87 5t68 5q45 0 45 -20q0 -25 -59 -39
q-31 -10 -53 -31.5t-47 -65.5q-65 -124 -201 -442q-21 -51 -51.5 -128.5t-30.5 -78.5q-5 -15 -14.5 -27t-16.5 -12q-5 0 -10 1t-10 4t-8.5 5.5t-8 7.5t-6.5 7t-6.5 7.5t-5.5 6.5q-2 5 -23 64t-32 88q-15 35 -55 133.5t-64 153.5q0 2 -3 3t-6.5 0.5t-4.5 -3.5
q-123 -243 -181 -383q-40 -99 -63 -99q-29 0 -39 31q-2 4 -11 29.5t-22.5 63.5t-21.5 59q-13 37 -94.5 231.5t-112.5 255.5q-19 41 -27.5 57t-28.5 33.5t-49 26.5q-49 13 -49 30q0 12 15 20.5t45 8.5q19 0 97 -4t103 -4z" />
    <glyph glyph-name="x" unicode="x" horiz-adv-x="888" 
d="M18 791q0 11 17.5 18.5t40.5 7.5q15 0 94 -6t129 -6q25 0 67 2t58 2q18 0 31.5 -7t13.5 -18q0 -12 -7.5 -19.5t-29.5 -14.5q-16 -7 -24.5 -13.5t-9.5 -11t-1 -12.5q0 -11 37 -74.5t64 -99.5q2 -4 6 -3.5t6 3.5q65 81 100 143q30 46 -18 61q-37 13 -48.5 21.5t-11.5 19.5
q0 10 12.5 17.5t28.5 7.5q11 0 52.5 -2t62.5 -2q29 0 88.5 5t75.5 5q45 0 45 -22q0 -11 -8.5 -18t-30.5 -15q-108 -26 -174 -103q-58 -65 -141 -172q-5 -11 -2 -14q28 -66 182 -309q59 -84 141 -105q51 -12 51 -34q0 -13 -15 -22t-36 -9q-12 0 -117.5 4t-138.5 4
q-21 0 -63.5 -3t-65.5 -3q-17 0 -31 9t-14 20q0 22 45 34q22 6 31 11.5t9 22t-17 44.5q-9 15 -28 49t-35 61t-31 48q-2 3 -7 4t-8 -2q-39 -48 -78 -106.5t-39 -75.5q0 -19 14 -34.5t52 -29.5q11 -3 20 -12t9 -19t-15.5 -16t-29.5 -6q-25 0 -53.5 2t-43.5 2q-39 0 -95 -4
t-79 -4q-63 0 -63 24q0 21 49 37q47 11 78 30t69 56q62 65 172 215q5 8 -2 23q-6 18 -56.5 106t-94.5 158q-34 50 -64.5 74.5t-66.5 34.5q-32 10 -45 18.5t-13 22.5z" />
    <glyph glyph-name="y" unicode="y" horiz-adv-x="872" 
d="M-27 788q0 8 14 16.5t36 8.5q37 0 105 -4t97 -4q35 0 95 2t71 2q16 0 32.5 -7t16.5 -18q0 -23 -49 -39q-40 -12 -46.5 -27t7.5 -54q22 -71 77.5 -206t80.5 -182q3 -5 9.5 -3.5t10.5 10.5q25 60 81 198.5t67 171.5q11 38 -6.5 60t-71.5 37q-19 6 -31 15.5t-12 16.5
q0 27 51 27q21 0 64.5 -2t56.5 -2t63.5 4t79.5 4q43 0 43 -25q0 -21 -49 -36q-31 -9 -55 -32t-51 -69q-70 -146 -232 -549q-39 -98 -119.5 -301.5t-101.5 -255.5q-11 -31 -47.5 -50t-69.5 -19q-52 0 -80 35t-28 77q0 32 25 66.5t67 34.5q5 0 43 -1t51 -1q23 0 37 34
q29 53 90 232q9 30 2 43q-16 27 -35 88q-42 107 -127 307t-124 281q-19 34 -35 48.5t-56 27.5q-47 16 -47 40z" />
    <glyph glyph-name="z" unicode="z" horiz-adv-x="821" 
d="M428 805q86 0 180.5 4t104.5 4q17 0 30 -10q12 -9 2 -29q-8 -12 -102 -160q-31 -46 -146.5 -250.5t-146.5 -257.5q-5 -6 -1.5 -12t9.5 -8q11 -5 81.5 -9.5t129.5 -4.5q33 0 52 26q13 13 48.5 54t59.5 71q31 45 47 45q12 0 17.5 -14.5t3.5 -26.5q-3 -22 -30.5 -100.5
t-33.5 -110.5q-2 -7 -12.5 -17.5t-18.5 -10.5q-3 0 -90 3t-190.5 6t-145.5 3q-40 0 -78 -2t-72.5 -4.5t-49.5 -3.5q-6 0 -15.5 10.5t-9.5 22.5t131 210q27 40 74 121.5t107.5 190t93.5 164.5q3 5 3 12t-5 8q-80 10 -219 10q-14 0 -55 -43t-72 -94q-2 -2 -7 -9.5t-7.5 -10
t-6.5 -7t-8 -6.5t-8 -2q-11 0 -18.5 13t-4.5 28q3 29 17 72q18 62 18 137q0 13 10 21q15 10 27 6q57 -39 112 -39h195z" />
    <glyph glyph-name="braceleft" unicode="{" horiz-adv-x="706" 
d="M78 606q103 23 152 77t49 116q0 39 -26 178.5t-26 161.5q0 63 33 129.5t90 115.5q126 89 250 89q20 0 30.5 -8t10.5 -17q0 -6 -9.5 -18t-15.5 -15q-2 -1 -77 -29q-140 -44 -140 -229q0 -41 27 -155.5t27 -167.5q0 -74 -68.5 -137t-175.5 -107q-9 -4 -9 -10t7 -9
q125 -51 186.5 -118.5t61.5 -165.5q0 -22 -4 -52.5t-10.5 -64t-12 -58t-12.5 -53.5t-8 -32q-17 -67 -17 -117q0 -78 53.5 -133t151.5 -82q11 -2 21 -7.5t10 -9.5q0 -20 -18.5 -31.5t-35.5 -11.5q-169 0 -260.5 92.5t-91.5 243.5q0 39 22.5 161.5t22.5 168.5q0 98 -32 145.5
t-117 73.5q-29 9 -45.5 31.5t-16.5 36.5q0 9 23 18z" />
    <glyph glyph-name="bar" unicode="|" horiz-adv-x="555" 
d="M203 1522h149v-2030h-149v2030z" />
    <glyph glyph-name="braceright" unicode="}" horiz-adv-x="706" 
d="M623 543q-54 -11 -94 -35t-62 -54t-32.5 -60t-10.5 -60q0 -54 23.5 -203t23.5 -166q0 -64 -32.5 -130t-92.5 -116q-114 -84 -246 -84q-17 0 -27 8t-10 17q0 7 8 15t15 12q21 14 80 32q133 43 133 230q0 38 -24.5 159.5t-24.5 188.5q0 87 68.5 156.5t173.5 105.5
q5 2 7.5 5.5t1.5 7t-7 6.5q-127 53 -184.5 115t-57.5 161q0 27 5 63t11 61.5t14 56.5t9 38q16 61 16 115q0 79 -54 136t-153 87q-9 1 -18.5 9.5t-9.5 13.5q0 17 18 28t33 11q168 0 261 -94.5t93 -245.5q0 -40 -18.5 -146t-18.5 -139q0 -98 30 -146t112 -75q30 -11 46.5 -30
t16.5 -32q0 -11 -22 -22z" />
    <glyph glyph-name="asciitilde" unicode="~" horiz-adv-x="1277" 
d="M438 711q54 0 119.5 -37t115 -81t101.5 -81t82 -37q54 0 92.5 44t93.5 171q8 19 23 19q27 0 59 -19t25 -39q-107 -311 -305 -311q-48 0 -98 24t-91.5 59t-81 69.5t-79.5 58.5t-72 24q-99 0 -180 -204q-11 -31 -27 -31q-19 0 -55 17.5t-31 35.5q102 318 309 318z" />
    <glyph glyph-name="uni00A0" unicode="&#xa0;" horiz-adv-x="395" 
 />
    <glyph glyph-name="exclamdown" unicode="&#xa1;" horiz-adv-x="577" 
d="M260 -324q-40 0 -70 23.5t-45 58t-21.5 68t-4.5 59.5q6 69 41 273t59 309q4 24 18.5 46t34.5 22q11 0 25.5 -18.5t19.5 -51.5q5 -28 29 -155t43 -240.5t23 -175.5q8 -101 -41.5 -159.5t-110.5 -58.5zM270 645q-63 0 -106 47t-43 105q0 63 44 110t107 47q61 0 103.5 -43.5
t42.5 -111.5q0 -65 -45.5 -109.5t-102.5 -44.5z" />
    <glyph glyph-name="cent" unicode="&#xa2;" horiz-adv-x="1017" 
d="M342 688q0 -111 48 -196.5t122 -122.5q5 -2 9.5 2t4.5 10l60 612q0 3 -4 8t-7 5q-67 0 -122 -49.5t-83 -122t-28 -146.5zM125 600q0 247 219 391q36 24 106 48.5t130 35.5q16 3 16 12l14 140q0 3 4 8.5t9 5.5q13 0 35 -5.5t22 -10.5l-12 -133q0 -12 10 -15
q120 -6 188 -55q33 -26 33 -59q0 -23 -26.5 -49.5t-51.5 -26.5q-13 0 -25.5 8t-35 28.5t-37.5 32.5q-49 31 -57 33q-4 1 -7.5 -2t-3.5 -8l-59 -623q0 -14 10 -16q27 -6 45 -6q57 0 120.5 28.5t92.5 53.5q6 4 14.5 1t8.5 -11q0 -15 -8.5 -36.5t-20.5 -33.5
q-46 -54 -120 -87.5t-146 -43.5q-5 0 -9.5 -4t-4.5 -8l-15 -156q-3 -4 -24 -10.5t-29 -6.5q-10 0 -15.5 5t-5.5 10l17 155q4 17 -12 17q-97 13 -178.5 61t-125.5 113q-28 43 -46.5 105t-18.5 114z" />
    <glyph glyph-name="sterling" unicode="&#xa3;" horiz-adv-x="1017" 
d="M723 1280q96 0 152 -43.5t59 -110.5q1 -48 -38 -87.5t-79 -39.5q-8 0 -17 6.5t-9 12.5q0 8 1 25t1 20q2 64 -25 113t-66 49q-69 0 -114 -127.5t-76 -403.5q0 -14 14 -14l230 12q19 0 16 -30q0 -12 -7 -26.5t-13 -14.5l-238 -19q-5 -2 -13 -11.5t-9 -15.5
q-25 -108 -63 -180.5t-101 -130.5q-2 -2 -3 -5.5t0.5 -6t6.5 -2.5q35 0 92.5 -14t105.5 -35q27 -13 82 -45.5t94.5 -51t67.5 -18.5q57 0 81 26t26 78q0 47 -13 119q-1 7 6 15t15 8q36 0 63.5 -26.5t24.5 -78.5q-2 -60 -58 -132t-142.5 -123.5t-164.5 -51.5q-44 0 -87.5 20.5
t-74 45.5t-98.5 86q-68 59 -114 59q-9 0 -52 -47q-111 -117 -157 -117q-22 0 -37.5 15.5t-14.5 37.5q0 51 57 113.5t130 97.5q23 10 33 27q44 59 61 315q0 15 -10 15l-121 -6q-5 0 -10 9.5t-4 18.5q0 13 6 26t12 15l123 13q4 0 9 7t5 11q23 195 75.5 319t156.5 203
q34 29 96 52.5t127 23.5z" />
    <glyph glyph-name="currency" unicode="&#xa4;" horiz-adv-x="1017" 
d="M954 963l-106 -121q-4 -12 0 -23q63 -102 63 -221q0 -116 -67 -211q-9 -9 -4 -14l112 -131q9 -6 3.5 -29.5t-25.5 -42.5q-11 -12 -30.5 -18.5t-27.5 0.5l-129 122q-5 5 -20 -2q-97 -65 -182 -65q-101 0 -191 55q-11 5 -24 -2l-113 -115q-18 -18 -61 19q-15 16 -21 34
t-5.5 29t3.5 15l100 110q7 14 0 23q-61 103 -61 221q0 110 63 209q2 2 3 11.5t-3 14.5l-108 130q-8 11 4 35.5t25 35.5q16 16 34 22.5t29 -1.5l107 -115q5 -5 15 -7t15 1q86 53 189 53q100 0 196 -57q13 -7 19 2l106 117q22 22 70 -21q19 -16 24.5 -35.5t-2.5 -27.5z
M541 854q-109 0 -179.5 -73t-70.5 -185t74 -183t176 -71q100 0 175 72t75 182q0 105 -78.5 181.5t-171.5 76.5z" />
    <glyph glyph-name="yen" unicode="&#xa5;" horiz-adv-x="1017" 
d="M0 1239q0 11 16 18t35 7q13 0 83.5 -4.5t98.5 -4.5q32 0 112 2.5t97 2.5q50 0 50 -25q0 -24 -50 -39q-33 -10 -38.5 -25t8.5 -49q7 -15 70.5 -147.5t97.5 -208.5q1 -5 7.5 -4.5t10.5 6.5q39 72 123 256q45 97 45 129q0 30 -68 47q-45 11 -45 37q0 10 16.5 16.5t37.5 6.5
t64.5 -2.5t62.5 -2.5q26 -1 71 4t66 5q49 0 49 -25q0 -13 -15.5 -23t-27.5 -12q-58 -18 -87.5 -47t-72.5 -104q-74 -126 -182 -351q-3 -7 -0.5 -11.5t6.5 -4.5l197 -2q10 0 10 -20q0 -15 -7 -31.5t-14 -16.5h-198q-4 0 -8.5 -4.5t-4.5 -7.5v-121q0 -6 5 -11t10 -5h200
q13 0 13 -25q0 -15 -7 -30t-14 -15h-194q-4 0 -8.5 -8t-4.5 -14v-49q0 -105 4.5 -153.5t15.5 -67.5t36 -29q34 -14 63 -21q39 -10 39 -30q0 -9 -15 -19t-34 -10q-21 0 -97.5 2t-113.5 2q-30 0 -110 -4t-109 -4q-51 0 -51 24q0 28 49 37q60 14 74 43.5t20 130.5q4 55 4 150
q0 5 -4.5 12.5t-9.5 7.5h-195q-12 0 -12 23q0 15 5.5 31t12.5 16h189q6 0 10 5t4 11v111q0 13 -3.5 17.5t-16.5 4.5h-183q-12 0 -12 23q0 14 7 30.5t14 16.5h168q5 0 7.5 9t0.5 14q-87 189 -211 393q-30 48 -49.5 65.5t-63.5 30.5q-20 5 -34.5 16.5t-14.5 24.5z" />
    <glyph glyph-name="brokenbar" unicode="&#xa6;" horiz-adv-x="555" 
d="M203 -354v708h149v-708h-149zM203 1368h149v-709h-149v709z" />
    <glyph glyph-name="section" unicode="&#xa7;" horiz-adv-x="942" 
d="M590 1292q52 0 106 -32q27 -20 27 -48q0 -19 -22.5 -50.5t-36.5 -41.5q-6 -5 -28.5 -5.5t-31.5 3.5q-10 5 -42 25t-57.5 31.5t-45.5 11.5q-47 0 -69.5 -32t-22.5 -69q0 -17 8 -38t25 -45t32 -43.5t42.5 -47.5t41.5 -42.5t43 -42t35 -33.5q110 -105 178 -214t68 -231
q0 -131 -46.5 -245.5t-103.5 -184.5q-68 -87 -132.5 -137.5t-147.5 -81.5q-53 -16 -101 -16q-37 0 -65.5 9.5t-42.5 23t-20.5 25.5t-6.5 21q0 16 31.5 53t70.5 58q6 4 22 1t28 -11q25 -21 69.5 -37t71.5 -16q40 0 66 25t26 75q0 40 -67.5 123t-143.5 149q-140 128 -213 264
q-41 80 -41 203q0 169 142 357q12 55 38.5 98t77.5 88q109 103 238 100zM735 186q0 55 -20 112.5t-57 114t-71.5 99t-82.5 94.5q-19 20 -61.5 63.5t-63 65.5t-50 55.5t-48.5 60.5t-31 52q-2 5 -4 6t-3.5 0t-2.5 -3l-2 -3q-31 -77 -31 -135q0 -170 223 -385
q211 -198 260 -340q0 -5 4 -6q3 0 6 8q35 56 35 141z" />
    <glyph glyph-name="dieresis" unicode="&#xa8;" 
d="M223 1239q46 0 75.5 -38t29.5 -81q0 -50 -37 -81t-80 -31q-41 0 -74 29.5t-33 84.5q0 45 33.5 81t85.5 36zM610 1239q44 0 74.5 -38.5t30.5 -80.5q0 -48 -37.5 -80t-79.5 -32t-75.5 30t-33.5 84q0 45 35.5 81t85.5 36z" />
    <glyph glyph-name="copyright" unicode="&#xa9;" horiz-adv-x="1443" 
d="M723 1294q177 0 324 -87t230 -235t83 -323q0 -170 -82 -318t-229.5 -238.5t-325.5 -90.5q-140 0 -261 52.5t-203 140.5t-128.5 206t-46.5 248t50.5 249.5t136 206t204 138t248.5 51.5zM723 1231q-156 0 -285.5 -76.5t-203.5 -209.5t-74 -294q0 -155 78 -290.5t208 -215
t277 -79.5q153 0 282 79.5t203 214t74 291.5q0 160 -74.5 293.5t-203 210t-281.5 76.5zM768 1018q71 0 129 -14q11 -2 47.5 -10.5t52.5 -10.5q17 -17 19 -49q2 -29 2 -92q0 -19 -7.5 -32t-15.5 -13q-5 0 -9 2.5t-7.5 7.5t-5.5 9t-4.5 11t-3.5 9q-22 56 -75 92.5t-112 36.5
q-68 0 -121 -42t-79.5 -105.5t-26.5 -133.5q0 -69 16.5 -126t42.5 -93t58.5 -61t62.5 -35.5t57 -10.5q115 0 189 121q28 49 49 49q6 0 10 -10t4 -20q-3 -28 -14 -67.5t-22 -59.5q-7 -13 -23.5 -26.5t-26.5 -16.5q-21 -10 -73 -20.5t-117 -10.5q-98 0 -183 35.5t-130 87.5
q-91 104 -91 242q0 88 38.5 156.5t84.5 103.5q60 52 137 74t148 22z" />
    <glyph glyph-name="ordfeminine" unicode="&#xaa;" horiz-adv-x="600" 
d="M315 1096q80 0 127 -53t47 -136q0 -97 -6 -186q-1 -30 14.5 -47t34.5 -17q29 0 50 15q7 5 10 -9l2 -16q0 -17 -12 -35q-54 -65 -133 -65q-34 0 -64 16.5t-43 46.5q-8 12 -16 6q-37 -26 -81 -47.5t-71 -21.5q-45 0 -84 39.5t-39 95.5q0 74 86 106q7 3 40.5 14t78 25.5
t68.5 22.5q10 3 14 18q2 14 2 60q0 42 -27 69t-63 27q-27 0 -47 -10q-3 -2 -5.5 -6.5t-4 -12.5t-2 -14.5t-1.5 -20t-2 -22.5q0 -4 -14 -14q-3 -1 -44 -17.5t-52 -19.5q-9 -2 -18 3.5t-9 16.5q0 22 28.5 59.5t67.5 63.5q36 26 84 46t84 20zM205 707q0 -25 19 -44.5t44 -19.5
q22 0 49 19q15 12 15 24q2 12 2 100q0 18 -15 11q-61 -18 -87.5 -39.5t-26.5 -50.5z" />
    <glyph glyph-name="guillemotleft" unicode="&#xab;" horiz-adv-x="1402" 
d="M211 367q-16 8 -18.5 26.5t6.5 22.5q128 70 258.5 159.5t199.5 145.5q55 47 80 47q8 0 12.5 -7t2.5 -20.5t-13 -29.5q-15 -23 -42 -53.5t-65.5 -67t-65.5 -61.5t-69.5 -62.5t-50.5 -44.5q-21 -18 -6 -33q222 -204 293 -307q5 -6 9 -16.5t5.5 -21.5t-3 -18.5t-15.5 -7.5
q-27 0 -51 21q-187 169 -467 328zM672 367q-16 10 -19 27.5t6 21.5q132 75 261.5 163t195.5 142q55 47 80 47q8 0 12.5 -7t2.5 -20.5t-13 -29.5q-35 -53 -127 -141t-168 -152q-16 -13 -4 -29q225 -197 295 -309q10 -13 9.5 -37t-13.5 -25q-21 0 -47 21q-84 74 -215.5 165.5
t-255.5 162.5z" />
    <glyph glyph-name="logicalnot" unicode="&#xac;" horiz-adv-x="1277" 
d="M154 715h942q11 0 17.5 -13.5t6.5 -29.5l-2 -570q0 -14 -37.5 -23t-68.5 -9q-9 0 -17 6.5t-8 17.5l-4 447q0 24 -10 37.5t-25 13.5h-782q-29 0 -36 5t-7 26q0 25 10 58.5t21 33.5z" />
    <glyph glyph-name="uni00AD" unicode="&#xad;" horiz-adv-x="636" 
d="M121 479q48 9 212 27t202 20q8 0 16 -7.5t8 -14.5q2 -39 -11.5 -84.5t-33.5 -46.5q-221 -17 -401 -35q-12 -1 -22.5 11t-10.5 22q0 33 13 69t28 39z" />
    <glyph glyph-name="registered" unicode="&#xae;" horiz-adv-x="495" 
d="M199 1032v107q0 21 -4.5 27.5t-18.5 11.5q-11 5 -13.5 9.5t1.5 7t10 3.5q64 6 102 6q42 0 67.5 -17t25.5 -46q0 -8 -2.5 -14.5t-6 -11t-8.5 -8t-8.5 -5.5t-8 -4t-5.5 -2q-4 -4 -2 -9q44 -79 67 -94q15 -7 15 -12q0 -3 -9 -6.5t-22 -3.5q-39 0 -57 30q-15 23 -37 62
q-3 8 -19 8q-10 0 -12 -1.5t-2 -6.5v-23q0 -24 4.5 -30t28.5 -15q7 -3 9 -7.5t-0.5 -7.5t-8.5 -3h-58h-53q-8 0 -10.5 6.5t6.5 9.5q16 6 22.5 14.5t6.5 24.5zM252 1169v-63q0 -6 2 -7t16 -1q22 0 30.5 9t8.5 28t-9.5 32t-27.5 13q-20 0 -20 -11zM272 1319q99 0 165.5 -67.5
t66.5 -166.5q0 -90 -64 -163.5t-172 -73.5q-98 0 -163.5 68.5t-65.5 168.5q0 94 67 164t166 70zM272 1280q-80 2 -134 -54t-54 -141q0 -83 54 -138.5t134 -55.5q81 0 134 55t53 139q0 83 -56 139t-131 56z" />
    <glyph glyph-name="macron" unicode="&#xaf;" 
d="M201 1169l434 7q6 0 10 -17.5t4 -34.5q0 -30 -13.5 -57t-23.5 -27l-424 -2q-4 0 -10 11.5t-6 23.5q0 21 6 44.5t13 37.5t10 14z" />
    <glyph glyph-name="degree" unicode="&#xb0;" horiz-adv-x="602" 
d="M307 1303q97 0 166.5 -67.5t69.5 -176.5q0 -107 -72.5 -175.5t-171.5 -68.5t-170.5 66t-71.5 178q0 106 75.5 175t174.5 69zM295 1223q-58 0 -96.5 -49t-38.5 -115q0 -74 43.5 -119t109.5 -45q54 0 90.5 45.5t36.5 118.5q0 69 -40 116.5t-105 47.5z" />
    <glyph glyph-name="plusminus" unicode="&#xb1;" horiz-adv-x="1277" 
d="M571 1116q0 11 39.5 21t65.5 10q22 0 26.5 -6.5t4.5 -34.5v-379q0 -10 5 -17.5t13 -7.5h397q20 0 25.5 -5t5.5 -19q0 -37 -9.5 -67.5t-19.5 -30.5l-397 -2q-9 0 -14.5 -8.5t-5.5 -18.5l-2 -381q0 -22 -36 -32.5t-71 -10.5q-12 0 -18.5 6t-6.5 25l-2 385q0 35 -22 35
l-397 2q-29 0 -29 30q0 25 10 58.5t21 33.5h401q6 0 11 7.5t5 15.5v391zM1122 20q20 0 25.5 -5t5.5 -19q0 -37 -9.5 -67.5t-19.5 -30.5h-958q-29 0 -36 4.5t-7 25.5q0 25 10 58.5t21 33.5h968z" />
    <glyph glyph-name="two.superior" unicode="&#xb2;" horiz-adv-x="636" 
d="M303 1567q95 0 156 -57t61 -150q0 -72 -100 -180q-28 -31 -56.5 -57.5t-62 -55t-53.5 -47.5q-6 -8 -2.5 -12t8.5 -4q15 0 75.5 -0.5t103 -0.5t46.5 1q27 0 72 59q19 24 31 24q13 0 19 -18.5t-1 -32.5q-18 -36 -35.5 -92.5t-21.5 -75.5q-5 -12 -19 -12l-43 1q-43 1 -94 2
t-103.5 1.5t-72.5 -0.5h-119q-9 0 -23 11.5t-14 17.5q0 15 17 29q104 93 192 196q78 90 78 195q0 58 -31.5 91.5t-81.5 33.5q-74 0 -125 -54q-20 -20 -38 -20q-6 0 -11.5 8t-5.5 18q0 24 23 50q45 60 106.5 95.5t124.5 35.5z" />
    <glyph glyph-name="three.superior" unicode="&#xb3;" horiz-adv-x="636" 
d="M315 1569q83 0 134 -45.5t51 -98.5q0 -25 -9.5 -46t-29.5 -38.5t-36.5 -28.5t-45.5 -28q-3 -1 -2.5 -6t4.5 -6q83 -11 130.5 -50t47.5 -108q0 -80 -57.5 -144t-153.5 -104q-75 -37 -162 -37q-43 0 -83 24t-40 52q0 24 16 45.5t40 30.5q13 5 26 -8q86 -68 148 -68
q41 0 69.5 40t28.5 93q0 62 -33 104t-94 42q-9 0 -36 -6t-35 -7q-7 -2 -14 0.5t-7 8.5q0 18 4 26q16 24 53 41q63 27 87 50.5t24 70.5q0 37 -27 65.5t-65 28.5q-55 0 -111 -53q-9 -11 -17.5 -15.5t-13.5 -3.5t-6 5q-4 4 -8 16.5t-2 15.5q29 53 89.5 97.5t135.5 44.5z" />
    <glyph glyph-name="acute" unicode="&#xb4;" 
d="M504 1298q5 13 23 25t36 12q84 0 88 -30q5 -27 -14 -58q-30 -55 -102 -161t-105 -144q-33 -33 -55 -33q-13 0 -15 18t7 46q18 54 65 165t72 160z" />
    <glyph glyph-name="mu" unicode="&#xb5;" horiz-adv-x="993" 
d="M213 844q30 0 68.5 -13.5t64.5 -29.5q8 -5 14.5 -31t6.5 -37q0 -14 -8 -49t-25 -99t-21 -81q-36 -145 -55 -213q-9 -42 2 -72q7 -23 30.5 -39t47.5 -16q64 0 144 84t120 184q12 36 16 72q22 258 25 276q3 22 15 44t22 22q49 0 96.5 -20t65.5 -38q20 -20 14 -92
q-8 -70 -56 -197t-85 -192q-8 -15 -8.5 -24t2.5 -19q1 -37 23 -60t45.5 -29.5t47.5 -6.5q72 0 150 59q6 12 18 0q9 -8 11 -22q3 -10 -5 -56t-18 -65q-67 -125 -168 -125q-70 0 -108 54t-48 173q0 5 -7.5 6.5t-10.5 -4.5q-79 -122 -134 -170.5t-114 -48.5q-29 0 -57.5 16.5
t-50 43t-33.5 44.5t-21 36q-9 21 -15 -15l-3 -22q-13 -207 4 -285q13 -60 69 -120t89 -77q5 -10 3 -26t-5 -25q-7 -13 -30.5 -36.5t-43.5 -34.5q-35 -21 -74 -21q-22 0 -39 14.5t-37 46.5q-5 9 -9 21t-6 29t-3.5 32.5t-1.5 41v42v48.5v49q0 109 12 415q0 31 -2 105
q-2 25 -4.5 228t0.5 269q5 35 27 46q20 10 53 10z" />
    <glyph glyph-name="paragraph" unicode="&#xb6;" horiz-adv-x="1136" 
d="M965 1268h73q18 0 27.5 -17.5t9.5 -29.5q0 -11 -7.5 -22t-14.5 -11h-215q-8 0 -15.5 -21t-7.5 -45q0 -271 0.5 -549.5t1 -448t0.5 -175.5q0 -71 -5.5 -130.5t-24 -128t-49.5 -115.5t-87 -78.5t-131 -31.5q-87 0 -150 56t-63 143q0 86 50.5 135t121.5 49q41 0 73 -30.5
t32 -65.5q0 -46 -29.5 -78t-48.5 -32q-32 0 -51 12q-17 14 -29 14q-8 0 -15.5 -7.5t-7.5 -20.5q0 -50 40.5 -79.5t93.5 -29.5q98 0 146 93t50 255q3 258 -6 340q-2 9 -8 17t-12 8q-127 1 -235.5 32t-194 91.5t-134.5 159t-49 225.5q0 110 36.5 192t113.5 160
q61 61 157.5 99.5t173.5 47.5q259 17 390 17z" />
    <glyph glyph-name="periodcentered" unicode="&#xb7;" horiz-adv-x="491" 
d="M252 545q70 0 107.5 -54t37.5 -104q-3 -69 -47 -108t-102 -39q-56 0 -101 38t-45 115q0 40 16.5 71.5t41.5 48t48.5 24.5t43.5 8z" />
    <glyph glyph-name="cedilla" unicode="&#xb8;" 
d="M569 -287q0 -47 -39 -96t-84 -80q-52 -35 -81.5 -48t-57.5 -13q-27 0 -45 26q-8 13 -5 35.5t13 34.5q11 16 31 16q57 -10 74 -10q33 0 52 22.5t19 53.5q0 41 -36 66.5t-84 25.5q-19 0 -31 -2q-9 0 -24 16.5t-15 24.5q0 9 16 27q44 46 168 198h70q-57 -72 -76 -100
q-6 -11 -4 -16t14 -13q125 -61 125 -168z" />
    <glyph glyph-name="one.superior" unicode="&#xb9;" horiz-adv-x="636" 
d="M424 1552q0 -3 -0.5 -21.5t-1.5 -57t-2 -82.5q-2 -127 2 -373q0 -53 13.5 -69t70.5 -34q39 -9 39 -32q0 -11 -12 -19t-33 -8q-6 0 -77 2t-97 2q-35 0 -71.5 -1t-60 -2t-28.5 -1q-23 0 -40 8t-17 21q0 27 57 37q42 8 56.5 24.5t17.5 48.5q8 57 8 260q0 92 -4 150
q0 8 -6.5 19t-14.5 14q-11 4 -29.5 9t-25.5 7q-45 9 -45 31q0 19 43 24q60 4 131 23t106 35q7 4 14 -1.5t7 -13.5z" />
    <glyph glyph-name="ordmasculine" unicode="&#xba;" horiz-adv-x="686" 
d="M340 1096q133 0 215 -79t82 -196q0 -111 -82 -192.5t-213 -81.5q-126 0 -209.5 79.5t-83.5 194.5q0 117 87 196t204 79zM332 1042q-54 0 -80.5 -63t-26.5 -141q0 -95 38 -164.5t95 -69.5q31 0 53 21t32 56t14 67t4 67q0 88 -38.5 157.5t-90.5 69.5z" />
    <glyph glyph-name="guillemotright" unicode="&#xbb;" horiz-adv-x="1402" 
d="M1192 418q16 -8 18.5 -25.5t-6.5 -21.5q-127 -72 -260 -163t-199 -145q-52 -45 -79 -45q-8 0 -12 7t-1.5 20t13.5 29q53 86 292 288q19 19 5 33q-74 69 -110 103.5t-95 98.5t-88 108q-5 7 -8.5 17t-5 20.5t3 17.5t16.5 8q7 0 22.5 -6.5t26.5 -16.5q184 -166 467 -327z
M731 418q17 -10 20 -26.5t-6 -20.5q-133 -76 -263 -165t-195 -143q-52 -45 -80 -45q-8 0 -12.5 6.5t-2.5 20t13 29.5q58 87 295 293q17 15 4 28q-234 214 -297 312q-10 13 -8.5 35.5t14.5 25.5q21 0 47 -23q88 -75 219.5 -166.5t251.5 -160.5z" />
    <glyph glyph-name="onequarter" unicode="&#xbc;" horiz-adv-x="1380" 
d="M424 1255q0 -3 -0.5 -21.5t-1.5 -57t-2 -82.5q-2 -127 2 -373q0 -53 13.5 -69t70.5 -34q39 -9 39 -32q0 -11 -12 -19t-33 -8q-6 0 -77 2t-97 2q-35 0 -71.5 -1t-60 -2t-28.5 -1q-23 0 -40 8t-17 21q0 27 57 37q42 8 56.5 24.5t17.5 48.5q8 57 8 260q0 92 -4 150
q0 8 -6.5 19t-14.5 14q-11 5 -29.5 9.5t-25.5 6.5q-45 9 -45 31q0 19 43 24q60 4 131 23t106 35q7 4 14 -1.5t7 -13.5zM1180 1307q18 0 32.5 -17t6.5 -26q-593 -920 -861 -1323q-2 -5 -10 -8t-18 1q-16 9 -23.5 27.5t0.5 30.5q170 257 482.5 743.5t351.5 546.5q17 25 39 25z
M1221 711q6 0 12 -8.5t6 -18.5q0 -1 1 -81t2 -173.5t1 -128.5q0 -14 12 -14h107q10 0 10 -19q0 -18 -6 -40t-14 -23h-99q-8 0 -8 -15q0 -6 1.5 -79.5t0.5 -100.5q0 -24 -18 -30q-6 -3 -68.5 -7t-73.5 -4q-7 0 -12.5 7.5t-5.5 21.5q0 118 4 192q0 15 -10 15q-229 0 -283 -4
q-6 0 -13 9.5t-7 18.5q0 6 37 52q3 4 71.5 84.5t133 157t90.5 110.5q16 22 60 50t69 28zM1075 295q0 15 4 98t4 135q0 4 -5 4t-7 -2q-11 -13 -50 -60.5t-74.5 -92t-59.5 -78.5q-3 -3 0.5 -7.5t9.5 -4.5l162 -2q16 3 16 10z" />
    <glyph glyph-name="onehalf" unicode="&#xbd;" horiz-adv-x="1437" 
d="M424 1255q0 -3 -0.5 -21.5t-1.5 -57t-2 -82.5q-2 -127 2 -373q0 -53 13.5 -69t70.5 -34q39 -9 39 -32q0 -11 -12 -19t-33 -8q-6 0 -77 2t-97 2q-35 0 -71.5 -1t-60 -2t-28.5 -1q-23 0 -40 8t-17 21q0 27 57 37q42 8 56.5 24.5t17.5 48.5q8 57 8 260q0 92 -4 150
q0 8 -6.5 19t-14.5 14q-11 5 -29.5 9.5t-25.5 6.5q-45 9 -45 31q0 19 43 24q60 4 131 23t106 35q7 4 14 -1.5t7 -13.5zM1147 1307q18 0 32.5 -17t6.5 -26q-623 -967 -860 -1323q-2 -5 -10.5 -8t-18.5 1q-16 9 -23.5 27.5t0.5 30.5q170 257 482.5 743.5t351.5 546.5
q17 25 39 25zM1104 707q95 0 156 -57t61 -150q0 -73 -100 -181q-28 -31 -56.5 -57.5t-62 -54.5t-53.5 -47q-6 -8 -2.5 -12.5t8.5 -4.5h225q26 0 72 60q19 24 30 24q13 0 19.5 -18.5t-0.5 -32.5q-19 -36 -36.5 -93t-21.5 -75q-5 -12 -18 -12l-43 1q-43 1 -94 2t-103.5 1.5
t-72.5 -0.5h-119q-9 0 -23 11.5t-14 17.5q0 15 16 28q105 93 193 197q78 90 78 195q0 58 -31.5 91t-81.5 33q-75 0 -125 -53q-20 -20 -39 -20q-6 0 -11 8t-5 18q0 25 22 49q45 60 107 96t125 36z" />
    <glyph glyph-name="threequarters" unicode="&#xbe;" horiz-adv-x="1308" 
d="M315 1272q83 0 134 -45.5t51 -98.5q0 -25 -9.5 -46t-29.5 -38.5t-36.5 -28.5t-45.5 -28q-3 -1 -2.5 -6t4.5 -6q83 -11 130.5 -50t47.5 -108q0 -80 -57.5 -144t-153.5 -104q-75 -37 -162 -37q-43 0 -83 24t-40 52q0 24 16 45.5t40 30.5q13 5 26 -8q86 -68 148 -68
q41 0 69.5 40t28.5 93q0 62 -33 104t-94 42q-9 0 -36 -6t-35 -7q-7 -2 -14 0.5t-7 8.5q0 18 4 26q16 24 53 41q63 27 87 50.5t24 70.5q0 37 -27 65.5t-65 28.5q-55 0 -111 -53q-9 -11 -17.5 -15.5t-13.5 -3.5t-6 5q-4 4 -8 16.5t-2 15.5q29 53 89.5 97.5t135.5 44.5z
M1118 1307q18 0 32.5 -17t6.5 -26q-623 -967 -860 -1323q-2 -5 -10.5 -8t-18.5 1q-16 9 -23 27.5t1 30.5q169 256 478.5 738.5t354.5 551.5q17 25 39 25zM1149 711q6 0 12 -8.5t6 -18.5q0 -1 1 -81t2 -173.5t1 -128.5q0 -14 13 -14h106q10 0 10 -19q0 -18 -6 -40t-14 -23
h-98q-8 0 -8 -15q0 -6 1.5 -79.5t0.5 -100.5q0 -24 -19 -30q-6 -3 -68 -7t-73 -4q-7 0 -13 7.5t-6 21.5q0 118 4 192q0 15 -10 15q-228 0 -282 -4q-6 0 -13.5 9.5t-7.5 18.5q0 6 37 52q3 4 71.5 84.5t133 157t90.5 110.5q16 22 60 50t69 28zM1004 295q0 15 4 98t4 135
q0 4 -5.5 4t-7.5 -2q-11 -13 -50 -60.5t-74.5 -92t-59.5 -78.5q-3 -3 0.5 -7.5t9.5 -4.5l162 -2q17 3 17 10z" />
    <glyph glyph-name="questiondown" unicode="&#xbf;" horiz-adv-x="727" 
d="M487 -315q-106 0 -233 96q-13 10 -35.5 34.5t-55 66t-55 96t-22.5 104.5q0 150 84 223q28 21 103 61.5t83 45.5q29 17 39.5 37t14.5 51q1 23 19.5 36t31.5 13q15 0 37 -86q2 -11 9.5 -43.5t12 -59t4.5 -49.5q0 -61 -55.5 -108.5t-179.5 -102.5q-48 -21 -68 -41t-20 -51
q0 -57 29.5 -83.5t99.5 -26.5q10 0 72 11t83 11q27 0 61 -47.5t34 -95.5q0 -34 -29.5 -63t-63.5 -29zM397 649q-66 0 -105.5 44.5t-39.5 103.5q0 65 43 110t106 45q62 0 104 -43t42 -110q0 -65 -46 -107.5t-104 -42.5z" />
    <glyph glyph-name="Agrave" unicode="&#xc0;" horiz-adv-x="1386" 
d="M729 1331q9 0 16.5 -8.5t18.5 -36.5q20 -53 82 -229q196 -548 293 -791q47 -115 84 -152.5t98 -54.5q53 -15 53 -36q0 -12 -17 -21.5t-50 -9.5q-24 0 -130 4t-139 4q-36 0 -105.5 -2t-94.5 -2q-30 0 -48 8.5t-18 22.5q0 9 13 19t40 15q39 9 59 24.5t22.5 28.5t0.5 33
q-1 9 -2.5 19.5t-5.5 25t-7.5 26.5t-10 33t-11 33.5t-13.5 38.5t-13.5 38t-15.5 42.5t-15 42.5q-2 8 -17 19.5t-32 11.5q-227 2 -344 -6q-10 0 -23 -20q-88 -219 -88 -297q0 -33 21.5 -55t75.5 -36q59 -14 59 -40q0 -12 -18.5 -19.5t-43.5 -7.5q-14 0 -67 2t-96 2
q-46 0 -120 -4t-83 -4q-60 0 -60 24q0 26 52 41q40 11 64.5 23t45.5 35t36 48.5t40 76.5q27 54 174 427t182 457q11 22 11 37q0 14 4 17q22 22 59 66t47 61q17 26 37 26zM760 575q2 0 5.5 6t2.5 11q-24 73 -76.5 217.5t-73.5 194.5q-2 7 -6 8t-8.5 -3t-7.5 -12
q-136 -360 -147 -405q-1 -7 3.5 -14t10.5 -7q160 4 297 4zM459 1690q20 0 86 -52q168 -136 231 -194q11 -7 21.5 -23.5t3.5 -23.5q-15 -13 -38.5 -11.5t-41.5 9.5q-254 109 -322 151q-43 27 -43 51q0 18 54 64q9 11 24.5 20t24.5 9z" />
    <glyph glyph-name="Aacute" unicode="&#xc1;" horiz-adv-x="1386" 
d="M729 1331q9 0 16.5 -8.5t18.5 -36.5q20 -53 82 -229q196 -548 293 -791q47 -115 84 -152.5t98 -54.5q53 -15 53 -36q0 -12 -17 -21.5t-50 -9.5q-24 0 -130 4t-139 4q-36 0 -105.5 -2t-94.5 -2q-30 0 -48 8.5t-18 22.5q0 9 13 19t40 15q39 9 59 24.5t22.5 28.5t0.5 33
q-1 9 -2.5 19.5t-5.5 25t-7.5 26.5t-10 33t-11 33.5t-13.5 38.5t-13.5 38t-15.5 42.5t-15 42.5q-2 8 -17 19.5t-32 11.5q-227 2 -344 -6q-10 0 -23 -20q-88 -219 -88 -297q0 -33 21.5 -55t75.5 -36q59 -14 59 -40q0 -12 -18.5 -19.5t-43.5 -7.5q-14 0 -67 2t-96 2
q-46 0 -120 -4t-83 -4q-60 0 -60 24q0 26 52 41q40 11 64.5 23t45.5 35t36 48.5t40 76.5q27 54 174 427t182 457q11 22 11 37q0 14 4 17q22 22 59 66t47 61q17 26 37 26zM760 575q2 0 5.5 6t2.5 11q-24 73 -76.5 217.5t-73.5 194.5q-2 7 -6 8t-8.5 -3t-7.5 -12
q-136 -360 -147 -405q-1 -7 3.5 -14t10.5 -7q160 4 297 4zM887 1655q12 10 34.5 13t30.5 -1q29 -13 56.5 -37.5t27.5 -42.5q0 -12 -15 -28.5t-32 -24.5q-205 -98 -330 -141q-50 -17 -69 2q-3 3 -1.5 11.5t8.5 20.5t17 21q70 65 273 207z" />
    <glyph glyph-name="Acircumflex" unicode="&#xc2;" horiz-adv-x="1386" 
d="M729 1331q9 0 16.5 -8.5t18.5 -36.5q20 -53 82 -229q196 -548 293 -791q47 -115 84 -152.5t98 -54.5q53 -15 53 -36q0 -12 -17 -21.5t-50 -9.5q-24 0 -130 4t-139 4q-36 0 -105.5 -2t-94.5 -2q-30 0 -48 8.5t-18 22.5q0 9 13 19t40 15q39 9 59 24.5t22.5 28.5t0.5 33
q-1 9 -2.5 19.5t-5.5 25t-7.5 26.5t-10 33t-11 33.5t-13.5 38.5t-13.5 38t-15.5 42.5t-15 42.5q-2 8 -17 19.5t-32 11.5q-227 2 -344 -6q-10 0 -23 -20q-88 -219 -88 -297q0 -33 21.5 -55t75.5 -36q59 -14 59 -40q0 -12 -18.5 -19.5t-43.5 -7.5q-14 0 -67 2t-96 2
q-46 0 -120 -4t-83 -4q-60 0 -60 24q0 26 52 41q40 11 64.5 23t45.5 35t36 48.5t40 76.5q27 54 174 427t182 457q11 22 11 37q0 14 4 17q22 22 59 66t47 61q17 26 37 26zM760 575q2 0 5.5 6t2.5 11q-24 73 -76.5 217.5t-73.5 194.5q-2 7 -6 8t-8.5 -3t-7.5 -12
q-136 -360 -147 -405q-1 -7 3.5 -14t10.5 -7q160 4 297 4zM707 1638q23 0 84 -51q78 -78 176 -164q6 -4 12 -13.5t10 -19.5t-1 -18t-21 -8q-24 0 -66 18q-71 34 -184 97q-20 8 -37 -2q-23 -13 -89.5 -44t-96.5 -47q-35 -20 -62 -20q-20 0 -17 20q4 20 34 48q116 102 176 155
q56 49 82 49z" />
    <glyph glyph-name="Atilde" unicode="&#xc3;" horiz-adv-x="1386" 
d="M729 1331q9 0 16.5 -8.5t18.5 -36.5q20 -53 82 -229q196 -548 293 -791q47 -115 84 -152.5t98 -54.5q53 -15 53 -36q0 -12 -17 -21.5t-50 -9.5q-24 0 -130 4t-139 4q-36 0 -105.5 -2t-94.5 -2q-30 0 -48 8.5t-18 22.5q0 9 13 19t40 15q39 9 59 24.5t22.5 28.5t0.5 33
q-1 9 -2.5 19.5t-5.5 25t-7.5 26.5t-10 33t-11 33.5t-13.5 38.5t-13.5 38t-15.5 42.5t-15 42.5q-2 8 -17 19.5t-32 11.5q-227 2 -344 -6q-10 0 -23 -20q-88 -219 -88 -297q0 -33 21.5 -55t75.5 -36q59 -14 59 -40q0 -12 -18.5 -19.5t-43.5 -7.5q-14 0 -67 2t-96 2
q-46 0 -120 -4t-83 -4q-60 0 -60 24q0 26 52 41q40 11 64.5 23t45.5 35t36 48.5t40 76.5q27 54 174 427t182 457q11 22 11 37q0 14 4 17q22 22 59 66t47 61q17 26 37 26zM760 575q2 0 5.5 6t2.5 11q-24 73 -76.5 217.5t-73.5 194.5q-2 7 -6 8t-8.5 -3t-7.5 -12
q-136 -360 -147 -405q-1 -7 3.5 -14t10.5 -7q160 4 297 4zM438 1444q15 25 44 61t46 51q21 21 54 21q40 0 157.5 -5t143.5 -3q25 3 42 17t40 48q11 15 20 15q14 0 33 -31q7 -16 -12 -35q-10 -10 -57 -67t-62 -70q-8 -6 -13 -9.5t-9 -5t-5.5 -2t-6 0t-5.5 0.5q-22 0 -101 5.5
t-130 8t-82 -1.5q-29 -6 -70 -64q-13 -16 -19 -16q-15 0 -24.5 9t-9.5 15q0 12 26 58z" />
    <glyph glyph-name="Adieresis" unicode="&#xc4;" horiz-adv-x="1386" 
d="M729 1331q9 0 16.5 -8.5t18.5 -36.5q20 -53 82 -229q196 -548 293 -791q47 -115 84 -152.5t98 -54.5q53 -15 53 -36q0 -12 -17 -21.5t-50 -9.5q-24 0 -130 4t-139 4q-36 0 -105.5 -2t-94.5 -2q-30 0 -48 8.5t-18 22.5q0 9 13 19t40 15q39 9 59 24.5t22.5 28.5t0.5 33
q-1 9 -2.5 19.5t-5.5 25t-7.5 26.5t-10 33t-11 33.5t-13.5 38.5t-13.5 38t-15.5 42.5t-15 42.5q-2 8 -17 19.5t-32 11.5q-227 2 -344 -6q-10 0 -23 -20q-88 -219 -88 -297q0 -33 21.5 -55t75.5 -36q59 -14 59 -40q0 -12 -18.5 -19.5t-43.5 -7.5q-14 0 -67 2t-96 2
q-46 0 -120 -4t-83 -4q-60 0 -60 24q0 26 52 41q40 11 64.5 23t45.5 35t36 48.5t40 76.5q27 54 174 427t182 457q11 22 11 37q0 14 4 17q22 22 59 66t47 61q17 26 37 26zM760 575q2 0 5.5 6t2.5 11q-24 73 -76.5 217.5t-73.5 194.5q-2 7 -6 8t-8.5 -3t-7.5 -12
q-136 -360 -147 -405q-1 -7 3.5 -14t10.5 -7q160 4 297 4zM506 1624q44 0 72 -38t28 -83q0 -47 -36 -77.5t-78 -30.5q-38 0 -70.5 29.5t-32.5 84.5q0 42 35.5 78.5t81.5 36.5zM928 1624q44 0 72 -38.5t28 -82.5q0 -45 -36.5 -76.5t-76.5 -31.5t-72 29.5t-32 82.5
q0 45 34.5 81t82.5 36z" />
    <glyph glyph-name="Aring" unicode="&#xc5;" horiz-adv-x="1386" 
d="M729 1331q9 0 16.5 -8.5t18.5 -36.5q20 -53 82 -229q196 -548 293 -791q47 -115 84 -152.5t98 -54.5q53 -15 53 -36q0 -12 -17 -21.5t-50 -9.5q-24 0 -130 4t-139 4q-36 0 -105.5 -2t-94.5 -2q-30 0 -48 8.5t-18 22.5q0 9 13 19t40 15q39 9 59 24.5t22.5 28.5t0.5 33
q-1 9 -2.5 19.5t-5.5 25t-7.5 26.5t-10 33t-11 33.5t-13.5 38.5t-13.5 38t-15.5 42.5t-15 42.5q-2 8 -17 19.5t-32 11.5q-227 2 -344 -6q-10 0 -23 -20q-88 -219 -88 -297q0 -33 21.5 -55t75.5 -36q59 -14 59 -40q0 -12 -18.5 -19.5t-43.5 -7.5q-14 0 -67 2t-96 2
q-46 0 -120 -4t-83 -4q-60 0 -60 24q0 26 52 41q40 11 64.5 23t45.5 35t36 48.5t40 76.5q27 54 174 427t182 457q11 22 11 37q0 14 4 17q22 22 59 66t47 61q17 26 37 26zM760 575q2 0 5.5 6t2.5 11q-24 73 -76.5 217.5t-73.5 194.5q-2 7 -6 8t-8.5 -3t-7.5 -12
q-136 -360 -147 -405q-1 -7 3.5 -14t10.5 -7q160 4 297 4zM698 1690q72 0 119 -49t47 -117q0 -66 -47 -115t-119 -49t-119 49t-47 115q0 68 47 117t119 49zM698 1622q-35 0 -59.5 -28.5t-24.5 -69.5q0 -44 24.5 -70.5t59.5 -26.5q38 0 61 26t23 75q0 39 -24 66.5t-60 27.5z
" />
    <glyph glyph-name="AE" unicode="&#xc6;" horiz-adv-x="1871" 
d="M1006 1296h464q28 0 56.5 2t50 4t39 4.5t28 4.5t11.5 2q7 0 17.5 -13t10.5 -24q0 -5 14 -104.5t15 -122.5q0 -14 -9.5 -31t-19.5 -17q-24 0 -45 54q-64 144 -129 153q-67 11 -276 11q-33 0 -33 -31q-6 -87 -6 -490q0 -39 16 -39q173 0 246 15q43 9 72 96q9 23 23 37
t26 14q10 0 16.5 -15.5t3.5 -37.5q-19 -116 -6 -322q0 -17 -8.5 -31t-17.5 -14q-27 0 -45 48q-22 68 -34 84q-24 32 -89 32q-14 0 -70 1t-108 1q-8 0 -15 -5.5t-8 -14.5v-342q1 -71 26 -96.5t72 -28.5h242q36 1 66 13.5t56.5 40t45 53t47.5 71.5q27 53 55 53
q11 0 18.5 -19.5t4.5 -47.5q-5 -37 -33.5 -119.5t-36.5 -99.5q-18 -33 -65 -33q-12 0 -240 4t-309 4q-25 0 -172.5 -4t-175.5 -4q-56 0 -56 28q0 12 20 23.5t48 17.5q77 16 101 42.5t32 89.5q8 71 8 352q0 6 -5 12t-11 6q-252 0 -342 -4q-4 0 -19 -11t-20 -20
q-197 -349 -197 -397q0 -19 25 -37.5t70 -30.5q21 -5 34 -17t13 -19q0 -13 -14.5 -23t-39.5 -10q-20 0 -88 3t-114 3q-32 0 -117.5 -5t-97.5 -5q-13 0 -29 10.5t-16 19.5q0 12 18.5 24.5t48.5 18.5q77 14 126 52t110 133q38 56 166.5 271.5t256.5 433t134 227.5
q12 25 -13 32q-13 3 -69.5 13t-75.5 16q-39 9 -39 31q0 11 17 19.5t47 8.5q35 0 144 -2t153 -2zM954 1167q0 28 -17 16q-12 -10 -26 -32q-193 -317 -272 -471q-5 -11 2 -18t16 -7h275q18 0 18 33q0 3 2 227t2 252z" />
    <glyph glyph-name="Ccedilla" unicode="&#xc7;" horiz-adv-x="1454" 
d="M872 1331q131 0 267 -33q96 -23 147 -30q11 0 21 -17t10 -39q3 -84 10 -188q2 -33 -8 -55.5t-27 -22.5q-8 0 -20 16.5t-19 38.5q-33 105 -86 146q-142 119 -303 119q-119 0 -212 -45t-150.5 -124t-87 -180.5t-29.5 -220.5q0 -198 72 -342q80 -160 200 -234.5t256 -74.5
q32 0 93.5 13t109.5 40q57 32 98 75t76 106q19 35 32 49t26 14q14 0 17 -29.5t-3 -46.5q-4 -23 -14.5 -54.5t-26.5 -73t-18 -46.5q-13 -43 -76 -69q-134 -50 -303 -58q-42 -51 -45 -61q-11 -16 12 -29q68 -36 99.5 -77.5t31.5 -98.5q0 -50 -40.5 -101t-88.5 -85
q-56 -37 -87.5 -50.5t-62.5 -13.5t-47 27q-8 17 -4.5 36.5t13.5 34.5q16 21 38 17q2 0 32.5 -4t41.5 -4q35 0 55.5 23t20.5 56q0 44 -38.5 70.5t-88.5 26.5q-21 0 -37 -2q-7 0 -22 16.5t-15 24.5q0 13 17 28q10 11 139 164q-104 2 -201.5 25t-170 58.5t-125 73t-85.5 75.5
q-172 198 -172 460q0 88 22.5 170.5t58.5 144t72 104.5t72 73q224 184 553 184z" />
    <glyph glyph-name="Egrave" unicode="&#xc8;" horiz-adv-x="1202" 
d="M512 1296h307q86 0 180 13q6 2 15 -7.5t10 -19.5q2 -37 2 -219q0 -22 -10 -39.5t-23 -17.5q-12 0 -24 17t-15 34q-32 136 -131 153q-100 15 -284 13q-5 0 -10 -4t-10.5 -18t-6.5 -36q-3 -41 -6 -204t-2 -244q0 -6 6 -13.5t14 -7.5h164q100 0 124 12.5t50 73.5l1.5 3
l1.5 3t1.5 3.5t1.5 3.5q21 53 45 53q11 0 17 -19t4 -38q-8 -114 -8 -142q0 -37 8 -139q1 -27 -7 -44t-20 -17q-11 0 -22.5 14.5t-16.5 30.5q-20 65 -45.5 85t-87.5 25q-66 6 -205 6q-6 0 -16 -10t-10 -14q-10 -73 -4 -285q1 -14 1.5 -52.5t1.5 -67.5t5 -48q5 -15 18 -30.5
t27 -18.5q66 -12 166 -12q137 0 188 18q97 37 162 152q39 71 64 71q23 0 16 -59q0 -13 -32.5 -113.5t-45.5 -124.5q-4 -9 -22 -17.5t-27 -8.5q-6 0 -145.5 2.5t-304 5t-232.5 2.5q-76 0 -140.5 -5t-93.5 -5q-69 0 -69 26q0 27 61 41q81 19 107.5 47t32.5 109q16 229 16 496
q0 365 -2 395q-3 60 -25 90t-84 41q-65 12 -65 37q0 13 20 22t43 9q47 0 182 -3.5t189 -3.5zM387 1702q21 0 86 -51q167 -135 232 -195q11 -7 21 -23.5t3 -23.5q-15 -13 -38.5 -11.5t-41.5 9.5q-245 106 -321 152q-43 27 -43 51q0 18 53 63q9 11 24.5 20t24.5 9z" />
    <glyph glyph-name="Eacute" unicode="&#xc9;" horiz-adv-x="1202" 
d="M512 1296h307q86 0 180 13q6 2 15 -7.5t10 -19.5q2 -37 2 -219q0 -22 -10 -39.5t-23 -17.5q-12 0 -24 17t-15 34q-32 136 -131 153q-100 15 -284 13q-5 0 -10 -4t-10.5 -18t-6.5 -36q-3 -41 -6 -204t-2 -244q0 -6 6 -13.5t14 -7.5h164q100 0 124 12.5t50 73.5l1.5 3
l1.5 3t1.5 3.5t1.5 3.5q21 53 45 53q11 0 17 -19t4 -38q-8 -114 -8 -142q0 -37 8 -139q1 -27 -7 -44t-20 -17q-11 0 -22.5 14.5t-16.5 30.5q-20 65 -45.5 85t-87.5 25q-66 6 -205 6q-6 0 -16 -10t-10 -14q-10 -73 -4 -285q1 -14 1.5 -52.5t1.5 -67.5t5 -48q5 -15 18 -30.5
t27 -18.5q66 -12 166 -12q137 0 188 18q97 37 162 152q39 71 64 71q23 0 16 -59q0 -13 -32.5 -113.5t-45.5 -124.5q-4 -9 -22 -17.5t-27 -8.5q-6 0 -145.5 2.5t-304 5t-232.5 2.5q-76 0 -140.5 -5t-93.5 -5q-69 0 -69 26q0 27 61 41q81 19 107.5 47t32.5 109q16 229 16 496
q0 365 -2 395q-3 60 -25 90t-84 41q-65 12 -65 37q0 13 20 22t43 9q47 0 182 -3.5t189 -3.5zM774 1659q12 10 35 13t31 -1q29 -13 56.5 -37.5t27.5 -42.5q0 -12 -15 -28.5t-32 -24.5q-205 -98 -330 -141q-51 -17 -70 2q-3 3 -1.5 11.5t9 20.5t17.5 21q74 68 272 207z" />
    <glyph glyph-name="Ecircumflex" unicode="&#xca;" horiz-adv-x="1202" 
d="M512 1296h307q86 0 180 13q6 2 15 -7.5t10 -19.5q2 -37 2 -219q0 -22 -10 -39.5t-23 -17.5q-12 0 -24 17t-15 34q-32 136 -131 153q-100 15 -284 13q-5 0 -10 -4t-10.5 -18t-6.5 -36q-3 -41 -6 -204t-2 -244q0 -6 6 -13.5t14 -7.5h164q100 0 124 12.5t50 73.5l1.5 3
l1.5 3t1.5 3.5t1.5 3.5q21 53 45 53q11 0 17 -19t4 -38q-8 -114 -8 -142q0 -37 8 -139q1 -27 -7 -44t-20 -17q-11 0 -22.5 14.5t-16.5 30.5q-20 65 -45.5 85t-87.5 25q-66 6 -205 6q-6 0 -16 -10t-10 -14q-10 -73 -4 -285q1 -14 1.5 -52.5t1.5 -67.5t5 -48q5 -15 18 -30.5
t27 -18.5q66 -12 166 -12q137 0 188 18q97 37 162 152q39 71 64 71q23 0 16 -59q0 -13 -32.5 -113.5t-45.5 -124.5q-4 -9 -22 -17.5t-27 -8.5q-6 0 -145.5 2.5t-304 5t-232.5 2.5q-76 0 -140.5 -5t-93.5 -5q-69 0 -69 26q0 27 61 41q81 19 107.5 47t32.5 109q16 229 16 496
q0 365 -2 395q-3 60 -25 90t-84 41q-65 12 -65 37q0 13 20 22t43 9q47 0 182 -3.5t189 -3.5zM612 1686q22 0 84 -52q78 -78 176 -164q6 -4 12 -13.5t10 -19.5t-1 -18t-21 -8q-21 0 -65 19q-82 39 -184 96q-20 8 -37 -2q-23 -13 -89.5 -43.5t-97.5 -46.5q-37 -21 -61 -21
q-20 0 -17 20q4 21 33 48q116 102 176 155q57 50 82 50z" />
    <glyph glyph-name="Edieresis" unicode="&#xcb;" horiz-adv-x="1202" 
d="M512 1296h307q86 0 180 13q6 2 15 -7.5t10 -19.5q2 -37 2 -219q0 -22 -10 -39.5t-23 -17.5q-12 0 -24 17t-15 34q-32 136 -131 153q-100 15 -284 13q-5 0 -10 -4t-10.5 -18t-6.5 -36q-3 -41 -6 -204t-2 -244q0 -6 6 -13.5t14 -7.5h164q100 0 124 12.5t50 73.5l1.5 3
l1.5 3t1.5 3.5t1.5 3.5q21 53 45 53q11 0 17 -19t4 -38q-8 -114 -8 -142q0 -37 8 -139q1 -27 -7 -44t-20 -17q-11 0 -22.5 14.5t-16.5 30.5q-20 65 -45.5 85t-87.5 25q-66 6 -205 6q-6 0 -16 -10t-10 -14q-10 -73 -4 -285q1 -14 1.5 -52.5t1.5 -67.5t5 -48q5 -15 18 -30.5
t27 -18.5q66 -12 166 -12q137 0 188 18q97 37 162 152q39 71 64 71q23 0 16 -59q0 -13 -32.5 -113.5t-45.5 -124.5q-4 -9 -22 -17.5t-27 -8.5q-6 0 -145.5 2.5t-304 5t-232.5 2.5q-76 0 -140.5 -5t-93.5 -5q-69 0 -69 26q0 27 61 41q81 19 107.5 47t32.5 109q16 229 16 496
q0 365 -2 395q-3 60 -25 90t-84 41q-65 12 -65 37q0 13 20 22t43 9q47 0 182 -3.5t189 -3.5zM403 1651q44 0 72.5 -38t28.5 -83q0 -47 -36.5 -78t-78.5 -31q-38 0 -70 30t-32 85q0 43 35 79t81 36zM825 1651q44 0 72.5 -38.5t28.5 -82.5q0 -45 -36.5 -77t-76.5 -32t-72 30
t-32 83q0 46 34 81.5t82 35.5z" />
    <glyph glyph-name="Igrave" unicode="&#xcc;" horiz-adv-x="755" 
d="M254 684q0 317 -6 395q-2 37 -4 52t-7.5 36t-16.5 30t-30 18.5t-49 17.5q-61 15 -61 41q0 12 18.5 20.5t46.5 8.5t113.5 -3.5t120.5 -3.5q53 0 132 3.5t112 3.5q63 0 63 -29q0 -13 -18 -24.5t-45 -16.5q-36 -6 -59.5 -18.5t-34 -32t-14 -34.5t-5.5 -40q-8 -68 -8 -475
q0 -305 6 -397q6 -93 28.5 -123.5t106.5 -53.5q57 -12 57 -43q0 -26 -63 -26q-35 0 -147.5 5.5t-159.5 4.5q-27 0 -92 -3t-105 -3q-63 0 -63 35q0 25 61 39q67 16 88.5 49t24.5 104q10 130 10 463zM158 1704q21 0 86 -51q159 -129 231 -195q11 -7 21.5 -23.5t3.5 -23.5
q-15 -13 -38.5 -11.5t-41.5 9.5q-248 107 -322 152q-43 27 -43 51q0 17 54 63q9 11 24.5 20t24.5 9z" />
    <glyph glyph-name="Iacute" unicode="&#xcd;" horiz-adv-x="755" 
d="M254 684q0 317 -6 395q-2 37 -4 52t-7.5 36t-16.5 30t-30 18.5t-49 17.5q-61 15 -61 41q0 12 18.5 20.5t46.5 8.5t113.5 -3.5t120.5 -3.5q53 0 132 3.5t112 3.5q63 0 63 -29q0 -13 -18 -24.5t-45 -16.5q-36 -6 -59.5 -18.5t-34 -32t-14 -34.5t-5.5 -40q-8 -68 -8 -475
q0 -305 6 -397q6 -93 28.5 -123.5t106.5 -53.5q57 -12 57 -43q0 -26 -63 -26q-35 0 -147.5 5.5t-159.5 4.5q-27 0 -92 -3t-105 -3q-63 0 -63 35q0 25 61 39q67 16 88.5 49t24.5 104q10 130 10 463zM573 1675q12 10 35 13.5t31 -0.5q29 -13 56.5 -37.5t27.5 -42.5
q0 -12 -15 -29.5t-32 -24.5q-205 -98 -330 -141q-51 -17 -70 2q-3 3 -1.5 11.5t9 20.5t17.5 21q74 68 272 207z" />
    <glyph glyph-name="Icircumflex" unicode="&#xce;" horiz-adv-x="755" 
d="M254 684q0 317 -6 395q-2 37 -4 52t-7.5 36t-16.5 30t-30 18.5t-49 17.5q-61 15 -61 41q0 12 18.5 20.5t46.5 8.5t113.5 -3.5t120.5 -3.5q53 0 132 3.5t112 3.5q63 0 63 -29q0 -13 -18 -24.5t-45 -16.5q-36 -6 -59.5 -18.5t-34 -32t-14 -34.5t-5.5 -40q-8 -68 -8 -475
q0 -305 6 -397q6 -93 28.5 -123.5t106.5 -53.5q57 -12 57 -43q0 -26 -63 -26q-35 0 -147.5 5.5t-159.5 4.5q-27 0 -92 -3t-105 -3q-63 0 -63 35q0 25 61 39q67 16 88.5 49t24.5 104q10 130 10 463zM381 1679q23 0 84 -51q78 -78 176 -164q6 -4 12 -13.5t10 -19.5t-1 -18
t-21 -8q-24 0 -66 18q-71 34 -184 97q-20 8 -37 -2q-23 -13 -89.5 -44t-96.5 -47q-35 -20 -62 -20q-20 0 -17 20q4 20 34 48q116 102 176 155q56 49 82 49z" />
    <glyph glyph-name="Idieresis" unicode="&#xcf;" horiz-adv-x="755" 
d="M254 684q0 317 -6 395q-2 37 -4 52t-7.5 36t-16.5 30t-30 18.5t-49 17.5q-61 15 -61 41q0 12 18.5 20.5t46.5 8.5t113.5 -3.5t120.5 -3.5q53 0 132 3.5t112 3.5q63 0 63 -29q0 -13 -18 -24.5t-45 -16.5q-36 -6 -59.5 -18.5t-34 -32t-14 -34.5t-5.5 -40q-8 -68 -8 -475
q0 -305 6 -397q6 -93 28.5 -123.5t106.5 -53.5q57 -12 57 -43q0 -26 -63 -26q-35 0 -147.5 5.5t-159.5 4.5q-27 0 -92 -3t-105 -3q-63 0 -63 35q0 25 61 39q67 16 88.5 49t24.5 104q10 130 10 463zM180 1647q44 0 72.5 -38t28.5 -83q0 -47 -36.5 -78t-78.5 -31
q-38 0 -70.5 30t-32.5 85q0 42 35.5 78.5t81.5 36.5zM602 1647q44 0 72 -38.5t28 -82.5q0 -45 -36 -77t-76 -32t-72.5 30t-32.5 83q0 45 34.5 81t82.5 36z" />
    <glyph glyph-name="Eth" unicode="&#xd0;" horiz-adv-x="1556" 
d="M96 715h140q7 0 12.5 6.5t5.5 13.5q0 20 -2 135.5t-4 182.5q-3 101 -22.5 130.5t-102.5 47.5q-18 5 -32.5 15t-14.5 20q0 12 15 21t38 9h111q44 0 223 8.5t262 8.5q101 0 193.5 -20t161 -52.5t115 -63t81.5 -63.5q83 -80 135.5 -204t52.5 -242q0 -105 -30 -201t-79 -167
t-103 -122.5t-111 -83.5q-190 -110 -465 -110q-172 0 -414 12q-61 2 -141 2q-31 0 -47.5 10t-16.5 23q0 12 12 22t31 13q68 8 97.5 27.5t41 62.5t13.5 141q4 226 4 315q0 19 -10 19h-150q-8 0 -14 14.5t-6 32.5q0 7 6 22t14 15zM813 633l-297 -2q-6 0 -10 -5.5t-4 -11.5
q0 -308 8 -403q4 -47 12 -66.5t27 -38.5q24 -24 67 -38.5t80 -14.5q75 0 145 26t150 91q94 79 144.5 207t50.5 293q0 116 -44.5 232.5t-121.5 197.5q-66 66 -171 103.5t-216 37.5q-72 0 -98 -16q-12 -9 -25 -41q-8 -30 -8 -445q0 -7 4.5 -15.5t11.5 -8.5h295q11 0 20 -7.5
t9 -15.5q0 -16 -9.5 -37.5t-19.5 -21.5z" />
    <glyph glyph-name="Ntilde" unicode="&#xd1;" horiz-adv-x="1581" 
d="M45 1274q0 13 17 22t44 9q15 0 134 -4.5t178 -4.5q7 0 23 -10t22 -16q15 -18 72 -83.5t100 -115.5q35 -43 126 -142t172 -184t188.5 -197.5t123.5 -129.5q6 -6 12.5 0.5t6.5 11.5q5 27 5.5 95.5t-0.5 197t-1 170.5q0 104 -13 219q-8 84 -127 115q-67 16 -67 47
q0 24 59 24q27 0 74 -1t66 -1q55 0 134.5 5.5t100.5 5.5q49 0 49 -27q0 -11 -13 -22.5t-38 -18.5q-74 -25 -96.5 -55.5t-30.5 -98.5q-5 -57 -12.5 -347.5t-7.5 -418.5q0 -47 6 -172t6 -147q0 -13 -12.5 -26t-20.5 -13q-28 0 -60 26t-51 52q-22 29 -133 166
q-106 130 -369 422t-339 381q-7 7 -15 1t-8 -12q-8 -112 -10 -264q0 -54 -1 -152t-1.5 -136.5t0 -96.5t2 -92t4.5 -63q6 -52 32.5 -81t96.5 -51q57 -16 57 -38q0 -31 -67 -31q-28 0 -84 4t-94 4q-24 0 -101.5 -3t-93.5 -3q-22 0 -37.5 7t-15.5 19q0 24 45 37
q35 11 51.5 17.5t38.5 20.5t31.5 33t17.5 50.5t10 77.5q4 83 13.5 256.5t16.5 311t7 202.5q0 99 -12 115q-3 3 -10.5 12.5t-10 12.5t-9.5 11t-11 11t-12 9.5t-14.5 9.5t-16.5 8t-20.5 8.5t-24 7.5t-29.5 8q-18 3 -35.5 14t-17.5 21zM557 1470q15 25 44 61.5t46 51.5
q21 21 53 21q41 0 158.5 -5.5t142.5 -3.5q25 3 42 17.5t40 48.5q11 14 21 14q7 0 17 -10.5t16 -19.5q6 -16 -13 -35q-10 -11 -56.5 -67.5t-61.5 -69.5q-7 -5 -12 -8t-7.5 -5t-6 -3t-4 -1h-4.5h-5q-22 0 -101 5.5t-130.5 8t-82.5 -1.5q-29 -6 -69 -63q-13 -16 -19 -16
q-15 0 -25 9t-10 15q0 10 27 57z" />
    <glyph glyph-name="Ograve" unicode="&#xd2;" horiz-adv-x="1603" 
d="M795 1331q132 0 247.5 -37.5t200 -101.5t145.5 -148.5t91 -180.5t30 -195q0 -350 -258 -557q-88 -68 -209 -108t-239 -40q-159 0 -297 57.5t-236 161.5q-176 189 -176 469q0 177 69 304.5t195 228.5q76 60 196 103.5t241 43.5zM745 1260q-63 0 -126.5 -32t-104.5 -73
q-60 -59 -101.5 -174.5t-41.5 -284.5q0 -119 35.5 -236t97.5 -210.5t156 -152t202 -58.5q125 0 209 84q68 68 113 196t45 285q0 138 -54.5 294t-158.5 251q-54 47 -129.5 79t-141.5 32zM575 1731q21 0 87 -52q168 -136 231 -194q11 -7 21.5 -23.5t3.5 -23.5
q-15 -13 -38.5 -11.5t-41.5 9.5q-254 109 -322 151q-43 27 -43 51q0 19 53 64q9 11 24.5 20t24.5 9z" />
    <glyph glyph-name="Oacute" unicode="&#xd3;" horiz-adv-x="1603" 
d="M795 1331q132 0 247.5 -37.5t200 -101.5t145.5 -148.5t91 -180.5t30 -195q0 -350 -258 -557q-88 -68 -209 -108t-239 -40q-159 0 -297 57.5t-236 161.5q-176 189 -176 469q0 177 69 304.5t195 228.5q76 60 196 103.5t241 43.5zM745 1260q-63 0 -126.5 -32t-104.5 -73
q-60 -59 -101.5 -174.5t-41.5 -284.5q0 -119 35.5 -236t97.5 -210.5t156 -152t202 -58.5q125 0 209 84q68 68 113 196t45 285q0 138 -54.5 294t-158.5 251q-54 47 -129.5 79t-141.5 32zM936 1704q12 10 34.5 13t30.5 -1q29 -13 56.5 -37.5t27.5 -42.5q0 -12 -15 -28.5
t-32 -24.5q-208 -99 -329 -141q-51 -17 -70 2q-3 3 -1.5 11.5t9 20.5t17.5 21q74 68 272 207z" />
    <glyph glyph-name="Ocircumflex" unicode="&#xd4;" horiz-adv-x="1603" 
d="M795 1331q132 0 247.5 -37.5t200 -101.5t145.5 -148.5t91 -180.5t30 -195q0 -350 -258 -557q-88 -68 -209 -108t-239 -40q-159 0 -297 57.5t-236 161.5q-176 189 -176 469q0 177 69 304.5t195 228.5q76 60 196 103.5t241 43.5zM745 1260q-63 0 -126.5 -32t-104.5 -73
q-60 -59 -101.5 -174.5t-41.5 -284.5q0 -119 35.5 -236t97.5 -210.5t156 -152t202 -58.5q125 0 209 84q68 68 113 196t45 285q0 138 -54.5 294t-158.5 251q-54 47 -129.5 79t-141.5 32zM795 1702q23 0 84 -51q78 -78 176 -164q6 -4 12.5 -13.5t10 -20t-1.5 -18.5t-21 -8
q-22 0 -66 19q-82 39 -184 96q-20 8 -37 -2q-23 -13 -89 -43.5t-97 -46.5q-35 -20 -62 -20q-20 0 -17 20q4 20 34 47q8 7 176 156q56 49 82 49z" />
    <glyph glyph-name="Otilde" unicode="&#xd5;" horiz-adv-x="1603" 
d="M795 1331q132 0 247.5 -37.5t200 -101.5t145.5 -148.5t91 -180.5t30 -195q0 -350 -258 -557q-88 -68 -209 -108t-239 -40q-159 0 -297 57.5t-236 161.5q-176 189 -176 469q0 177 69 304.5t195 228.5q76 60 196 103.5t241 43.5zM745 1260q-63 0 -126.5 -32t-104.5 -73
q-60 -59 -101.5 -174.5t-41.5 -284.5q0 -119 35.5 -236t97.5 -210.5t156 -152t202 -58.5q125 0 209 84q68 68 113 196t45 285q0 138 -54.5 294t-158.5 251q-54 47 -129.5 79t-141.5 32zM524 1497q15 25 44 61.5t46 51.5q20 20 54 20q40 0 157.5 -5t143.5 -3q25 3 42 17.5
t40 48.5q11 14 20 14q14 0 33 -31q7 -16 -12 -35q-10 -10 -57 -67t-62 -70q-8 -6 -13 -9.5t-9 -5t-5.5 -2t-6 0t-5.5 0.5q-22 0 -101 5.5t-130 8t-82 -1.5q-30 -7 -70 -63q-14 -17 -19 -17q-15 0 -24.5 9t-9.5 16q0 12 26 57z" />
    <glyph glyph-name="Odieresis" unicode="&#xd6;" horiz-adv-x="1603" 
d="M795 1331q132 0 247.5 -37.5t200 -101.5t145.5 -148.5t91 -180.5t30 -195q0 -350 -258 -557q-88 -68 -209 -108t-239 -40q-159 0 -297 57.5t-236 161.5q-176 189 -176 469q0 177 69 304.5t195 228.5q76 60 196 103.5t241 43.5zM745 1260q-63 0 -126.5 -32t-104.5 -73
q-60 -59 -101.5 -174.5t-41.5 -284.5q0 -119 35.5 -236t97.5 -210.5t156 -152t202 -58.5q125 0 209 84q68 68 113 196t45 285q0 138 -54.5 294t-158.5 251q-54 47 -129.5 79t-141.5 32zM588 1667q44 0 72 -38t28 -83q0 -47 -36.5 -77.5t-78.5 -30.5q-38 0 -70 29.5t-32 84.5
q0 42 35.5 78.5t81.5 36.5zM1010 1667q44 0 72 -38.5t28 -82.5q0 -45 -36.5 -76.5t-76.5 -31.5t-72 29.5t-32 82.5q0 45 34.5 81t82.5 36z" />
    <glyph glyph-name="multiply" unicode="&#xd7;" horiz-adv-x="1277" 
d="M180 881q-8 7 10.5 36.5t38.5 49.5q9 9 21 11.5t22 -5.5l359 -359q13 -13 31 2l344 357q7 7 18 7t16 -5q18 -18 30 -36t14 -28.5t-1 -15.5l-356 -367q-4 -4 -1.5 -12.5t7.5 -13.5l357 -355q29 -32 -39 -100q-19 -19 -41 4l-367 367q-18 18 -31 2l-338 -340
q-11 -11 -25 -15t-22 3q-18 16 -34 44.5t-9 37.5l348 350q9 17 0 24z" />
    <glyph glyph-name="Oslash" unicode="&#xd8;" horiz-adv-x="1603" 
d="M799 1331q202 0 370 -92q12 -8 23 6q4 5 28.5 36t36.5 46q24 33 37 33q19 0 37 -27q9 -9 -2 -26q-13 -17 -39 -53.5t-37 -51.5q-6 -10 0 -16q123 -97 189.5 -234.5t66.5 -287.5q0 -344 -262 -555q-89 -69 -206 -108.5t-238 -39.5q-200 0 -385 105q-6 4 -13 2t-10 -7
q-33 -42 -70.5 -87.5t-39.5 -47.5q-2 -3 -22 -2.5t-27 6.5q-10 9 -13.5 22t2.5 19q2 3 105 138q10 12 -6 20q-109 95 -169.5 227.5t-60.5 292.5q0 319 262 533q75 61 197.5 105t245.5 44zM750 1257q-61 0 -126.5 -30t-103.5 -68q-63 -59 -106 -180.5t-43 -302.5
q0 -200 98 -369q6 -10 14 -2q90 118 292.5 388.5t293.5 389.5q3 5 3 13.5t-3 11.5q-60 67 -144 108t-175 41zM868 37q112 0 197 78q70 68 119 201t49 290q0 89 -27 200.5t-76 205.5q-10 15 -16 6q-82 -108 -282 -377.5t-300 -398.5q-14 -14 -4 -27q66 -80 156 -129t184 -49z
" />
    <glyph glyph-name="Ugrave" unicode="&#xd9;" horiz-adv-x="1562" 
d="M68 1276q0 12 17.5 20.5t43.5 8.5q45 0 124.5 -4.5t115.5 -4.5q42 0 129 4.5t106 4.5q28 0 44 -9t16 -22q0 -12 -16.5 -23.5t-45.5 -17.5q-56 -11 -78.5 -35t-31.5 -84q-9 -61 -9 -553q0 -163 28 -240t87 -139q39 -39 118.5 -64.5t131.5 -25.5q297 0 358 268
q39 170 39 564q0 140 -10 198q-5 46 -35 73t-100 44q-19 6 -37.5 17.5t-18.5 23.5q0 10 15.5 17.5t40.5 7.5q22 0 87.5 -4.5t100.5 -4.5q44 0 105 4.5t86 4.5q24 0 37.5 -9t13.5 -22q0 -9 -16 -20t-37 -15q-76 -19 -104.5 -58t-29.5 -134q0 -23 -16 -447q-5 -126 -26 -222.5
t-57.5 -162.5t-79.5 -109t-101 -77q-114 -64 -281 -64q-127 0 -227 36.5t-158 88.5q-90 83 -127 201t-37 356q0 108 -3 292.5t-5 205.5q-7 73 -102 92q-21 5 -38 16t-17 23zM600 1704q21 0 86 -51q167 -135 232 -195q11 -7 21 -23.5t3 -23.5q-15 -13 -38.5 -11.5t-41.5 9.5
q-245 106 -321 152q-43 27 -43 51q0 18 53 63q9 11 24.5 20t24.5 9z" />
    <glyph glyph-name="Uacute" unicode="&#xda;" horiz-adv-x="1562" 
d="M68 1276q0 12 17.5 20.5t43.5 8.5q45 0 124.5 -4.5t115.5 -4.5q42 0 129 4.5t106 4.5q28 0 44 -9t16 -22q0 -12 -16.5 -23.5t-45.5 -17.5q-56 -11 -78.5 -35t-31.5 -84q-9 -61 -9 -553q0 -163 28 -240t87 -139q39 -39 118.5 -64.5t131.5 -25.5q297 0 358 268
q39 170 39 564q0 140 -10 198q-5 46 -35 73t-100 44q-19 6 -37.5 17.5t-18.5 23.5q0 10 15.5 17.5t40.5 7.5q22 0 87.5 -4.5t100.5 -4.5q44 0 105 4.5t86 4.5q24 0 37.5 -9t13.5 -22q0 -9 -16 -20t-37 -15q-76 -19 -104.5 -58t-29.5 -134q0 -23 -16 -447q-5 -126 -26 -222.5
t-57.5 -162.5t-79.5 -109t-101 -77q-114 -64 -281 -64q-127 0 -227 36.5t-158 88.5q-90 83 -127 201t-37 356q0 108 -3 292.5t-5 205.5q-7 73 -102 92q-21 5 -38 16t-17 23zM1001 1661q12 10 35 13t31 -1q29 -13 56.5 -37.5t27.5 -42.5q0 -12 -15 -28.5t-32 -24.5
q-205 -98 -330 -141q-50 -17 -69 2q-3 3 -1.5 11.5t8.5 20.5t17 21q74 68 272 207z" />
    <glyph glyph-name="Ucircumflex" unicode="&#xdb;" horiz-adv-x="1562" 
d="M68 1276q0 12 17.5 20.5t43.5 8.5q45 0 124.5 -4.5t115.5 -4.5q42 0 129 4.5t106 4.5q28 0 44 -9t16 -22q0 -12 -16.5 -23.5t-45.5 -17.5q-56 -11 -78.5 -35t-31.5 -84q-9 -61 -9 -553q0 -163 28 -240t87 -139q39 -39 118.5 -64.5t131.5 -25.5q297 0 358 268
q39 170 39 564q0 140 -10 198q-5 46 -35 73t-100 44q-19 6 -37.5 17.5t-18.5 23.5q0 10 15.5 17.5t40.5 7.5q22 0 87.5 -4.5t100.5 -4.5q44 0 105 4.5t86 4.5q24 0 37.5 -9t13.5 -22q0 -9 -16 -20t-37 -15q-76 -19 -104.5 -58t-29.5 -134q0 -23 -16 -447q-5 -126 -26 -222.5
t-57.5 -162.5t-79.5 -109t-101 -77q-114 -64 -281 -64q-127 0 -227 36.5t-158 88.5q-90 83 -127 201t-37 356q0 108 -3 292.5t-5 205.5q-7 73 -102 92q-21 5 -38 16t-17 23zM838 1688q22 0 84 -52q69 -69 176 -163q6 -4 12.5 -13.5t10 -20t-1.5 -18.5t-21 -8q-22 0 -66 19
q-82 39 -184 96q-20 8 -37 -2q-23 -13 -89 -43.5t-97 -46.5q-37 -21 -62 -21q-20 0 -17 20q5 21 34 48q116 102 176 155q57 50 82 50z" />
    <glyph glyph-name="Udieresis" unicode="&#xdc;" horiz-adv-x="1562" 
d="M68 1276q0 12 17.5 20.5t43.5 8.5q45 0 124.5 -4.5t115.5 -4.5q42 0 129 4.5t106 4.5q28 0 44 -9t16 -22q0 -12 -16.5 -23.5t-45.5 -17.5q-56 -11 -78.5 -35t-31.5 -84q-9 -61 -9 -553q0 -163 28 -240t87 -139q39 -39 118.5 -64.5t131.5 -25.5q297 0 358 268
q39 170 39 564q0 140 -10 198q-5 46 -35 73t-100 44q-19 6 -37.5 17.5t-18.5 23.5q0 10 15.5 17.5t40.5 7.5q22 0 87.5 -4.5t100.5 -4.5q44 0 105 4.5t86 4.5q24 0 37.5 -9t13.5 -22q0 -9 -16 -20t-37 -15q-76 -19 -104.5 -58t-29.5 -134q0 -23 -16 -447q-5 -126 -26 -222.5
t-57.5 -162.5t-79.5 -109t-101 -77q-114 -64 -281 -64q-127 0 -227 36.5t-158 88.5q-90 83 -127 201t-37 356q0 108 -3 292.5t-5 205.5q-7 73 -102 92q-21 5 -38 16t-17 23zM643 1653q44 0 72 -38t28 -83q0 -47 -36.5 -78t-77.5 -31q-38 0 -70.5 30t-32.5 85q0 42 35.5 78.5
t81.5 36.5zM1065 1653q44 0 72 -38.5t28 -82.5q0 -45 -36 -77t-76 -32t-72.5 30t-32.5 83q0 45 34.5 81t82.5 36z" />
    <glyph glyph-name="Yacute" unicode="&#xdd;" horiz-adv-x="1312" 
d="M10 1282q0 25 62 25q19 0 116 -6.5t150 -6.5q26 0 91 2t108 2q51 0 51 -22q0 -12 -13 -25.5t-34 -17.5q-50 -10 -60 -35.5t13 -64.5q78 -140 235 -408q3 -4 12.5 -2t14.5 8q159 246 227 379q30 46 17.5 78.5t-80.5 46.5q-23 5 -39.5 17.5t-16.5 27.5q0 9 15 14.5t30 5.5
q27 0 72 -2t68 -2q31 0 130 5.5t113 5.5q47 0 47 -23q0 -27 -57 -43q-65 -17 -105.5 -50.5t-101.5 -107.5q-75 -92 -272 -399q-29 -51 -29 -111q0 -286 14 -405q5 -43 29.5 -66t102.5 -43q53 -14 53 -39q0 -12 -17 -20t-47 -8q-12 0 -105.5 5t-119.5 5q-59 0 -127 -3.5
t-115 -7t-55 -3.5q-53 0 -53 24q0 11 15 23.5t44 19.5q75 21 103 44.5t30 50.5q3 42 3.5 117.5t-0.5 171.5t-1 106q0 15 -7 53t-11 47q-31 61 -244 408q-65 104 -104 139.5t-92 48.5q-60 13 -60 41zM907 1659q12 10 35 13t31 -1q29 -13 56.5 -37.5t27.5 -42.5
q0 -12 -15 -28.5t-32 -24.5q-205 -98 -330 -141q-51 -17 -70 2q-3 3 -1.5 11.5t9 20.5t17.5 21q74 68 272 207z" />
    <glyph glyph-name="Thorn" unicode="&#xde;" horiz-adv-x="1179" 
d="M236 268q4 122 4 805q0 48 -3 73t-17 42.5t-31 24.5t-58 20q-53 16 -53 39q0 11 17.5 19.5t37.5 8.5q23 0 100 -2t125 -2q38 0 118.5 2t113.5 2q55 0 55 -28q0 -27 -53 -39q-23 -4 -34.5 -6.5t-25.5 -8.5t-19.5 -10.5t-13 -16t-9.5 -22t-4.5 -32t-2.5 -43v-56.5
q0 -7 5.5 -12.5t9.5 -5.5t67 4t105 4q81 0 155 -22t135.5 -65t98.5 -114.5t37 -162.5q0 -175 -119.5 -283.5t-312.5 -108.5q-91 0 -166 27q-4 1 -9.5 -2t-5.5 -8q0 -77 8 -119.5t17.5 -55t28.5 -20.5q29 -15 94 -33q47 -16 47 -34q0 -35 -66 -35q-17 0 -133 4t-168 4
q-36 0 -103 -3t-95 -3q-20 0 -38 10.5t-18 24.5q0 24 54 39q75 21 97.5 60t27.5 140zM844 649q0 80 -24 140.5t-65.5 95t-91 51t-106.5 16.5q-53 0 -63 -24q-11 -39 -11 -78v-442q0 -8 9 -22t16 -17q50 -13 84 -13q102 0 177 83t75 210z" />
    <glyph glyph-name="germandbls" unicode="&#xdf;" horiz-adv-x="1064" 
d="M670 1444q81 0 142.5 -30.5t93.5 -77.5t47.5 -93.5t15.5 -89.5q0 -30 -3.5 -55t-7.5 -39.5t-15 -32t-15.5 -23.5t-21 -23t-21.5 -22q-17 -20 -61.5 -62.5t-47.5 -45.5q-61 -61 -61 -105q0 -56 41 -88q5 -5 62.5 -53.5t76.5 -66.5q54 -50 83.5 -102.5t29.5 -129.5
q0 -89 -66.5 -170.5t-157.5 -124.5q-70 -33 -127 -33q-28 0 -52 5t-45 23.5t-21 49.5q0 14 14 39.5t25 36.5q7 7 19.5 10t23.5 -2q86 -57 137 -57q49 0 71.5 25t22.5 65q0 48 -41 94t-145 127q-136 106 -136 244q0 32 16.5 61.5t35.5 44.5q15 16 54.5 54t65.5 65
q119 117 119 275q0 27 -6.5 57t-23 62.5t-39.5 58.5t-59.5 42.5t-80.5 16.5q-75 0 -118 -57.5t-68 -169.5q-29 -128 -29 -621q0 -306 9 -403q3 -26 16.5 -39t40.5 -23q25 -10 34 -16.5t9 -17.5q0 -13 -14.5 -22t-36.5 -9q-10 0 -67 3t-93 3q-23 0 -104 -6t-95 -6
q-25 0 -38 8.5t-13 19.5q0 22 55 37q26 8 41.5 20.5t20 22t8.5 25.5q4 18 5 69.5t0 150.5t-1 108q0 199 -2 213q-2 30 -20 34q-6 0 -29.5 5t-36.5 6q-14 1 -19 18t3 23q31 28 77 57q29 25 29 45q0 115 42 238.5t122 209.5q137 144 330 144z" />
    <glyph glyph-name="agrave" unicode="&#xe0;" horiz-adv-x="856" 
d="M317 1341q14 0 31 -20t29 -51q54 -133 106 -297q8 -25 6 -46.5t-16 -21.5q-27 0 -51 33q-43 54 -106.5 156t-86.5 145q-16 32 -12 57q6 22 43 35q23 10 57 10zM446 834q137 0 213 -111q46 -61 46 -176q0 -47 -4.5 -194.5t-4.5 -151.5q0 -40 23 -61t53 -21q12 0 72 24
q6 4 12 -2q6 -12 6 -28q0 -36 -66.5 -88t-144.5 -52q-115 0 -153 99q-1 6 -8.5 8.5t-10.5 -0.5q-50 -36 -162 -86q-49 -17 -90 -17q-59 0 -108 61.5t-49 145.5q0 53 36 105q5 7 11.5 13.5t12.5 10.5t14 8.5t13 6.5t13 5.5t10 4.5q9 4 279 84q17 6 27 15t10 16q2 16 3.5 77
t0.5 80q-2 45 -39 88t-99 43q-45 0 -65 -14q-12 -6 -12 -94q0 -10 -9 -19q-10 -10 -90 -46t-90 -36q-9 0 -17.5 10t-8.5 19q0 45 39 91t133 106q52 33 114.5 54.5t89.5 21.5zM389 100q14 0 39.5 8t38.5 17q7 4 12.5 18t5.5 21q9 65 9 182q0 6 -5.5 13.5t-9.5 7.5
q-26 0 -82 -18.5t-84 -35.5q-21 -15 -29 -30t-8 -52q0 -61 38 -96t75 -35z" />
    <glyph glyph-name="aacute" unicode="&#xe1;" horiz-adv-x="856" 
d="M500 1298q5 13 23 25t36 12q84 0 88 -30q5 -27 -14 -58q-30 -55 -102 -161t-105 -144q-33 -33 -55 -33q-13 0 -15.5 18t6.5 46q18 54 65.5 164.5t72.5 160.5zM446 834q137 0 213 -111q46 -61 46 -176q0 -47 -4.5 -194.5t-4.5 -151.5q0 -40 23 -61t53 -21q12 0 72 24
q6 4 12 -2q6 -12 6 -28q0 -36 -66.5 -88t-144.5 -52q-115 0 -153 99q-1 6 -8.5 8.5t-10.5 -0.5q-50 -36 -162 -86q-49 -17 -90 -17q-59 0 -108 61.5t-49 145.5q0 53 36 105q5 7 11.5 13.5t12.5 10.5t14 8.5t13 6.5t13 5.5t10 4.5q9 4 279 84q17 6 27 15t10 16q2 16 3.5 77
t0.5 80q-2 45 -39 88t-99 43q-45 0 -65 -14q-12 -6 -12 -94q0 -10 -9 -19q-10 -10 -90 -46t-90 -36q-9 0 -17.5 10t-8.5 19q0 45 39 91t133 106q52 33 114.5 54.5t89.5 21.5zM389 100q14 0 39.5 8t38.5 17q7 4 12.5 18t5.5 21q9 65 9 182q0 6 -5.5 13.5t-9.5 7.5
q-26 0 -82 -18.5t-84 -35.5q-21 -15 -29 -30t-8 -52q0 -61 38 -96t75 -35z" />
    <glyph glyph-name="acircumflex" unicode="&#xe2;" horiz-adv-x="856" 
d="M408 1331q21 0 65 -80q103 -192 139 -264q4 -9 7.5 -20t5.5 -24.5t-2.5 -22.5t-16.5 -9t-32 15t-29 28q-25 36 -73 99.5t-56 74.5q-5 6 -13.5 6t-11.5 -6q-126 -170 -131 -176q-8 -12 -24 -24.5t-31 -12.5q-11 0 -15 18.5t3 37.5q15 35 40 83.5t60 113t51 94.5
q39 69 64 69zM446 834q137 0 213 -111q46 -61 46 -176q0 -47 -4.5 -194.5t-4.5 -151.5q0 -40 23 -61t53 -21q12 0 72 24q6 4 12 -2q6 -12 6 -28q0 -36 -66.5 -88t-144.5 -52q-115 0 -153 99q-1 6 -8.5 8.5t-10.5 -0.5q-50 -36 -162 -86q-49 -17 -90 -17q-59 0 -108 61.5
t-49 145.5q0 53 36 105q5 7 11.5 13.5t12.5 10.5t14 8.5t13 6.5t13 5.5t10 4.5q9 4 279 84q17 6 27 15t10 16q2 16 3.5 77t0.5 80q-2 45 -39 88t-99 43q-45 0 -65 -14q-12 -6 -12 -94q0 -10 -9 -19q-10 -10 -90 -46t-90 -36q-9 0 -17.5 10t-8.5 19q0 45 39 91t133 106
q52 33 114.5 54.5t89.5 21.5zM389 100q14 0 39.5 8t38.5 17q7 4 12.5 18t5.5 21q9 65 9 182q0 6 -5.5 13.5t-9.5 7.5q-26 0 -82 -18.5t-84 -35.5q-21 -15 -29 -30t-8 -52q0 -61 38 -96t75 -35z" />
    <glyph glyph-name="atilde" unicode="&#xe3;" horiz-adv-x="856" 
d="M258 1042q-8 0 -18 -9t-25.5 -29.5t-19.5 -24.5q-8 -8 -19 -8q-5 0 -21 16.5t-16 20.5t19.5 33t56.5 70t74 63q8 7 19.5 9.5t15.5 0.5q90 -21 196 -21q49 0 70 13q10 8 22 20t23 25t16 18q4 6 24.5 -10.5t20.5 -24.5q0 -10 -8 -16q-17 -17 -78 -82.5t-65 -69.5
q-16 -16 -27 -16t-109.5 11t-150.5 11zM446 834q137 0 213 -111q46 -61 46 -176q0 -47 -4.5 -194.5t-4.5 -151.5q0 -40 23 -61t53 -21q12 0 72 24q6 4 12 -2q6 -12 6 -28q0 -36 -66.5 -88t-144.5 -52q-115 0 -153 99q-1 6 -8.5 8.5t-10.5 -0.5q-50 -36 -162 -86
q-49 -17 -90 -17q-59 0 -108 61.5t-49 145.5q0 53 36 105q5 7 11.5 13.5t12.5 10.5t14 8.5t13 6.5t13 5.5t10 4.5q9 4 279 84q17 6 27 15t10 16q2 16 3.5 77t0.5 80q-2 45 -39 88t-99 43q-45 0 -65 -14q-12 -6 -12 -94q0 -10 -9 -19q-10 -10 -90 -46t-90 -36q-9 0 -17.5 10
t-8.5 19q0 45 39 91t133 106q52 33 114.5 54.5t89.5 21.5zM389 100q14 0 39.5 8t38.5 17q7 4 12.5 18t5.5 21q9 65 9 182q0 6 -5.5 13.5t-9.5 7.5q-26 0 -82 -18.5t-84 -35.5q-21 -15 -29 -30t-8 -52q0 -61 38 -96t75 -35z" />
    <glyph glyph-name="adieresis" unicode="&#xe4;" horiz-adv-x="856" 
d="M223 1239q46 0 75.5 -38t29.5 -81q0 -50 -37 -81t-80 -31q-41 0 -74 29.5t-33 84.5q0 45 33.5 81t85.5 36zM610 1239q44 0 74.5 -38.5t30.5 -80.5q0 -48 -37.5 -80t-79.5 -32t-75.5 30t-33.5 84q0 45 35.5 81t85.5 36zM446 834q137 0 213 -111q46 -61 46 -176
q0 -47 -4.5 -194.5t-4.5 -151.5q0 -40 23 -61t53 -21q12 0 72 24q6 4 12 -2q6 -12 6 -28q0 -36 -66.5 -88t-144.5 -52q-115 0 -153 99q-1 6 -8.5 8.5t-10.5 -0.5q-50 -36 -162 -86q-49 -17 -90 -17q-59 0 -108 61.5t-49 145.5q0 53 36 105q5 7 11.5 13.5t12.5 10.5t14 8.5
t13 6.5t13 5.5t10 4.5q9 4 279 84q17 6 27 15t10 16q2 16 3.5 77t0.5 80q-2 45 -39 88t-99 43q-45 0 -65 -14q-12 -6 -12 -94q0 -10 -9 -19q-10 -10 -90 -46t-90 -36q-9 0 -17.5 10t-8.5 19q0 45 39 91t133 106q52 33 114.5 54.5t89.5 21.5zM389 100q14 0 39.5 8t38.5 17
q7 4 12.5 18t5.5 21q9 65 9 182q0 6 -5.5 13.5t-9.5 7.5q-26 0 -82 -18.5t-84 -35.5q-21 -15 -29 -30t-8 -52q0 -61 38 -96t75 -35z" />
    <glyph glyph-name="aring" unicode="&#xe5;" horiz-adv-x="856" 
d="M416 1286q74 0 122 -51t48 -119q0 -70 -48 -121t-122 -51t-122 51t-48 121q0 68 48 119t122 51zM416 1217q-38 0 -63 -29.5t-25 -71.5q0 -48 25 -75t63 -27q40 0 64 26.5t24 77.5q0 41 -25 70t-63 29zM446 834q137 0 213 -111q46 -61 46 -176q0 -47 -4.5 -194.5
t-4.5 -151.5q0 -40 23 -61t53 -21q12 0 72 24q6 4 12 -2q6 -12 6 -28q0 -36 -66.5 -88t-144.5 -52q-115 0 -153 99q-1 6 -8.5 8.5t-10.5 -0.5q-50 -36 -162 -86q-49 -17 -90 -17q-59 0 -108 61.5t-49 145.5q0 53 36 105q5 7 11.5 13.5t12.5 10.5t14 8.5t13 6.5t13 5.5
t10 4.5q9 4 279 84q17 6 27 15t10 16q2 16 3.5 77t0.5 80q-2 45 -39 88t-99 43q-45 0 -65 -14q-12 -6 -12 -94q0 -10 -9 -19q-10 -10 -90 -46t-90 -36q-9 0 -17.5 10t-8.5 19q0 45 39 91t133 106q52 33 114.5 54.5t89.5 21.5zM389 100q14 0 39.5 8t38.5 17q7 4 12.5 18
t5.5 21q9 65 9 182q0 6 -5.5 13.5t-9.5 7.5q-26 0 -82 -18.5t-84 -35.5q-21 -15 -29 -30t-8 -52q0 -61 38 -96t75 -35z" />
    <glyph glyph-name="ae" unicode="&#xe6;" horiz-adv-x="1206" 
d="M66 561q0 45 73 115q79 67 211 131q57 29 96 29q126 0 211 -107q9 -9 21 0q80 58 132 82.5t114 24.5t110 -24.5t74 -63t38.5 -78t12.5 -76.5q0 -11 -13 -28.5t-24 -18.5q-7 -2 -94.5 -25.5t-171 -47t-119.5 -34.5q-35 -12 -35 -30q0 -118 6.5 -154t34.5 -68
q21 -25 70.5 -43t89.5 -18q75 0 137 29.5t95 60.5q7 7 16.5 -0.5t9.5 -21.5q0 -25 -22 -58q-44 -67 -129 -114.5t-179 -47.5q-202 0 -299 117q-16 16 -28 10q-6 -4 -47 -33t-55.5 -38t-47 -27t-57 -24.5t-49.5 -6.5q-63 0 -122.5 56.5t-59.5 144.5q0 115 124 158
q25 11 142 53t129 47q31 9 35 29q5 77 0.5 141t-25.5 90q-39 49 -104 49q-33 0 -68 -26q-16 -10 -10 -62q3 -30 -8 -41q-4 -4 -90.5 -43t-98.5 -39q-6 0 -16 12t-10 19zM834 739q-40 0 -75.5 -22.5t-49.5 -46.5q-13 -20 -13 -47q6 -54 6 -119q0 -4 7 -8t10 -2
q42 10 109.5 32t91.5 33q49 23 49 68q0 13 -6 29.5t-20 36t-42.5 33t-66.5 13.5zM373 100q23 0 53 13t53 37q8 10 13 47q2 20 2 53t-1 68.5t-1 43.5q0 5 -7 9.5t-14 1.5q-47 -17 -75.5 -29.5t-60 -32.5t-46.5 -44.5t-15 -55.5q0 -50 29.5 -80.5t69.5 -30.5z" />
    <glyph glyph-name="ccedilla" unicode="&#xe7;" horiz-adv-x="847" 
d="M559 834q144 0 215 -52q33 -24 33 -67q0 -24 -31 -57t-53 -33t-41.5 11.5t-60.5 43.5q-36 29 -52.5 40t-42.5 22.5t-51 11.5q-59 0 -108 -56q-76 -95 -76 -243q0 -152 84 -243t213 -91q103 0 184 61q8 8 17.5 5t9.5 -13q0 -17 -8.5 -38.5t-20.5 -33.5q-81 -85 -188 -112
q-13 -17 -29.5 -37.5t-24 -30t-8.5 -12.5q-6 -11 -4 -16t14 -13q67 -32 97 -72.5t30 -95.5q0 -47 -39.5 -96t-85.5 -80q-51 -35 -80.5 -48t-58.5 -13t-45 26q-9 15 -6.5 35.5t14.5 34.5q15 19 35 16q50 -10 72 -10q33 0 51 22t18 54q0 41 -35.5 66.5t-82.5 25.5
q-19 0 -33 -2q-9 0 -24 16.5t-15 24.5q0 9 16 27q60 63 142 165q-8 -2 -29 -2q-110 0 -199.5 46t-142.5 122q-63 107 -63 236q0 86 28.5 157t73.5 119.5t111 92.5q53 36 134.5 61t145.5 25z" />
    <glyph glyph-name="egrave" unicode="&#xe8;" horiz-adv-x="847" 
d="M367 1341q14 0 30.5 -19.5t28.5 -51.5q54 -133 106 -297q8 -25 6 -46.5t-16 -21.5q-27 0 -51 33q-43 54 -105.5 155t-86.5 146q-17 34 -13 57q6 22 43 35q23 10 58 10zM494 834q61 0 120 -23t99 -63q78 -75 78 -181q0 -13 -14.5 -31t-31.5 -18h-446q-19 0 -23 -14
q-8 -21 -8 -74q0 -37 18.5 -95.5t45.5 -94.5q38 -49 98.5 -76t128.5 -27q129 0 184 72q16 24 27 24q6 0 12 -8.5t6 -17.5q0 -25 -16 -51q-115 -179 -328 -179q-173 0 -275.5 116.5t-102.5 295.5q0 127 68 238t192 168q80 39 168 39zM479 776q-63 0 -117 -51.5t-73 -122.5
q-1 -7 3.5 -13.5t10.5 -6.5h219q28 0 50 17.5t22 51.5q0 44 -36.5 84.5t-78.5 40.5z" />
    <glyph glyph-name="eacute" unicode="&#xe9;" horiz-adv-x="847" 
d="M543 1298q5 13 23 25t36 12q84 0 88 -30q5 -27 -14 -58q-30 -55 -102 -161t-105 -144q-33 -33 -55 -33q-13 0 -15 18t7 46q18 54 65 165t72 160zM494 834q61 0 120 -23t99 -63q78 -75 78 -181q0 -13 -14.5 -31t-31.5 -18h-446q-19 0 -23 -14q-8 -21 -8 -74
q0 -37 18.5 -95.5t45.5 -94.5q38 -49 98.5 -76t128.5 -27q129 0 184 72q16 24 27 24q6 0 12 -8.5t6 -17.5q0 -25 -16 -51q-115 -179 -328 -179q-173 0 -275.5 116.5t-102.5 295.5q0 127 68 238t192 168q80 39 168 39zM479 776q-63 0 -117 -51.5t-73 -122.5q-1 -7 3.5 -13.5
t10.5 -6.5h219q28 0 50 17.5t22 51.5q0 44 -36.5 84.5t-78.5 40.5z" />
    <glyph glyph-name="ecircumflex" unicode="&#xea;" horiz-adv-x="847" 
d="M455 1333q21 0 65 -80q103 -192 139 -264q4 -9 7.5 -20t5.5 -24.5t-2.5 -22.5t-16.5 -9t-32 15t-29 28q-25 36 -73 99.5t-56 74.5q-5 6 -13.5 6t-11.5 -6q-126 -170 -131 -176q-8 -12 -24 -24t-31 -12q-11 0 -15 18t3 37q15 35 40 83.5t60 113t51 94.5q39 69 64 69z
M494 834q61 0 120 -23t99 -63q78 -75 78 -181q0 -13 -14.5 -31t-31.5 -18h-446q-19 0 -23 -14q-8 -21 -8 -74q0 -37 18.5 -95.5t45.5 -94.5q38 -49 98.5 -76t128.5 -27q129 0 184 72q16 24 27 24q6 0 12 -8.5t6 -17.5q0 -25 -16 -51q-115 -179 -328 -179
q-173 0 -275.5 116.5t-102.5 295.5q0 127 68 238t192 168q80 39 168 39zM479 776q-63 0 -117 -51.5t-73 -122.5q-1 -7 3.5 -13.5t10.5 -6.5h219q28 0 50 17.5t22 51.5q0 44 -36.5 84.5t-78.5 40.5z" />
    <glyph glyph-name="edieresis" unicode="&#xeb;" horiz-adv-x="847" 
d="M266 1239q46 0 75.5 -38t29.5 -81q0 -50 -37 -81t-80 -31q-41 0 -74 29.5t-33 84.5q0 45 33.5 81t85.5 36zM653 1239q44 0 74.5 -38.5t30.5 -80.5q0 -48 -37.5 -80t-79.5 -32t-75.5 30t-33.5 84q0 45 35.5 81t85.5 36zM494 834q61 0 120 -23t99 -63q78 -75 78 -181
q0 -13 -14.5 -31t-31.5 -18h-446q-19 0 -23 -14q-8 -21 -8 -74q0 -37 18.5 -95.5t45.5 -94.5q38 -49 98.5 -76t128.5 -27q129 0 184 72q16 24 27 24q6 0 12 -8.5t6 -17.5q0 -25 -16 -51q-115 -179 -328 -179q-173 0 -275.5 116.5t-102.5 295.5q0 127 68 238t192 168
q80 39 168 39zM479 776q-63 0 -117 -51.5t-73 -122.5q-1 -7 3.5 -13.5t10.5 -6.5h219q28 0 50 17.5t22 51.5q0 44 -36.5 84.5t-78.5 40.5z" />
    <glyph glyph-name="igrave" unicode="&#xec;" horiz-adv-x="557" 
d="M172 1341q14 0 30.5 -19.5t28.5 -51.5q59 -144 107 -297q8 -25 6 -46.5t-16 -21.5q-13 0 -28.5 10.5t-23.5 22.5q-43 54 -105.5 155t-86.5 146q-16 32 -12 57q6 22 43 35q23 10 57 10zM86 727q0 11 15.5 22t39.5 15q50 10 146 41.5t100 32.5q7 0 14 -9t7 -14
q-11 -193 -11 -463q0 -63 4 -207q1 -42 18 -57t62 -29q45 -15 45 -39q0 -12 -17 -19t-40 -7q-3 0 -73.5 3t-96.5 3q-37 0 -111 -4t-88 -4q-24 0 -40.5 7.5t-16.5 18.5q0 21 53 37q34 10 53.5 26.5t22.5 33.5q12 43 12 319q0 159 -4 184q-2 19 -69 74q-25 25 -25 35z" />
    <glyph glyph-name="iacute" unicode="&#xed;" horiz-adv-x="557" 
d="M356 1298q5 13 23.5 25t36.5 12q84 0 88 -30q4 -26 -15 -58q-30 -55 -101.5 -161t-104.5 -144q-33 -33 -56 -33q-13 0 -15 18t7 46q18 54 65 165t72 160zM86 727q0 11 15.5 22t39.5 15q50 10 146 41.5t100 32.5q7 0 14 -9t7 -14q-11 -193 -11 -463q0 -63 4 -207
q1 -42 18 -57t62 -29q45 -15 45 -39q0 -12 -17 -19t-40 -7q-3 0 -73.5 3t-96.5 3q-37 0 -111 -4t-88 -4q-24 0 -40.5 7.5t-16.5 18.5q0 21 53 37q34 10 53.5 26.5t22.5 33.5q12 43 12 319q0 159 -4 184q-2 19 -69 74q-25 25 -25 35z" />
    <glyph glyph-name="icircumflex" unicode="&#xee;" horiz-adv-x="557" 
d="M283 1333q21 0 65 -80q103 -192 139 -264q4 -9 7.5 -20t5.5 -24.5t-2.5 -22.5t-16.5 -9t-32 15t-29 28q-25 36 -73 99.5t-56 74.5q-5 6 -13.5 6t-11.5 -6q-126 -170 -131 -176q-8 -12 -24 -24t-31 -12q-11 0 -15 18t3 37q15 35 40 83.5t60 113t51 94.5q39 69 64 69z
M86 727q0 11 15.5 22t39.5 15q50 10 146 41.5t100 32.5q7 0 14 -9t7 -14q-11 -193 -11 -463q0 -63 4 -207q1 -42 18 -57t62 -29q45 -15 45 -39q0 -12 -17 -19t-40 -7q-3 0 -73.5 3t-96.5 3q-37 0 -111 -4t-88 -4q-24 0 -40.5 7.5t-16.5 18.5q0 21 53 37q34 10 53.5 26.5
t22.5 33.5q12 43 12 319q0 159 -4 184q-2 19 -69 74q-25 25 -25 35z" />
    <glyph glyph-name="idieresis" unicode="&#xef;" horiz-adv-x="557" 
d="M102 1239q46 0 75.5 -38t29.5 -81q0 -50 -37 -81t-80 -31q-41 0 -73.5 29.5t-32.5 84.5q0 45 33 81t85 36zM489 1239q44 0 74.5 -38.5t30.5 -80.5q0 -48 -37.5 -80t-79.5 -32q-41 0 -74.5 30t-33.5 84q0 46 35 81.5t85 35.5zM86 727q0 11 15.5 22t39.5 15q50 10 146 41.5
t100 32.5q7 0 14 -9t7 -14q-11 -193 -11 -463q0 -63 4 -207q1 -42 18 -57t62 -29q45 -15 45 -39q0 -12 -17 -19t-40 -7q-3 0 -73.5 3t-96.5 3q-37 0 -111 -4t-88 -4q-24 0 -40.5 7.5t-16.5 18.5q0 21 53 37q34 10 53.5 26.5t22.5 33.5q12 43 12 319q0 159 -4 184
q-2 19 -69 74q-25 25 -25 35z" />
    <glyph glyph-name="eth" unicode="&#xf0;" horiz-adv-x="1021" 
d="M129 1411q0 14 16.5 25.5t32.5 11.5q90 -1 208.5 -53t225.5 -127q4 -3 17 -3.5t16 1.5q35 19 205 106q20 7 20 -8q14 -28 11 -39q0 -23 -33 -39q-16 -8 -64.5 -33.5t-76.5 -40.5q-4 -3 -5.5 -11t0.5 -11q119 -131 184.5 -305t65.5 -346q0 -187 -60 -310t-144 -176
q-116 -78 -238 -78q-203 0 -325 121.5t-122 300.5q0 138 76 250q61 87 166 140t238 53q39 0 110 -17q6 0 11 5.5t4 11.5q-26 152 -119 272q-6 10 -21 6q-34 -16 -112 -53t-111 -53q-6 -5 -18 -5.5t-17 5.5q-18 27 -18 35q3 12 14 20q123 65 207 107q5 2 6.5 7.5t-2.5 10.5
q-171 160 -311 192q-11 2 -24 10t-13 17zM518 766q-36 0 -73 -23.5t-62 -58.5q-68 -107 -68 -281q0 -87 29 -169t81 -135.5t112 -53.5q25 0 43.5 7t34.5 24t26 32.5t27 45.5q20 37 34.5 122t14.5 156q0 188 -47 252q-29 34 -70 58t-82 24z" />
    <glyph glyph-name="ntilde" unicode="&#xf1;" horiz-adv-x="1093" 
d="M401 1044q-8 0 -18 -9t-25.5 -29.5t-19.5 -24.5q-8 -8 -19 -8q-5 0 -20.5 16.5t-15.5 20.5t19 33t56 70t74 63q8 7 19.5 9.5t15.5 0.5q90 -21 197 -21q48 0 69 13q10 8 22 20t24 25.5t16 17.5q4 6 24.5 -10.5t20.5 -24.5q0 -9 -9 -16q-17 -17 -78 -82.5t-65 -69.5
q-16 -16 -26 -16q-11 0 -110 11t-151 11zM100 717q0 9 13 24.5t24 20.5q101 30 166 61q64 31 70 31t14 -12t8 -19q0 -12 -1 -47t-1 -43q0 -5 3.5 -7.5t7.5 -2.5h4q149 111 260 111q116 0 188 -82q74 -83 74 -248q0 -286 6 -373q3 -26 19 -43t53 -27q53 -14 53 -36
q0 -12 -17 -20.5t-43 -8.5q-23 0 -90 2t-96 2q-28 0 -89 -3t-73 -3q-55 0 -55 29q0 19 49 34q35 13 47 33.5t15 71.5q4 68 4 381q0 33 -12 68.5t-33 54.5q-19 16 -53 29.5t-64 13.5q-76 0 -135 -41q-15 -12 -21 -45q-1 -25 0.5 -252.5t3.5 -247.5q2 -24 15 -37t57 -27
q35 -16 35 -34q0 -11 -16 -20t-41 -9q-19 0 -77.5 2t-80.5 2q-43 0 -111 -3t-80 -3q-26 0 -40.5 8.5t-14.5 22.5q0 21 43 32q51 17 65 37t19 78q10 102 10 432q0 17 -12.5 35t-46.5 49q-23 23 -23 29z" />
    <glyph glyph-name="ograve" unicode="&#xf2;" horiz-adv-x="1032" 
d="M412 1343q14 0 30.5 -19.5t28.5 -51.5q59 -144 107 -297q8 -25 5.5 -46.5t-16.5 -21.5q-27 0 -51 33q-43 54 -105.5 155t-86.5 146q-17 34 -13 57q6 22 43 35q23 10 58 10zM535 834q78 0 154.5 -30t138.5 -83t100.5 -135t38.5 -178q0 -118 -57 -211t-126 -138
q-120 -84 -282 -84q-69 0 -147.5 30t-135.5 77q-67 55 -110 142.5t-43 172.5q0 102 39 183.5t102 134.5q56 48 140.5 83.5t187.5 35.5zM496 766q-53 0 -101 -45q-84 -77 -84 -268q0 -117 25 -197q31 -102 93 -157.5t130 -55.5q17 0 42.5 13.5t47.5 37.5q33 43 54.5 119.5
t21.5 161.5q0 77 -19.5 162.5t-62.5 146.5q-65 82 -147 82z" />
    <glyph glyph-name="oacute" unicode="&#xf3;" horiz-adv-x="1032" 
d="M594 1298q5 13 23 25t36 12q84 0 88 -30q5 -27 -14 -58q-30 -55 -102 -161t-105 -144q-33 -33 -55 -33q-13 0 -15 18t7 46q18 54 65 165t72 160zM535 834q78 0 154.5 -30t138.5 -83t100.5 -135t38.5 -178q0 -118 -57 -211t-126 -138q-120 -84 -282 -84q-69 0 -147.5 30
t-135.5 77q-67 55 -110 142.5t-43 172.5q0 102 39 183.5t102 134.5q56 48 140.5 83.5t187.5 35.5zM496 766q-53 0 -101 -45q-84 -77 -84 -268q0 -117 25 -197q31 -102 93 -157.5t130 -55.5q17 0 42.5 13.5t47.5 37.5q33 43 54.5 119.5t21.5 161.5q0 77 -19.5 162.5
t-62.5 146.5q-65 82 -147 82z" />
    <glyph glyph-name="ocircumflex" unicode="&#xf4;" horiz-adv-x="1032" 
d="M514 1333q22 0 66 -80q103 -192 139 -264q4 -9 7.5 -20t5.5 -24.5t-2.5 -22.5t-16.5 -9t-32.5 15.5t-29.5 27.5q-25 36 -73 99.5t-56 74.5q-4 6 -12.5 6t-11.5 -6q-126 -170 -131 -176q-8 -12 -24.5 -24t-31.5 -12q-11 0 -15 18t3 37q15 35 40.5 84t60.5 112.5t51 94.5
q39 69 63 69zM535 834q78 0 154.5 -30t138.5 -83t100.5 -135t38.5 -178q0 -118 -57 -211t-126 -138q-120 -84 -282 -84q-69 0 -147.5 30t-135.5 77q-67 55 -110 142.5t-43 172.5q0 102 39 183.5t102 134.5q56 48 140.5 83.5t187.5 35.5zM496 766q-53 0 -101 -45
q-84 -77 -84 -268q0 -117 25 -197q31 -102 93 -157.5t130 -55.5q17 0 42.5 13.5t47.5 37.5q33 43 54.5 119.5t21.5 161.5q0 77 -19.5 162.5t-62.5 146.5q-65 82 -147 82z" />
    <glyph glyph-name="otilde" unicode="&#xf5;" horiz-adv-x="1032" 
d="M362 1040q-8 0 -18 -9t-25.5 -29.5t-19.5 -24.5q-8 -8 -18 -8q-5 0 -21 16.5t-16 20.5t19 33t56 69.5t74 62.5q8 7 19.5 10t15.5 1q90 -21 197 -21q48 0 69 13q10 8 22 20t24 25.5t16 17.5q4 6 24.5 -10.5t20.5 -24.5q0 -10 -8 -16q-17 -17 -78.5 -82.5t-65.5 -69.5
q-16 -16 -26 -16q-11 0 -110 11t-151 11zM535 834q78 0 154.5 -30t138.5 -83t100.5 -135t38.5 -178q0 -118 -57 -211t-126 -138q-120 -84 -282 -84q-69 0 -147.5 30t-135.5 77q-67 55 -110 142.5t-43 172.5q0 102 39 183.5t102 134.5q56 48 140.5 83.5t187.5 35.5zM496 766
q-53 0 -101 -45q-84 -77 -84 -268q0 -117 25 -197q31 -102 93 -157.5t130 -55.5q17 0 42.5 13.5t47.5 37.5q33 43 54.5 119.5t21.5 161.5q0 77 -19.5 162.5t-62.5 146.5q-65 82 -147 82z" />
    <glyph glyph-name="odieresis" unicode="&#xf6;" horiz-adv-x="1032" 
d="M317 1239q46 0 75.5 -38t29.5 -81q0 -50 -37 -81t-80 -31q-41 0 -73.5 29.5t-32.5 84.5q0 45 33 81t85 36zM705 1239q44 0 74 -38.5t30 -80.5q0 -48 -37.5 -80t-79.5 -32q-41 0 -74.5 30t-33.5 84q0 45 35.5 81t85.5 36zM535 834q78 0 154.5 -30t138.5 -83t100.5 -135
t38.5 -178q0 -118 -57 -211t-126 -138q-120 -84 -282 -84q-69 0 -147.5 30t-135.5 77q-67 55 -110 142.5t-43 172.5q0 102 39 183.5t102 134.5q56 48 140.5 83.5t187.5 35.5zM496 766q-53 0 -101 -45q-84 -77 -84 -268q0 -117 25 -197q31 -102 93 -157.5t130 -55.5
q17 0 42.5 13.5t47.5 37.5q33 43 54.5 119.5t21.5 161.5q0 77 -19.5 162.5t-62.5 146.5q-65 82 -147 82z" />
    <glyph glyph-name="divide" unicode="&#xf7;" horiz-adv-x="1277" 
d="M637 299q48 0 81.5 -34.5t33.5 -78.5q0 -51 -33 -87t-82 -36q-52 0 -85.5 35.5t-33.5 87.5q0 44 34 78.5t85 34.5zM637 735q-45 0 -80 34t-35 81t35.5 84t79.5 37q51 0 85 -36t34 -85q0 -48 -33.5 -81.5t-85.5 -33.5zM1130 582q12 0 17.5 -4.5t5.5 -20.5
q0 -37 -9.5 -67.5t-19.5 -30.5h-962q-39 0 -39 30q0 25 8 59t19 34h980z" />
    <glyph glyph-name="oslash" unicode="&#xf8;" horiz-adv-x="1040" 
d="M539 834q116 0 209 -52h2q3 -1 5 -1.5t5 0.5t4 3l41 50q19 26 35 26q13 0 24 -10t13.5 -19.5t-0.5 -13.5q-12 -15 -27 -36t-27 -36q-5 -10 4 -16q148 -134 148 -326q0 -113 -56.5 -205.5t-125.5 -136.5q-59 -42 -135.5 -64t-149.5 -22q-96 0 -211 56q-4 2 -13 1t-10 -5
l-67 -80q-6 -6 -23 2q-16 11 -21 25.5t1 17.5q41 55 57 74q4 8 -4 16q-66 56 -108.5 138.5t-42.5 172.5q0 104 39 186t102 136q57 48 143 83.5t189 35.5zM385 145q71 -102 162 -102q60 0 119 63q33 43 52 121t19 152q0 98 -28 190q-1 4 -4 6.5t-5.5 3t-3.5 -0.5
q-12 -16 -130.5 -170.5t-180.5 -233.5q-5 -6 -5 -15t5 -14zM496 768q-52 0 -105 -49q-32 -30 -58 -106t-26 -169q0 -112 31 -196q0 -3 6.5 -6t9.5 0q39 52 147 191t163 214q3 5 2 12.5t-4 10.5q-73 98 -166 98z" />
    <glyph glyph-name="ugrave" unicode="&#xf9;" horiz-adv-x="1050" 
d="M389 1341q14 0 31 -20t29 -51q54 -133 106 -297q8 -25 6 -46.5t-16 -21.5q-27 0 -51 33q-43 54 -106.5 156t-86.5 145q-16 32 -12 57q6 22 43 35q23 10 57 10zM524 104q64 0 125 50q6 4 13.5 22t7.5 25l2 458q0 12 -9.5 26.5t-25.5 21.5q-5 2 -82 30q-11 3 -22 14.5
t-11 22.5q0 6 11.5 13.5t23.5 7.5q142 0 270 26q40 8 50 8q9 0 14.5 -11.5t5.5 -20.5q-3 -49 -6.5 -320t-3.5 -340q0 -5 1.5 -12.5t8 -16t16.5 -8.5q6 1 41.5 8t51.5 7q6 0 24 -54q2 -3 -7.5 -12.5t-16.5 -9.5q-57 -4 -209 -43q-95 -27 -107 -27q-6 0 -14 9.5t-8 19.5
q0 14 4 84q0 5 -2.5 9t-5.5 5.5t-5 -0.5q-104 -76 -143 -90q-68 -31 -131 -31q-137 0 -209 109q-10 14 -16 49.5t-6 59.5q0 261 -7 452q-1 28 -12 46t-22.5 24.5t-34.5 15.5q-15 7 -26 18.5t-11 24.5q0 8 9.5 15.5t23.5 7.5q25 0 93.5 5.5t127.5 11t61 5.5q5 0 11 -12t6 -19
q2 -104 1.5 -193t-2 -212.5t-1.5 -151.5q0 -53 39 -88q51 -39 114 -39z" />
    <glyph glyph-name="uacute" unicode="&#xfa;" horiz-adv-x="1050" 
d="M596 1286q5 13 23 25t36 12q83 0 88 -31q4 -26 -14 -57q-30 -55 -102 -161t-105 -144q-33 -33 -55 -33q-13 0 -15 18t7 46q18 54 65 165t72 160zM524 104q64 0 125 50q6 4 13.5 22t7.5 25l2 458q0 12 -9.5 26.5t-25.5 21.5q-5 2 -82 30q-11 3 -22 14.5t-11 22.5
q0 6 11.5 13.5t23.5 7.5q142 0 270 26q40 8 50 8q9 0 14.5 -11.5t5.5 -20.5q-3 -49 -6.5 -320t-3.5 -340q0 -5 1.5 -12.5t8 -16t16.5 -8.5q6 1 41.5 8t51.5 7q6 0 24 -54q2 -3 -7.5 -12.5t-16.5 -9.5q-57 -4 -209 -43q-95 -27 -107 -27q-6 0 -14 9.5t-8 19.5q0 14 4 84
q0 5 -2.5 9t-5.5 5.5t-5 -0.5q-104 -76 -143 -90q-68 -31 -131 -31q-137 0 -209 109q-10 14 -16 49.5t-6 59.5q0 261 -7 452q-1 28 -12 46t-22.5 24.5t-34.5 15.5q-15 7 -26 18.5t-11 24.5q0 8 9.5 15.5t23.5 7.5q25 0 93.5 5.5t127.5 11t61 5.5q5 0 11 -12t6 -19
q2 -104 1.5 -193t-2 -212.5t-1.5 -151.5q0 -53 39 -88q51 -39 114 -39z" />
    <glyph glyph-name="ucircumflex" unicode="&#xfb;" horiz-adv-x="1050" 
d="M514 1333q22 0 66 -80q103 -192 139 -264q4 -9 7.5 -20t5.5 -24.5t-2.5 -22.5t-16.5 -9t-32.5 15.5t-29.5 27.5q-25 36 -73 99.5t-56 74.5q-4 6 -12.5 6t-11.5 -6q-126 -170 -131 -176q-8 -12 -24.5 -24t-31.5 -12q-11 0 -15 18t3 37q15 35 40.5 84t60.5 112.5t51 94.5
q39 69 63 69zM524 104q64 0 125 50q6 4 13.5 22t7.5 25l2 458q0 12 -9.5 26.5t-25.5 21.5q-5 2 -82 30q-11 3 -22 14.5t-11 22.5q0 6 11.5 13.5t23.5 7.5q142 0 270 26q40 8 50 8q9 0 14.5 -11.5t5.5 -20.5q-3 -49 -6.5 -320t-3.5 -340q0 -5 1.5 -12.5t8 -16t16.5 -8.5
q6 1 41.5 8t51.5 7q6 0 24 -54q2 -3 -7.5 -12.5t-16.5 -9.5q-57 -4 -209 -43q-95 -27 -107 -27q-6 0 -14 9.5t-8 19.5q0 14 4 84q0 5 -2.5 9t-5.5 5.5t-5 -0.5q-104 -76 -143 -90q-68 -31 -131 -31q-137 0 -209 109q-10 14 -16 49.5t-6 59.5q0 261 -7 452q-1 28 -12 46
t-22.5 24.5t-34.5 15.5q-15 7 -26 18.5t-11 24.5q0 8 9.5 15.5t23.5 7.5q25 0 93.5 5.5t127.5 11t61 5.5q5 0 11 -12t6 -19q2 -104 1.5 -193t-2 -212.5t-1.5 -151.5q0 -53 39 -88q51 -39 114 -39z" />
    <glyph glyph-name="udieresis" unicode="&#xfc;" horiz-adv-x="1050" 
d="M313 1239q46 0 75.5 -38t29.5 -81q0 -50 -37 -81t-80 -31q-41 0 -73.5 29.5t-32.5 84.5q0 45 33 81t85 36zM700 1239q44 0 74.5 -38.5t30.5 -80.5q0 -48 -37.5 -80t-79.5 -32q-41 0 -74.5 30t-33.5 84q0 46 35 81.5t85 35.5zM524 104q64 0 125 50q6 4 13.5 22t7.5 25
l2 458q0 12 -9.5 26.5t-25.5 21.5q-5 2 -82 30q-11 3 -22 14.5t-11 22.5q0 6 11.5 13.5t23.5 7.5q142 0 270 26q40 8 50 8q9 0 14.5 -11.5t5.5 -20.5q-3 -49 -6.5 -320t-3.5 -340q0 -5 1.5 -12.5t8 -16t16.5 -8.5q6 1 41.5 8t51.5 7q6 0 24 -54q2 -3 -7.5 -12.5t-16.5 -9.5
q-57 -4 -209 -43q-95 -27 -107 -27q-6 0 -14 9.5t-8 19.5q0 14 4 84q0 5 -2.5 9t-5.5 5.5t-5 -0.5q-104 -76 -143 -90q-68 -31 -131 -31q-137 0 -209 109q-10 14 -16 49.5t-6 59.5q0 261 -7 452q-1 28 -12 46t-22.5 24.5t-34.5 15.5q-15 7 -26 18.5t-11 24.5q0 8 9.5 15.5
t23.5 7.5q25 0 93.5 5.5t127.5 11t61 5.5q5 0 11 -12t6 -19q2 -104 1.5 -193t-2 -212.5t-1.5 -151.5q0 -53 39 -88q51 -39 114 -39z" />
    <glyph glyph-name="yacute" unicode="&#xfd;" horiz-adv-x="872" 
d="M565 1298q5 13 23.5 25t36.5 12q84 0 88 -30q4 -26 -15 -58q-30 -55 -101.5 -161t-104.5 -144q-33 -33 -56 -33q-13 0 -15 18t7 46q18 54 65 165t72 160zM-27 788q0 8 14 16.5t36 8.5q37 0 105 -4t97 -4q35 0 95 2t71 2q16 0 32.5 -7t16.5 -18q0 -23 -49 -39
q-40 -12 -46.5 -27t7.5 -54q22 -71 77.5 -206t80.5 -182q3 -5 9.5 -3.5t10.5 10.5q25 60 81 198.5t67 171.5q11 38 -6.5 60t-71.5 37q-19 6 -31 15.5t-12 16.5q0 27 51 27q21 0 64.5 -2t56.5 -2t63.5 4t79.5 4q43 0 43 -25q0 -21 -49 -36q-31 -9 -55 -32t-51 -69
q-70 -146 -232 -549q-39 -98 -119.5 -301.5t-101.5 -255.5q-11 -31 -47.5 -50t-69.5 -19q-52 0 -80 35t-28 77q0 32 25 66.5t67 34.5q5 0 43 -1t51 -1q23 0 37 34q29 53 90 232q9 30 2 43q-16 27 -35 88q-42 107 -127 307t-124 281q-19 34 -35 48.5t-56 27.5q-47 16 -47 40z
" />
    <glyph glyph-name="thorn" unicode="&#xfe;" horiz-adv-x="1034" 
d="M152 154q0 76 -1 244t-1 198q0 117 -4 336t-7 272q-3 35 -30 53q-12 9 -24.5 18.5t-20.5 14.5t-14.5 10t-9.5 8.5t-3 6.5q0 11 13.5 23t23.5 16q13 3 50 12t60 14.5t54.5 16t54.5 22.5q51 25 61 25q5 0 14 -11.5t9 -19.5q-5 -88 -10 -651q0 -4 6.5 -9t9.5 -3
q32 19 117 55q55 22 143 22q61 0 126 -32t105 -80q103 -114 103 -269q0 -217 -176 -356q-131 -104 -314 -104q-60 0 -98 6q-6 1 -12 -10t-6 -19q-2 -70 1 -172t7 -135q5 -46 23 -70t75 -41q55 -17 55 -39q0 -12 -18.5 -20t-38.5 -8q-26 0 -129.5 5t-142.5 5q-22 0 -70 -2
t-98 -2q-25 0 -41.5 9.5t-16.5 21.5q0 21 54 34q72 15 89.5 42.5t22.5 121.5q9 324 9 441zM506 715q-75 0 -109 -19q-6 -5 -13.5 -21t-8.5 -30q-15 -113 -10 -377q3 -58 20 -92q32 -53 82 -86t86 -33q35 0 68 23q38 27 64.5 75t37.5 98t15.5 83t4.5 53q0 30 -5 64t-25 87
t-54 91q-33 36 -80 60t-73 24z" />
    <glyph glyph-name="ydieresis" unicode="&#xff;" horiz-adv-x="872" 
d="M281 1239q46 0 75 -38t29 -81q0 -50 -37 -81t-80 -31q-41 0 -73.5 29.5t-32.5 84.5q0 45 33.5 81t85.5 36zM668 1239q44 0 74 -38.5t30 -80.5q0 -48 -37.5 -80t-79.5 -32q-41 0 -74.5 30t-33.5 84q0 45 35.5 81t85.5 36zM-27 788q0 8 14 16.5t36 8.5q37 0 105 -4t97 -4
q35 0 95 2t71 2q16 0 32.5 -7t16.5 -18q0 -23 -49 -39q-40 -12 -46.5 -27t7.5 -54q22 -71 77.5 -206t80.5 -182q3 -5 9.5 -3.5t10.5 10.5q25 60 81 198.5t67 171.5q11 38 -6.5 60t-71.5 37q-19 6 -31 15.5t-12 16.5q0 27 51 27q21 0 64.5 -2t56.5 -2t63.5 4t79.5 4
q43 0 43 -25q0 -21 -49 -36q-31 -9 -55 -32t-51 -69q-70 -146 -232 -549q-39 -98 -119.5 -301.5t-101.5 -255.5q-11 -31 -47.5 -50t-69.5 -19q-52 0 -80 35t-28 77q0 32 25 66.5t67 34.5q5 0 43 -1t51 -1q23 0 37 34q29 53 90 232q9 30 2 43q-16 27 -35 88q-42 107 -127 307
t-124 281q-19 34 -35 48.5t-56 27.5q-47 16 -47 40z" />
    <glyph glyph-name="Amacron" unicode="&#x100;" horiz-adv-x="1386" 
d="M729 1331q9 0 16.5 -8.5t18.5 -36.5q20 -53 82 -229q196 -548 293 -791q47 -115 84 -152.5t98 -54.5q53 -15 53 -36q0 -12 -17 -21.5t-50 -9.5q-24 0 -130 4t-139 4q-36 0 -105.5 -2t-94.5 -2q-30 0 -48 8.5t-18 22.5q0 9 13 19t40 15q39 9 59 24.5t22.5 28.5t0.5 33
q-1 9 -2.5 19.5t-5.5 25t-7.5 26.5t-10 33t-11 33.5t-13.5 38.5t-13.5 38t-15.5 42.5t-15 42.5q-2 8 -17 19.5t-32 11.5q-227 2 -344 -6q-10 0 -23 -20q-88 -219 -88 -297q0 -33 21.5 -55t75.5 -36q59 -14 59 -40q0 -12 -18.5 -19.5t-43.5 -7.5q-14 0 -67 2t-96 2
q-46 0 -120 -4t-83 -4q-60 0 -60 24q0 26 52 41q40 11 64.5 23t45.5 35t36 48.5t40 76.5q27 54 174 427t182 457q11 22 11 37q0 14 4 17q22 22 59 66t47 61q17 26 37 26zM760 575q2 0 5.5 6t2.5 11q-24 73 -76.5 217.5t-73.5 194.5q-2 7 -6 8t-8.5 -3t-7.5 -12
q-136 -360 -147 -405q-1 -7 3.5 -14t10.5 -7q160 4 297 4zM477 1559l463 6q6 0 10 -17.5t4 -36.5q0 -30 -13.5 -55.5t-25.5 -25.5h-452q-5 0 -12 11t-7 21q0 26 12 61.5t21 35.5z" />
    <glyph glyph-name="amacron" unicode="&#x101;" horiz-adv-x="856" 
d="M207 1169l434 7q6 0 10 -17.5t4 -34.5q0 -30 -13.5 -57t-23.5 -27l-423 -2q-4 0 -10.5 11.5t-6.5 23.5q0 21 6 44.5t13 37.5t10 14zM446 834q137 0 213 -111q46 -61 46 -176q0 -47 -4.5 -194.5t-4.5 -151.5q0 -40 23 -61t53 -21q12 0 72 24q6 4 12 -2q6 -12 6 -28
q0 -36 -66.5 -88t-144.5 -52q-115 0 -153 99q-1 6 -8.5 8.5t-10.5 -0.5q-50 -36 -162 -86q-49 -17 -90 -17q-59 0 -108 61.5t-49 145.5q0 53 36 105q5 7 11.5 13.5t12.5 10.5t14 8.5t13 6.5t13 5.5t10 4.5q9 4 279 84q17 6 27 15t10 16q2 16 3.5 77t0.5 80q-2 45 -39 88
t-99 43q-45 0 -65 -14q-12 -6 -12 -94q0 -10 -9 -19q-10 -10 -90 -46t-90 -36q-9 0 -17.5 10t-8.5 19q0 45 39 91t133 106q52 33 114.5 54.5t89.5 21.5zM389 100q14 0 39.5 8t38.5 17q7 4 12.5 18t5.5 21q9 65 9 182q0 6 -5.5 13.5t-9.5 7.5q-26 0 -82 -18.5t-84 -35.5
q-21 -15 -29 -30t-8 -52q0 -61 38 -96t75 -35z" />
    <glyph glyph-name="Abreve" unicode="&#x102;" horiz-adv-x="1386" 
d="M729 1331q9 0 16.5 -8.5t18.5 -36.5q20 -53 82 -229q196 -548 293 -791q47 -115 84 -152.5t98 -54.5q53 -15 53 -36q0 -12 -17 -21.5t-50 -9.5q-24 0 -130 4t-139 4q-36 0 -105.5 -2t-94.5 -2q-30 0 -48 8.5t-18 22.5q0 9 13 19t40 15q39 9 59 24.5t22.5 28.5t0.5 33
q-1 9 -2.5 19.5t-5.5 25t-7.5 26.5t-10 33t-11 33.5t-13.5 38.5t-13.5 38t-15.5 42.5t-15 42.5q-2 8 -17 19.5t-32 11.5q-227 2 -344 -6q-10 0 -23 -20q-88 -219 -88 -297q0 -33 21.5 -55t75.5 -36q59 -14 59 -40q0 -12 -18.5 -19.5t-43.5 -7.5q-14 0 -67 2t-96 2
q-46 0 -120 -4t-83 -4q-60 0 -60 24q0 26 52 41q40 11 64.5 23t45.5 35t36 48.5t40 76.5q27 54 174 427t182 457q11 22 11 37q0 14 4 17q22 22 59 66t47 61q17 26 37 26zM760 575q2 0 5.5 6t2.5 11q-24 73 -76.5 217.5t-73.5 194.5q-2 7 -6 8t-8.5 -3t-7.5 -12
q-136 -360 -147 -405q-1 -7 3.5 -14t10.5 -7q160 4 297 4zM692 1395q-99 0 -170.5 58.5t-81.5 162.5q-2 15 5 28t18 13q9 0 22.5 -9.5t20.5 -21.5q63 -100 194 -100q139 0 205 94q21 31 43 31q7 0 12 -11.5t3 -19.5q-3 -24 -12 -50.5t-30 -58.5t-50 -57t-75.5 -42
t-103.5 -17z" />
    <glyph glyph-name="abreve" unicode="&#x103;" horiz-adv-x="856" 
d="M401 965q-86 0 -143.5 58t-60.5 179q-1 24 12.5 43t26.5 19q22 0 28 -37q33 -133 148 -133q49 0 92 33.5t65 103.5q3 12 19 22.5t28 10.5q8 0 13.5 -16t5.5 -23q-1 -29 -8 -60.5t-24.5 -68t-42.5 -65t-66.5 -47.5t-92.5 -19zM446 834q137 0 213 -111q46 -61 46 -176
q0 -47 -4.5 -194.5t-4.5 -151.5q0 -40 23 -61t53 -21q12 0 72 24q6 4 12 -2q6 -12 6 -28q0 -36 -66.5 -88t-144.5 -52q-115 0 -153 99q-1 6 -8.5 8.5t-10.5 -0.5q-50 -36 -162 -86q-49 -17 -90 -17q-59 0 -108 61.5t-49 145.5q0 53 36 105q5 7 11.5 13.5t12.5 10.5t14 8.5
t13 6.5t13 5.5t10 4.5q9 4 279 84q17 6 27 15t10 16q2 16 3.5 77t0.5 80q-2 45 -39 88t-99 43q-45 0 -65 -14q-12 -6 -12 -94q0 -10 -9 -19q-10 -10 -90 -46t-90 -36q-9 0 -17.5 10t-8.5 19q0 45 39 91t133 106q52 33 114.5 54.5t89.5 21.5zM389 100q14 0 39.5 8t38.5 17
q7 4 12.5 18t5.5 21q9 65 9 182q0 6 -5.5 13.5t-9.5 7.5q-26 0 -82 -18.5t-84 -35.5q-21 -15 -29 -30t-8 -52q0 -61 38 -96t75 -35z" />
    <glyph glyph-name="Aogonek" unicode="&#x104;" horiz-adv-x="1386" 
d="M729 1331q9 0 16.5 -8.5t18.5 -36.5q20 -53 82 -229q196 -548 293 -791q33 -80 63.5 -124t54 -58.5t64.5 -26.5q53 -12 53 -37q0 -12 -17 -21t-50 -9q-19 0 -109 4q-75 -73 -120.5 -152t-45.5 -143q0 -43 27.5 -71.5t73.5 -28.5q69 0 118 34q23 8 23 -20
q0 -12 -6.5 -29.5t-10.5 -21.5q-33 -46 -90.5 -80.5t-128.5 -34.5q-94 0 -141 56.5t-47 125.5q0 86 73.5 184t200.5 185q-35 2 -86 2q-36 0 -105.5 -2t-94.5 -2q-30 0 -48 8.5t-18 22.5q0 9 13 19t40 15q39 9 59 24.5t22.5 28.5t0.5 33q-1 9 -2.5 19.5t-5.5 25t-7.5 26.5
t-10 33t-11 33.5t-13.5 38.5t-13.5 38t-15.5 42.5t-15 42.5q-2 8 -19 19.5t-34 11.5q-226 0 -342 -8q-8 0 -21 -20q-88 -216 -88 -295q0 -33 21 -55t76 -38q59 -14 59 -41q0 -10 -18.5 -18t-43.5 -8q-14 0 -67 3t-96 3q-46 0 -120 -5t-83 -5q-60 0 -60 24q0 29 52 41
q75 22 107.5 56t78.5 129q27 54 174 427t182 457q11 22 11 37q0 14 4 17q22 22 59 66t47 61q17 26 37 26zM758 575q2 0 6.5 6t3.5 11q-24 73 -76.5 217.5t-73.5 194.5q-2 7 -6 8t-8.5 -3t-7.5 -12q-136 -360 -145 -403q-3 -10 3 -17.5t13 -7.5q234 6 291 6z" />
    <glyph glyph-name="aogonek" unicode="&#x105;" horiz-adv-x="856" 
d="M453 834q75 0 128 -30t81 -71q26 -38 38.5 -74t12.5 -94q0 -47 -4 -197.5t-4 -154.5q0 -94 73 -94q38 0 66 22q11 7 18 0q6 -12 6 -28q0 -35 -80 -93q-85 -70 -138.5 -148.5t-53.5 -145.5q0 -37 27 -67t65 -30q66 0 111 29q9 5 15.5 2t6.5 -18q0 -11 -6.5 -29.5
t-9.5 -22.5q-31 -44 -86 -77t-123 -33q-87 0 -133.5 55.5t-46.5 120.5q0 140 241 317q-58 3 -96 24.5t-55 74.5q-8 18 -19 10q-100 -57 -143 -76q-65 -26 -106 -26q-58 0 -112 59.5t-54 142.5q0 69 32 109q22 28 80 49q19 8 129 38.5t131 37.5q36 13 47 21t11 18
q2 14 2.5 78t-0.5 85q0 43 -37.5 83t-97.5 40q-50 0 -72 -16q-8 -5 -8 -82q0 -21 -8 -29q-7 -7 -87.5 -42t-89.5 -35t-22.5 13.5t-13.5 22.5q0 41 57.5 95.5t140.5 103.5q51 30 104.5 46t82.5 16zM395 104q34 0 76 31q13 10 17 18t6 27q4 53 4 174q0 16 -15 13
q-75 -14 -141 -43q-32 -13 -46.5 -34.5t-14.5 -64.5q0 -55 37.5 -88t76.5 -33z" />
    <glyph glyph-name="Cacute" unicode="&#x106;" horiz-adv-x="1454" 
d="M872 1331q131 0 267 -33q96 -23 147 -30q11 0 21 -17t10 -39q3 -84 10 -188q2 -33 -8 -55.5t-27 -22.5q-8 0 -20 16.5t-19 38.5q-33 105 -86 146q-142 119 -303 119q-119 0 -212 -45t-150.5 -124t-87 -180.5t-29.5 -220.5q0 -206 70 -346q54 -107 133.5 -178t159.5 -99
t165 -28q120 0 199 47q107 61 178 187q35 63 56 63q15 0 18.5 -29.5t-2.5 -46.5q-17 -85 -62 -178q-5 -14 -27.5 -34.5t-45.5 -30.5q-174 -60 -359 -60q-108 0 -209 22t-176 58.5t-129 74.5t-88 77q-172 198 -172 460q0 88 22.5 170.5t58.5 144t72 104.5t72 73
q224 184 553 184zM975 1694q12 10 34.5 13t30.5 -1q29 -13 56.5 -37.5t27.5 -42.5q0 -12 -15 -28.5t-32 -24.5q-208 -99 -329 -141q-51 -17 -70 2q-3 3 -1.5 11.5t8.5 20.5t17 21q70 65 273 207z" />
    <glyph glyph-name="cacute" unicode="&#x107;" horiz-adv-x="847" 
d="M545 1298q5 13 23 25t36 12q84 0 88 -30q5 -27 -14 -58q-30 -55 -102 -161t-105 -144q-33 -33 -55 -33q-13 0 -15 18t7 46q18 54 65 165t72 160zM559 823q52 0 113.5 -12.5t87.5 -32.5q35 -23 35 -73q0 -25 -34 -61t-46 -36q-35 0 -94 51q-6 5 -22.5 18.5t-23 19t-21 16
t-23.5 15t-21.5 10.5t-25 8t-25.5 2q-45 0 -88 -46q-37 -39 -58.5 -107.5t-21.5 -141.5q0 -137 65 -215q34 -47 91 -79t133 -32q85 0 196 68q8 5 17.5 -0.5t9.5 -16.5q0 -30 -33 -63q-56 -60 -140.5 -99t-174.5 -39q-106 0 -191 47t-131 117q-67 103 -67 238q0 223 204 356
q53 36 139.5 62t149.5 26z" />
    <glyph glyph-name="Ccircumflex" unicode="&#x108;" horiz-adv-x="1454" 
d="M872 1331q131 0 267 -33q96 -23 147 -30q11 0 21 -17t10 -39q3 -84 10 -188q2 -33 -8 -55.5t-27 -22.5q-8 0 -20 16.5t-19 38.5q-33 105 -86 146q-142 119 -303 119q-119 0 -212 -45t-150.5 -124t-87 -180.5t-29.5 -220.5q0 -206 70 -346q54 -107 133.5 -178t159.5 -99
t165 -28q120 0 199 47q107 61 178 187q35 63 56 63q15 0 18.5 -29.5t-2.5 -46.5q-17 -85 -62 -178q-5 -14 -27.5 -34.5t-45.5 -30.5q-174 -60 -359 -60q-108 0 -209 22t-176 58.5t-129 74.5t-88 77q-172 198 -172 460q0 88 22.5 170.5t58.5 144t72 104.5t72 73
q224 184 553 184zM829 1698q23 0 84 -51q70 -70 177 -164q6 -4 12.5 -13.5t10 -20t-1.5 -18.5t-21 -8q-22 0 -66 19q-82 39 -184 96q-20 8 -37 -2q-23 -13 -89.5 -43.5t-97.5 -46.5q-37 -21 -61 -21q-20 0 -17 20t33 48q104 91 177 156q56 49 81 49z" />
    <glyph glyph-name="ccircumflex" unicode="&#x109;" horiz-adv-x="847" 
d="M471 1333q22 0 66 -80q103 -192 139 -264q4 -9 7.5 -20t5.5 -24.5t-2.5 -22.5t-16.5 -9t-32.5 15.5t-29.5 27.5q-25 36 -73 99.5t-56 74.5q-5 6 -13 6t-11 -6q-126 -170 -131 -176q-8 -12 -24.5 -24t-31.5 -12q-11 0 -15 18t3 37q15 35 40.5 84t60.5 112.5t51 94.5
q39 69 63 69zM559 823q52 0 113.5 -12.5t87.5 -32.5q35 -23 35 -73q0 -25 -34 -61t-46 -36q-35 0 -94 51q-6 5 -22.5 18.5t-23 19t-21 16t-23.5 15t-21.5 10.5t-25 8t-25.5 2q-45 0 -88 -46q-37 -39 -58.5 -107.5t-21.5 -141.5q0 -137 65 -215q34 -47 91 -79t133 -32
q85 0 196 68q8 5 17.5 -0.5t9.5 -16.5q0 -30 -33 -63q-56 -60 -140.5 -99t-174.5 -39q-106 0 -191 47t-131 117q-67 103 -67 238q0 223 204 356q53 36 139.5 62t149.5 26z" />
    <glyph glyph-name="Cdotaccent" unicode="&#x10a;" horiz-adv-x="1454" 
d="M872 1331q131 0 267 -33q96 -23 147 -30q11 0 21 -17t10 -39q3 -84 10 -188q2 -33 -8 -55.5t-27 -22.5q-8 0 -20 16.5t-19 38.5q-33 105 -86 146q-142 119 -303 119q-119 0 -212 -45t-150.5 -124t-87 -180.5t-29.5 -220.5q0 -206 70 -346q54 -107 133.5 -178t159.5 -99
t165 -28q120 0 199 47q107 61 178 187q35 63 56 63q15 0 18.5 -29.5t-2.5 -46.5q-17 -85 -62 -178q-5 -14 -27.5 -34.5t-45.5 -30.5q-174 -60 -359 -60q-108 0 -209 22t-176 58.5t-129 74.5t-88 77q-172 198 -172 460q0 88 22.5 170.5t58.5 144t72 104.5t72 73
q224 184 553 184zM864 1686q51 0 81 -43t30 -91q0 -53 -40.5 -87.5t-84.5 -34.5q-43 0 -80 33t-37 93q0 48 38 89t93 41z" />
    <glyph glyph-name="cdotaccent" unicode="&#x10b;" horiz-adv-x="847" 
d="M502 1262q51 0 82.5 -42.5t31.5 -89.5q0 -52 -40.5 -86t-83.5 -34q-44 0 -80.5 31.5t-36.5 93.5q0 48 37 87.5t90 39.5zM559 823q52 0 113.5 -12.5t87.5 -32.5q35 -23 35 -73q0 -25 -34 -61t-46 -36q-35 0 -94 51q-6 5 -22.5 18.5t-23 19t-21 16t-23.5 15t-21.5 10.5
t-25 8t-25.5 2q-45 0 -88 -46q-37 -39 -58.5 -107.5t-21.5 -141.5q0 -137 65 -215q34 -47 91 -79t133 -32q85 0 196 68q8 5 17.5 -0.5t9.5 -16.5q0 -30 -33 -63q-56 -60 -140.5 -99t-174.5 -39q-106 0 -191 47t-131 117q-67 103 -67 238q0 223 204 356q53 36 139.5 62
t149.5 26z" />
    <glyph glyph-name="Ccaron" unicode="&#x10c;" horiz-adv-x="1454" 
d="M872 1331q131 0 267 -33q96 -23 147 -30q11 0 21 -17t10 -39q3 -84 10 -188q2 -33 -8 -55.5t-27 -22.5q-8 0 -20 16.5t-19 38.5q-33 105 -86 146q-142 119 -303 119q-119 0 -212 -45t-150.5 -124t-87 -180.5t-29.5 -220.5q0 -206 70 -346q54 -107 133.5 -178t159.5 -99
t165 -28q120 0 199 47q107 61 178 187q35 63 56 63q15 0 18.5 -29.5t-2.5 -46.5q-17 -85 -62 -178q-5 -14 -27.5 -34.5t-45.5 -30.5q-174 -60 -359 -60q-108 0 -209 22t-176 58.5t-129 74.5t-88 77q-172 198 -172 460q0 88 22.5 170.5t58.5 144t72 104.5t72 73
q224 184 553 184zM834 1423q-22 0 -84 52q-14 14 -75 69t-102 94q-6 4 -12.5 13.5t-10 20t2.5 18.5t22 8q7 0 18.5 -3t26 -8t17.5 -6q113 -57 184 -98q19 -8 39 0q24 15 92.5 47.5t91.5 44.5q37 21 64 21q20 0 17 -20t-33 -48q-27 -25 -92 -80.5t-87 -74.5q-57 -50 -79 -50z
" />
    <glyph glyph-name="ccaron" unicode="&#x10d;" horiz-adv-x="847" 
d="M471 913q-20 0 -65 82q-9 20 -59 111.5t-81 153.5q-4 8 -7.5 18.5t-5.5 23.5t2.5 22t16.5 9t32.5 -15.5t29.5 -27.5q28 -36 73.5 -99.5t53.5 -74.5q4 -6 13.5 -6.5t12.5 4.5q20 28 62.5 85.5t68.5 94.5q8 11 24.5 23t31.5 12q11 0 15 -17t-3 -36q-16 -38 -41 -87
t-59.5 -111.5t-50.5 -92.5q-40 -72 -64 -72zM559 823q52 0 113.5 -12.5t87.5 -32.5q35 -23 35 -73q0 -25 -34 -61t-46 -36q-35 0 -94 51q-6 5 -22.5 18.5t-23 19t-21 16t-23.5 15t-21.5 10.5t-25 8t-25.5 2q-45 0 -88 -46q-37 -39 -58.5 -107.5t-21.5 -141.5q0 -137 65 -215
q34 -47 91 -79t133 -32q85 0 196 68q8 5 17.5 -0.5t9.5 -16.5q0 -30 -33 -63q-56 -60 -140.5 -99t-174.5 -39q-106 0 -191 47t-131 117q-67 103 -67 238q0 223 204 356q53 36 139.5 62t149.5 26z" />
    <glyph glyph-name="Dcaron" unicode="&#x10e;" horiz-adv-x="1556" 
d="M725 1313q101 0 193 -19.5t159.5 -51.5t113.5 -62.5t81 -63.5q85 -82 138.5 -202.5t53.5 -243.5q0 -104 -30 -200.5t-79 -168.5t-103.5 -124t-110.5 -83q-91 -53 -214.5 -82.5t-254.5 -29.5q-168 0 -410 12q-61 2 -139 2q-32 0 -50 10t-18 23q0 11 17 21t37 13
q33 4 53.5 9.5t37.5 17t25.5 25t14.5 41.5t8 58t4 81q6 179 4 283q0 370 -6 473q-6 105 -25.5 137t-99.5 43q-18 3 -33.5 14t-15.5 21q0 12 16 21t39 9h107q44 0 224 8.5t263 8.5zM633 1241q-65 0 -107 -22q-16 -11 -16 -29q-8 -98 -8 -361v-297q0 -215 8 -335q4 -54 41 -91
q23 -21 68.5 -38t68.5 -17q162 0 307 121q91 76 141 211.5t50 286.5q0 111 -44 230t-120 196q-66 68 -172.5 106.5t-216.5 38.5zM700 1403q-23 0 -84 51q-15 15 -76 71t-100 93q-6 4 -12.5 13.5t-10 19.5t2.5 18t22 8q6 0 62 -16q113 -57 184 -98q19 -8 39 0
q24 15 92.5 47.5t91.5 44.5q11 6 32.5 13t31.5 7q20 0 17 -20q-4 -20 -34 -47q-28 -26 -94 -83t-84 -73q-23 -20 -47 -34.5t-33 -14.5z" />
    <glyph glyph-name="dcaron" unicode="&#x10f;" horiz-adv-x="1069" 
d="M561 829q80 0 113 -4q5 -1 9.5 5t6.5 14q7 53 4 196t-8 189q-1 9 -1.5 12t-5.5 14t-13 18.5t-25 19t-41 22.5q-29 13 -29 20q0 8 14 23t23 16q52 8 136 26.5t122 33.5q23 10 39 10q7 0 13.5 -13.5t5.5 -27.5q-19 -185 -19 -778q0 -279 6 -396q0 -59 5.5 -92t12.5 -42
t17 -9q7 0 48 4t55 4q5 0 8.5 -6.5t3.5 -9.5q0 -9 -17.5 -30.5t-25.5 -24.5q-173 -25 -217 -41q-70 -23 -90 -23q-8 0 -16.5 10t-8.5 19q0 6 2 33.5t2 44.5q0 7 -5.5 11.5t-8.5 2.5q-53 -43 -123.5 -69.5t-128.5 -26.5q-141 0 -246 98q-58 53 -85 130.5t-27 158.5
q0 251 221 381q56 34 136 55.5t138 21.5zM487 756q-58 0 -120 -62q-38 -40 -57 -113t-19 -137q0 -135 79.5 -238.5t194.5 -103.5q63 0 99 31q6 3 17 38.5t11 57.5q7 242 -2 355q-2 12 -13.5 40.5t-23.5 41.5q-39 47 -84.5 68.5t-81.5 21.5zM1139 1432q11 0 20.5 -14t9.5 -38
q0 -61 -22 -158.5t-51 -166.5q-5 -20 -20 -43t-27 -23q-23 0 -27 49q-4 198 -27 283q-2 4 2 17t11 18q23 23 64 49.5t67 26.5z" />
    <glyph glyph-name="Dcroat" unicode="&#x110;" horiz-adv-x="1556" 
d="M96 715h140q7 0 12.5 6.5t5.5 13.5q0 20 -2 135.5t-4 182.5q-3 101 -22.5 130.5t-102.5 47.5q-18 5 -32.5 15t-14.5 20q0 12 15 21t38 9h111q44 0 223 8.5t262 8.5q101 0 193.5 -20t161 -52.5t115 -63t81.5 -63.5q83 -80 135.5 -204t52.5 -242q0 -105 -30 -201t-79 -167
t-103 -122.5t-111 -83.5q-190 -110 -465 -110q-172 0 -414 12q-61 2 -141 2q-31 0 -47.5 10t-16.5 23q0 12 12 22t31 13q68 8 97.5 27.5t41 62.5t13.5 141q4 226 4 315q0 19 -10 19h-150q-8 0 -14 14.5t-6 32.5q0 7 6 22t14 15zM813 633l-297 -2q-6 0 -10 -5.5t-4 -11.5
q0 -308 8 -403q4 -47 12 -66.5t27 -38.5q24 -24 67 -38.5t80 -14.5q75 0 145 26t150 91q94 79 144.5 207t50.5 293q0 116 -44.5 232.5t-121.5 197.5q-66 66 -171 103.5t-216 37.5q-72 0 -98 -16q-12 -9 -25 -41q-8 -30 -8 -445q0 -7 4.5 -15.5t11.5 -8.5h295q11 0 20 -7.5
t9 -15.5q0 -16 -9.5 -37.5t-19.5 -21.5z" />
    <glyph glyph-name="dcroat" unicode="&#x111;" horiz-adv-x="1069" 
d="M905 625q0 -231 6 -402q3 -83 11 -109t26 -26q10 0 45.5 3.5t46.5 4.5q9 1 14 -5t5 -13q0 -9 -17 -30.5t-26 -24.5q-179 -26 -215 -39q-68 -25 -90 -25q-8 0 -16.5 9t-8.5 20q0 6 3 31t3 42q0 5 -3.5 9t-7.5 5.5t-5 0.5q-61 -41 -129.5 -67.5t-122.5 -26.5
q-141 0 -242 98q-59 54 -87.5 131.5t-28.5 157.5q0 251 221 381q54 33 132.5 56t141.5 23q69 0 113 -8q11 0 16 21q4 35 4 213q0 5 -4 9.5t-8 4.5q-25 0 -95.5 2t-97.5 2q-6 0 -15 7.5t-9 13.5q0 20 9 37.5t20 17.5q35 0 96.5 1t89.5 1q3 0 7.5 5t4.5 11q0 12 -1 38.5
t-1 27.5q-2 26 -17 45t-63 37q-11 4 -19.5 10t-12 11t-3.5 7q0 8 13.5 21t23.5 14q194 33 236 52q35 14 55 14q8 0 13 -13t4 -30q0 -4 -2 -34.5t-4 -84t-3 -111.5q0 -18 11 -18h120q6 0 9.5 -14t1.5 -25q0 -43 -33 -43q-16 0 -47 -1t-49 -1q-5 0 -10 -5t-5 -11
q-4 -94 -4 -428zM485 754q-26 0 -59 -16.5t-61 -47.5q-39 -45 -56.5 -114.5t-17.5 -131.5q0 -136 78.5 -239t193.5 -103q66 0 105 31q8 8 16 34.5t8 47.5q6 233 0 365q0 10 -11 39t-24 47q-74 88 -172 88z" />
    <glyph glyph-name="Emacron" unicode="&#x112;" horiz-adv-x="1202" 
d="M512 1296h307q86 0 180 13q6 2 15 -7.5t10 -19.5q2 -37 2 -219q0 -22 -10 -39.5t-23 -17.5q-12 0 -24 17t-15 34q-32 136 -131 153q-100 15 -284 13q-5 0 -10 -4t-10.5 -18t-6.5 -36q-3 -41 -6 -204t-2 -244q0 -6 6 -13.5t14 -7.5h164q100 0 124 12.5t50 73.5l1.5 3
l1.5 3t1.5 3.5t1.5 3.5q21 53 45 53q11 0 17 -19t4 -38q-8 -114 -8 -142q0 -37 8 -139q1 -27 -7 -44t-20 -17q-11 0 -22.5 14.5t-16.5 30.5q-20 65 -45.5 85t-87.5 25q-66 6 -205 6q-6 0 -16 -10t-10 -14q-10 -73 -4 -285q1 -14 1.5 -52.5t1.5 -67.5t5 -48q5 -15 18 -30.5
t27 -18.5q66 -12 166 -12q137 0 188 18q97 37 162 152q39 71 64 71q23 0 16 -59q0 -13 -32.5 -113.5t-45.5 -124.5q-4 -9 -22 -17.5t-27 -8.5q-6 0 -145.5 2.5t-304 5t-232.5 2.5q-76 0 -140.5 -5t-93.5 -5q-69 0 -69 26q0 27 61 41q81 19 107.5 47t32.5 109q16 229 16 496
q0 365 -2 395q-3 60 -25 90t-84 41q-65 12 -65 37q0 13 20 22t43 9q47 0 182 -3.5t189 -3.5zM397 1581l463 6q6 0 10 -17t4 -36q0 -30 -13 -56t-25 -26h-453q-5 0 -11.5 11.5t-6.5 21.5q0 26 11.5 61t20.5 35z" />
    <glyph glyph-name="emacron" unicode="&#x113;" horiz-adv-x="847" 
d="M250 1169l434 7q6 0 10 -17.5t4 -34.5q0 -30 -13 -57t-23 -27l-424 -2q-4 0 -10.5 11.5t-6.5 23.5q0 21 6 44.5t13 37.5t10 14zM494 834q61 0 120 -23t99 -63q78 -75 78 -181q0 -13 -14.5 -31t-31.5 -18h-446q-19 0 -23 -14q-8 -21 -8 -74q0 -37 18.5 -95.5t45.5 -94.5
q38 -49 98.5 -76t128.5 -27q129 0 184 72q16 24 27 24q6 0 12 -8.5t6 -17.5q0 -25 -16 -51q-115 -179 -328 -179q-173 0 -275.5 116.5t-102.5 295.5q0 127 68 238t192 168q80 39 168 39zM479 776q-63 0 -117 -51.5t-73 -122.5q-1 -7 3.5 -13.5t10.5 -6.5h219q28 0 50 17.5
t22 51.5q0 44 -36.5 84.5t-78.5 40.5z" />
    <glyph glyph-name="Ebreve" unicode="&#x114;" horiz-adv-x="1202" 
d="M512 1296h307q86 0 180 13q6 2 15 -7.5t10 -19.5q2 -37 2 -219q0 -22 -10 -39.5t-23 -17.5q-12 0 -24 17t-15 34q-32 136 -131 153q-100 15 -284 13q-5 0 -10 -4t-10.5 -18t-6.5 -36q-3 -41 -6 -204t-2 -244q0 -6 6 -13.5t14 -7.5h164q100 0 124 12.5t50 73.5l1.5 3
l1.5 3t1.5 3.5t1.5 3.5q21 53 45 53q11 0 17 -19t4 -38q-8 -114 -8 -142q0 -37 8 -139q1 -27 -7 -44t-20 -17q-11 0 -22.5 14.5t-16.5 30.5q-20 65 -45.5 85t-87.5 25q-66 6 -205 6q-6 0 -16 -10t-10 -14q-10 -73 -4 -285q1 -14 1.5 -52.5t1.5 -67.5t5 -48q5 -15 18 -30.5
t27 -18.5q66 -12 166 -12q137 0 188 18q97 37 162 152q39 71 64 71q23 0 16 -59q0 -13 -32.5 -113.5t-45.5 -124.5q-4 -9 -22 -17.5t-27 -8.5q-6 0 -145.5 2.5t-304 5t-232.5 2.5q-76 0 -140.5 -5t-93.5 -5q-69 0 -69 26q0 27 61 41q81 19 107.5 47t32.5 109q16 229 16 496
q0 365 -2 395q-3 60 -25 90t-84 41q-65 12 -65 37q0 13 20 22t43 9q47 0 182 -3.5t189 -3.5zM598 1409q-99 0 -170.5 58.5t-81.5 162.5q-2 15 5 28t18 13q9 0 22.5 -9.5t20.5 -21.5q63 -100 194 -100q139 0 205 94q21 31 43 31q7 0 11.5 -11.5t2.5 -19.5q-4 -31 -18.5 -65.5
t-44 -72.5t-83.5 -62.5t-124 -24.5z" />
    <glyph glyph-name="ebreve" unicode="&#x115;" horiz-adv-x="847" 
d="M459 965q-86 0 -144 58t-61 179q-1 24 12.5 43t26.5 19q23 0 29 -37q33 -133 147 -133q49 0 92.5 33.5t65.5 103.5q3 12 19 22.5t28 10.5q8 0 13 -16t5 -23q-1 -29 -8 -60.5t-24 -68t-42 -65t-66.5 -47.5t-92.5 -19zM494 834q61 0 120 -23t99 -63q78 -75 78 -181
q0 -13 -14.5 -31t-31.5 -18h-446q-19 0 -23 -14q-8 -21 -8 -74q0 -37 18.5 -95.5t45.5 -94.5q38 -49 98.5 -76t128.5 -27q129 0 184 72q16 24 27 24q6 0 12 -8.5t6 -17.5q0 -25 -16 -51q-115 -179 -328 -179q-173 0 -275.5 116.5t-102.5 295.5q0 127 68 238t192 168
q80 39 168 39zM479 776q-63 0 -117 -51.5t-73 -122.5q-1 -7 3.5 -13.5t10.5 -6.5h219q28 0 50 17.5t22 51.5q0 44 -36.5 84.5t-78.5 40.5z" />
    <glyph glyph-name="Edotaccent" unicode="&#x116;" horiz-adv-x="1202" 
d="M512 1296h307q86 0 180 13q6 2 15 -7.5t10 -19.5q2 -37 2 -219q0 -22 -10 -39.5t-23 -17.5q-12 0 -24 17t-15 34q-32 136 -131 153q-100 15 -284 13q-5 0 -10 -4t-10.5 -18t-6.5 -36q-3 -41 -6 -204t-2 -244q0 -6 6 -13.5t14 -7.5h164q100 0 124 12.5t50 73.5l1.5 3
l1.5 3t1.5 3.5t1.5 3.5q21 53 45 53q11 0 17 -19t4 -38q-8 -114 -8 -142q0 -37 8 -139q1 -27 -7 -44t-20 -17q-11 0 -22.5 14.5t-16.5 30.5q-20 65 -45.5 85t-87.5 25q-66 6 -205 6q-6 0 -16 -10t-10 -14q-10 -73 -4 -285q1 -14 1.5 -52.5t1.5 -67.5t5 -48q5 -15 18 -30.5
t27 -18.5q66 -12 166 -12q137 0 188 18q97 37 162 152q39 71 64 71q23 0 16 -59q0 -13 -32.5 -113.5t-45.5 -124.5q-4 -9 -22 -17.5t-27 -8.5q-6 0 -145.5 2.5t-304 5t-232.5 2.5q-76 0 -140.5 -5t-93.5 -5q-69 0 -69 26q0 27 61 41q81 19 107.5 47t32.5 109q16 229 16 496
q0 365 -2 395q-3 60 -25 90t-84 41q-65 12 -65 37q0 13 20 22t43 9q47 0 182 -3.5t189 -3.5zM616 1651q51 0 81 -42.5t30 -90.5q0 -53 -40.5 -88t-84.5 -35q-43 0 -80 33.5t-37 93.5q0 48 38 88.5t93 40.5z" />
    <glyph glyph-name="edotaccent" unicode="&#x117;" horiz-adv-x="847" 
d="M475 1262q51 0 83 -42.5t32 -89.5q0 -52 -41 -86t-84 -34q-44 0 -80.5 31.5t-36.5 93.5q0 48 37 87.5t90 39.5zM494 834q61 0 120 -23t99 -63q78 -75 78 -181q0 -13 -14.5 -31t-31.5 -18h-446q-19 0 -23 -14q-8 -21 -8 -74q0 -37 18.5 -95.5t45.5 -94.5q38 -49 98.5 -76
t128.5 -27q129 0 184 72q16 24 27 24q6 0 12 -8.5t6 -17.5q0 -25 -16 -51q-115 -179 -328 -179q-173 0 -275.5 116.5t-102.5 295.5q0 127 68 238t192 168q80 39 168 39zM479 776q-63 0 -117 -51.5t-73 -122.5q-1 -7 3.5 -13.5t10.5 -6.5h219q28 0 50 17.5t22 51.5
q0 44 -36.5 84.5t-78.5 40.5z" />
    <glyph glyph-name="Eogonek" unicode="&#x118;" horiz-adv-x="1202" 
d="M512 1296h307q84 0 178 13q6 2 16 -7.5t11 -19.5q2 -37 2 -219q0 -22 -10 -39.5t-23 -17.5q-12 0 -24 17t-15 34q-32 136 -131 153q-100 15 -284 13q-5 0 -10 -4t-10.5 -18t-6.5 -36q-3 -41 -6 -203.5t-2 -242.5q0 -6 6.5 -14.5t15.5 -8.5h162h45.5t34.5 2t26 2.5t19 6.5
t13.5 8.5t11 13.5t9 16t9.5 22.5t12 27.5q21 53 45 53q11 0 17 -19t4 -38q-8 -114 -8 -142q0 -37 8 -139q1 -27 -7 -44t-20 -17q-11 0 -22.5 14.5t-16.5 30.5q-22 67 -44.5 86.5t-88.5 23.5q-66 6 -205 6q-6 0 -16 -10t-10 -14q-10 -73 -4 -285q5 -120 16 -168q3 -14 17 -30
t28 -19q62 -12 158 -12q137 0 188 18q99 37 162 154q38 67 64 67q7 0 11 -3.5t5.5 -12t2 -13t0 -16t-0.5 -12.5q0 -13 -33.5 -113.5t-46.5 -124.5q-4 -9 -22 -17.5t-27 -8.5h-61q-76 -74 -122 -151t-46 -140q0 -43 28 -71.5t76 -28.5q69 0 115 34q24 8 24 -20q0 -19 -16 -51
q-34 -47 -90.5 -81t-130.5 -34q-63 0 -107.5 30t-62 69.5t-17.5 82.5q0 85 72.5 180t200.5 183q-336 8 -545 8q-76 0 -140.5 -5t-93.5 -5q-69 0 -69 26q0 27 61 41q81 19 107.5 47t32.5 109q16 229 16 496q0 365 -2 395q-3 60 -25 90t-84 41q-65 12 -65 37q0 13 20 22t43 9
q47 0 182 -3.5t189 -3.5z" />
    <glyph glyph-name="eogonek" unicode="&#x119;" horiz-adv-x="847" 
d="M494 834q125 0 213 -79t88 -190q0 -13 -22 -32t-40 -19h-428q-17 0 -26 -18q-7 -25 -7 -54q0 -141 77 -224t212 -83q60 0 111.5 19t81.5 43q15 12 24 12q13 0 13 -19q0 -25 -13 -47q-46 -54 -104 -98q-91 -82 -140 -164.5t-49 -154.5q0 -37 28.5 -67t70.5 -30
q63 0 112 29q5 3 10 -2t5 -14q0 -11 -6.5 -29.5t-10.5 -22.5q-31 -44 -86 -77t-123 -33q-88 0 -133 55t-45 121q0 76 60.5 162t164.5 166q-61 -9 -83 -9q-171 0 -277 120.5t-106 297.5q0 124 69 235.5t191 168.5q78 37 168 37zM483 776q-64 0 -119 -53.5t-73 -126.5
q-3 -17 8 -21q74 -3 215 0q36 2 59 22t23 58q0 37 -30.5 79t-82.5 42z" />
    <glyph glyph-name="Ecaron" unicode="&#x11a;" horiz-adv-x="1202" 
d="M512 1296h307q86 0 180 13q6 2 15 -7.5t10 -19.5q2 -37 2 -219q0 -22 -10 -39.5t-23 -17.5q-12 0 -24 17t-15 34q-32 136 -131 153q-100 15 -284 13q-5 0 -10 -4t-10.5 -18t-6.5 -36q-3 -41 -6 -204t-2 -244q0 -6 6 -13.5t14 -7.5h164q100 0 124 12.5t50 73.5l1.5 3
l1.5 3t1.5 3.5t1.5 3.5q21 53 45 53q11 0 17 -19t4 -38q-8 -114 -8 -142q0 -37 8 -139q1 -27 -7 -44t-20 -17q-11 0 -22.5 14.5t-16.5 30.5q-20 65 -45.5 85t-87.5 25q-66 6 -205 6q-6 0 -16 -10t-10 -14q-10 -73 -4 -285q1 -14 1.5 -52.5t1.5 -67.5t5 -48q5 -15 18 -30.5
t27 -18.5q66 -12 166 -12q137 0 188 18q97 37 162 152q39 71 64 71q23 0 16 -59q0 -13 -32.5 -113.5t-45.5 -124.5q-4 -9 -22 -17.5t-27 -8.5q-6 0 -145.5 2.5t-304 5t-232.5 2.5q-76 0 -140.5 -5t-93.5 -5q-69 0 -69 26q0 27 61 41q81 19 107.5 47t32.5 109q16 229 16 496
q0 365 -2 395q-3 60 -25 90t-84 41q-65 12 -65 37q0 13 20 22t43 9q47 0 182 -3.5t189 -3.5zM614 1389q-23 0 -84 51q-15 15 -76 71t-100 93q-6 4 -12.5 13.5t-10 19.5t2.5 18t22 8q6 0 62 -16q102 -51 184 -99q19 -8 39 0q24 15 92.5 47.5t91.5 44.5q37 21 64 21
q20 0 17 -20q-5 -21 -34 -48q-27 -25 -92.5 -81t-85.5 -74q-23 -20 -47 -34.5t-33 -14.5z" />
    <glyph glyph-name="ecaron" unicode="&#x11b;" horiz-adv-x="847" 
d="M449 913q-21 0 -66 82q-9 20 -58.5 112t-80.5 153q-4 8 -7.5 18.5t-5.5 23.5t2.5 22t16.5 9t32 -15t29 -28q28 -36 73.5 -99.5t53.5 -74.5q4 -6 14 -6.5t13 4.5q20 28 62.5 85.5t68.5 94.5q8 12 24 23.5t31 11.5q11 0 15.5 -17t-2.5 -36q-16 -38 -41.5 -87.5t-60 -111
t-50.5 -92.5q-40 -72 -63 -72zM494 834q61 0 120 -23t99 -63q78 -75 78 -181q0 -13 -14.5 -31t-31.5 -18h-446q-19 0 -23 -14q-8 -21 -8 -74q0 -37 18.5 -95.5t45.5 -94.5q38 -49 98.5 -76t128.5 -27q129 0 184 72q16 24 27 24q6 0 12 -8.5t6 -17.5q0 -25 -16 -51
q-115 -179 -328 -179q-173 0 -275.5 116.5t-102.5 295.5q0 127 68 238t192 168q80 39 168 39zM479 776q-63 0 -117 -51.5t-73 -122.5q-1 -7 3.5 -13.5t10.5 -6.5h219q28 0 50 17.5t22 51.5q0 44 -36.5 84.5t-78.5 40.5z" />
    <glyph glyph-name="Gcircumflex" unicode="&#x11c;" horiz-adv-x="1521" 
d="M868 1331q162 0 334 -43q44 -11 92 -16q7 0 15.5 -13.5t9.5 -33.5q1 -24 16 -112.5t15 -133.5q0 -21 -9.5 -36t-25.5 -15q-18 0 -39 53q-29 82 -78 143q-44 51 -131 95.5t-197 44.5q-113 0 -206.5 -48t-155 -130.5t-95.5 -190t-34 -227.5q0 -220 86 -369
q67 -121 182.5 -193.5t249.5 -72.5q69 0 129 41q19 12 31 51.5t12 91.5q0 149 -8 182q-6 22 -12.5 35t-23 28t-48.5 24.5t-80 13.5q-23 1 -41 13t-18 26q0 11 19.5 19.5t49.5 8.5q41 0 131 -4t115 -4q21 0 109 6t129 6q55 0 55 -30q0 -9 -14 -21t-33 -18q-10 -3 -19 -6
t-15 -5.5t-11.5 -7t-9 -6.5t-6.5 -7.5t-4 -7t-2.5 -8t-2 -7.5t-1.5 -8.5t-1 -8.5q-10 -63 -10 -254q0 -14 4 -24t9 -16t20 -21q22 -17 22 -35q0 -8 -10 -18t-21 -13q-96 -27 -186 -45q-68 -14 -167 -27.5t-136 -13.5q-165 0 -311 47.5t-238 130.5q-211 202 -211 510
q0 296 227 494q97 86 244 136t305 50zM844 1696q23 0 84 -51q78 -78 176 -164q6 -4 12.5 -13.5t10 -20t-1.5 -18.5t-21 -8q-22 0 -66 19q-82 39 -184 96q-20 8 -37 -2q-23 -13 -89 -43.5t-97 -46.5q-37 -21 -62 -21q-20 0 -17 20q5 21 34 48q8 7 176 156q56 49 82 49z" />
    <glyph glyph-name="gcircumflex" unicode="&#x11d;" horiz-adv-x="931" 
d="M461 1333q21 0 65 -80q120 -224 140 -264q4 -9 7 -20t5.5 -24.5t-2.5 -22.5t-17 -9t-32 15t-29 28q-25 36 -73 99.5t-56 74.5q-5 6 -13.5 6t-11.5 -6q-126 -170 -131 -176q-8 -12 -24 -24t-31 -12q-11 0 -15 18t3 37q15 35 40 83.5t60 113t51 94.5q39 69 64 69zM461 842
q84 0 194 -31q51 -13 56 -14q37 0 121.5 -5.5t109.5 -9.5q9 -1 15 -8.5t6 -15.5q0 -20 -19 -49t-26 -29q-70 0 -119 4q-7 0 -11 -6t-2 -10q13 -54 13 -88q0 -167 -117 -256q-106 -78 -248 -78q-42 0 -82 4q-21 3 -28 -4q-13 -8 -26 -25t-13 -28q0 -27 26.5 -50.5t48.5 -25.5
q364 -16 385 -19q57 -11 105 -49q41 -37 64.5 -87t23.5 -101q0 -59 -20.5 -113t-55 -95t-67 -69.5t-68.5 -50.5q-142 -90 -311 -90q-149 0 -258 70q-51 35 -80 84.5t-29 99.5q0 78 64 121q21 14 69.5 44.5t61.5 39.5q12 8 0 14q-51 17 -84 39q-80 56 -80 162q0 5 5 13t9 11
q5 4 41.5 26.5t73 48t51.5 42.5q3 1 2.5 9t-6.5 12q-61 30 -113.5 95.5t-52.5 162.5q0 140 123 231q100 74 248 74zM440 784q-23 0 -45.5 -12t-34.5 -31q-47 -59 -47 -174q0 -103 46.5 -183.5t117.5 -80.5q24 0 64 31q24 23 39.5 81.5t15.5 125.5q0 31 -12 84.5t-33 83.5
q-49 75 -111 75zM508 -459q94 0 160 35q48 28 70 72t22 90q0 62 -35 100q-39 42 -115 53q-79 11 -213 11q-65 0 -98 -25q-61 -55 -61 -131q0 -87 71 -145q74 -60 199 -60z" />
    <glyph glyph-name="Gbreve" unicode="&#x11e;" horiz-adv-x="1521" 
d="M868 1331q162 0 334 -43q44 -11 92 -16q7 0 15.5 -13.5t9.5 -33.5q1 -24 16 -112.5t15 -133.5q0 -21 -9.5 -36t-25.5 -15q-18 0 -39 53q-29 82 -78 143q-44 51 -131 95.5t-197 44.5q-113 0 -206.5 -48t-155 -130.5t-95.5 -190t-34 -227.5q0 -220 86 -369
q67 -121 182.5 -193.5t249.5 -72.5q69 0 129 41q19 12 31 51.5t12 91.5q0 149 -8 182q-6 22 -12.5 35t-23 28t-48.5 24.5t-80 13.5q-23 1 -41 13t-18 26q0 11 19.5 19.5t49.5 8.5q41 0 131 -4t115 -4q21 0 109 6t129 6q55 0 55 -30q0 -9 -14 -21t-33 -18q-10 -3 -19 -6
t-15 -5.5t-11.5 -7t-9 -6.5t-6.5 -7.5t-4 -7t-2.5 -8t-2 -7.5t-1.5 -8.5t-1 -8.5q-10 -63 -10 -254q0 -14 4 -24t9 -16t20 -21q22 -17 22 -35q0 -8 -10 -18t-21 -13q-96 -27 -186 -45q-68 -14 -167 -27.5t-136 -13.5q-165 0 -311 47.5t-238 130.5q-211 202 -211 510
q0 296 227 494q97 86 244 136t305 50zM838 1438q-99 0 -170.5 58.5t-81.5 162.5q-2 15 4.5 28t17.5 13q9 0 22.5 -9.5t20.5 -21.5q63 -100 195 -100q139 0 205 94q21 31 43 31q7 0 11.5 -11.5t2.5 -19.5q-4 -31 -18.5 -65.5t-44 -72.5t-83.5 -62.5t-124 -24.5z" />
    <glyph glyph-name="gbreve" unicode="&#x11f;" horiz-adv-x="931" 
d="M446 965q-86 0 -143.5 58t-60.5 179q-1 24 12.5 43t26.5 19q22 0 28 -37q33 -133 148 -133q49 0 92 33.5t65 103.5q3 12 19 22.5t29 10.5q8 0 13 -16t5 -23q-1 -29 -8 -60.5t-24.5 -68t-42.5 -65t-66.5 -47.5t-92.5 -19zM461 842q84 0 194 -31q51 -13 56 -14
q37 0 121.5 -5.5t109.5 -9.5q9 -1 15 -8.5t6 -15.5q0 -20 -19 -49t-26 -29q-70 0 -119 4q-7 0 -11 -6t-2 -10q13 -54 13 -88q0 -167 -117 -256q-106 -78 -248 -78q-42 0 -82 4q-21 3 -28 -4q-13 -8 -26 -25t-13 -28q0 -27 26.5 -50.5t48.5 -25.5q364 -16 385 -19
q57 -11 105 -49q41 -37 64.5 -87t23.5 -101q0 -59 -20.5 -113t-55 -95t-67 -69.5t-68.5 -50.5q-142 -90 -311 -90q-149 0 -258 70q-51 35 -80 84.5t-29 99.5q0 78 64 121q21 14 69.5 44.5t61.5 39.5q12 8 0 14q-51 17 -84 39q-80 56 -80 162q0 5 5 13t9 11q5 4 41.5 26.5
t73 48t51.5 42.5q3 1 2.5 9t-6.5 12q-61 30 -113.5 95.5t-52.5 162.5q0 140 123 231q100 74 248 74zM440 784q-23 0 -45.5 -12t-34.5 -31q-47 -59 -47 -174q0 -103 46.5 -183.5t117.5 -80.5q24 0 64 31q24 23 39.5 81.5t15.5 125.5q0 31 -12 84.5t-33 83.5q-49 75 -111 75z
M508 -459q94 0 160 35q48 28 70 72t22 90q0 62 -35 100q-39 42 -115 53q-79 11 -213 11q-65 0 -98 -25q-61 -55 -61 -131q0 -87 71 -145q74 -60 199 -60z" />
    <glyph glyph-name="Gdotaccent" unicode="&#x120;" horiz-adv-x="1521" 
d="M868 1331q162 0 334 -43q44 -11 92 -16q7 0 15.5 -13.5t9.5 -33.5q1 -24 16 -112.5t15 -133.5q0 -21 -9.5 -36t-25.5 -15q-18 0 -39 53q-29 82 -78 143q-44 51 -131 95.5t-197 44.5q-113 0 -206.5 -48t-155 -130.5t-95.5 -190t-34 -227.5q0 -220 86 -369
q67 -121 182.5 -193.5t249.5 -72.5q69 0 129 41q19 12 31 51.5t12 91.5q0 149 -8 182q-6 22 -12.5 35t-23 28t-48.5 24.5t-80 13.5q-23 1 -41 13t-18 26q0 11 19.5 19.5t49.5 8.5q41 0 131 -4t115 -4q21 0 109 6t129 6q55 0 55 -30q0 -9 -14 -21t-33 -18q-10 -3 -19 -6
t-15 -5.5t-11.5 -7t-9 -6.5t-6.5 -7.5t-4 -7t-2.5 -8t-2 -7.5t-1.5 -8.5t-1 -8.5q-10 -63 -10 -254q0 -14 4 -24t9 -16t20 -21q22 -17 22 -35q0 -8 -10 -18t-21 -13q-96 -27 -186 -45q-68 -14 -167 -27.5t-136 -13.5q-165 0 -311 47.5t-238 130.5q-211 202 -211 510
q0 296 227 494q97 86 244 136t305 50zM858 1692q51 0 81 -42.5t30 -90.5q0 -53 -40.5 -88t-84.5 -35q-43 0 -80 33.5t-37 93.5q0 48 38 88.5t93 40.5z" />
    <glyph glyph-name="gdotaccent" unicode="&#x121;" horiz-adv-x="931" 
d="M453 1262q51 0 82.5 -42.5t31.5 -89.5q0 -52 -41 -86t-84 -34t-79.5 31.5t-36.5 93.5q0 48 37 87.5t90 39.5zM461 842q84 0 194 -31q51 -13 56 -14q37 0 121.5 -5.5t109.5 -9.5q9 -1 15 -8.5t6 -15.5q0 -20 -19 -49t-26 -29q-70 0 -119 4q-7 0 -11 -6t-2 -10
q13 -54 13 -88q0 -167 -117 -256q-106 -78 -248 -78q-42 0 -82 4q-21 3 -28 -4q-13 -8 -26 -25t-13 -28q0 -27 26.5 -50.5t48.5 -25.5q364 -16 385 -19q57 -11 105 -49q41 -37 64.5 -87t23.5 -101q0 -59 -20.5 -113t-55 -95t-67 -69.5t-68.5 -50.5q-142 -90 -311 -90
q-149 0 -258 70q-51 35 -80 84.5t-29 99.5q0 78 64 121q21 14 69.5 44.5t61.5 39.5q12 8 0 14q-51 17 -84 39q-80 56 -80 162q0 5 5 13t9 11q5 4 41.5 26.5t73 48t51.5 42.5q3 1 2.5 9t-6.5 12q-61 30 -113.5 95.5t-52.5 162.5q0 140 123 231q100 74 248 74zM440 784
q-23 0 -45.5 -12t-34.5 -31q-47 -59 -47 -174q0 -103 46.5 -183.5t117.5 -80.5q24 0 64 31q24 23 39.5 81.5t15.5 125.5q0 31 -12 84.5t-33 83.5q-49 75 -111 75zM508 -459q94 0 160 35q48 28 70 72t22 90q0 62 -35 100q-39 42 -115 53q-79 11 -213 11q-65 0 -98 -25
q-61 -55 -61 -131q0 -87 71 -145q74 -60 199 -60z" />
    <glyph glyph-name="Gcommaaccent" unicode="&#x122;" horiz-adv-x="1521" 
d="M868 1331q162 0 334 -43q44 -11 92 -16q7 0 15.5 -13.5t9.5 -33.5q1 -24 16 -112.5t15 -133.5q0 -21 -9.5 -36t-25.5 -15q-18 0 -39 53q-29 82 -78 143q-44 51 -131 95.5t-197 44.5q-113 0 -206.5 -48t-155 -130.5t-95.5 -190t-34 -227.5q0 -220 86 -369
q67 -121 182.5 -193.5t249.5 -72.5q69 0 129 41q19 12 31 51.5t12 91.5q0 149 -8 182q-6 22 -12.5 35t-23 28t-48.5 24.5t-80 13.5q-23 1 -41 13t-18 26q0 11 19.5 19.5t49.5 8.5q41 0 131 -4t115 -4q21 0 109 6t129 6q55 0 55 -30q0 -9 -14 -21t-33 -18q-10 -3 -19 -6
t-15 -5.5t-11.5 -7t-9 -6.5t-6.5 -7.5t-4 -7t-2.5 -8t-2 -7.5t-1.5 -8.5t-1 -8.5q-10 -63 -10 -254q0 -14 4 -24t9 -16t20 -21q22 -17 22 -35q0 -8 -10 -18t-21 -13q-96 -27 -186 -45q-68 -14 -167 -27.5t-136 -13.5q-165 0 -311 47.5t-238 130.5q-211 202 -211 510
q0 296 227 494q97 86 244 136t305 50zM817 -133q63 0 109.5 -48.5t46.5 -131.5q0 -58 -29 -103.5t-69.5 -69t-74 -35t-52.5 -11.5q-35 0 -35 18q0 10 10.5 21t21.5 16q41 15 77 48t36 73q0 27 -13.5 40t-47.5 19q-78 20 -78 80q0 41 31 62.5t67 21.5z" />
    <glyph glyph-name="gcommaaccent" unicode="&#x123;" horiz-adv-x="931" 
d="M487 932q-68 0 -119 52.5t-51 139.5q0 51 21.5 94.5t52.5 70t67 45.5t63 26.5t42 7.5q11 0 23 -5.5t12 -12.5q0 -13 -9 -24.5t-20 -16.5q-46 -16 -84.5 -54t-38.5 -84q0 -34 18 -47t60 -20q26 -4 47 -23t21 -55q0 -46 -34.5 -70t-70.5 -24zM461 842q84 0 194 -31
q51 -13 56 -14q37 0 121.5 -5.5t109.5 -9.5q9 -1 15 -8.5t6 -15.5q0 -20 -19 -49t-26 -29q-70 0 -119 4q-7 0 -11 -6t-2 -10q13 -54 13 -88q0 -167 -117 -256q-106 -78 -248 -78q-42 0 -82 4q-21 3 -28 -4q-13 -8 -26 -25t-13 -28q0 -27 26.5 -50.5t48.5 -25.5
q364 -16 385 -19q57 -11 105 -49q41 -37 64.5 -87t23.5 -101q0 -59 -20.5 -113t-55 -95t-67 -69.5t-68.5 -50.5q-142 -90 -311 -90q-149 0 -258 70q-51 35 -80 84.5t-29 99.5q0 78 64 121q21 14 69.5 44.5t61.5 39.5q12 8 0 14q-51 17 -84 39q-80 56 -80 162q0 5 5 13t9 11
q5 4 41.5 26.5t73 48t51.5 42.5q3 1 2.5 9t-6.5 12q-61 30 -113.5 95.5t-52.5 162.5q0 140 123 231q100 74 248 74zM440 784q-23 0 -45.5 -12t-34.5 -31q-47 -59 -47 -174q0 -103 46.5 -183.5t117.5 -80.5q24 0 64 31q24 23 39.5 81.5t15.5 125.5q0 31 -12 84.5t-33 83.5
q-49 75 -111 75zM508 -459q94 0 160 35q48 28 70 72t22 90q0 62 -35 100q-39 42 -115 53q-79 11 -213 11q-65 0 -98 -25q-61 -55 -61 -131q0 -87 71 -145q74 -60 199 -60z" />
    </font>
</defs>
</svg>
