<?xml version="1.0" standalone="no"?>
<!DOCTYPE svg PUBLIC "-//W3C//DTD SVG 1.1//EN" "http://www.w3.org/Graphics/SVG/1.1/DTD/svg11.dtd" >
<svg xmlns="http://www.w3.org/2000/svg" xmlns:xlink="http://www.w3.org/1999/xlink" version="1.1">
<metadata>
Created by FontForge 20170731 at Thu Jan 20 22:46:22 2022
 By Aleksey,,,
(c) 2005 Adobe Systems Incorporated. All Rights Reserved.
</metadata>
<defs>
<font id="GaramondPremrPro-SmbdIt" horiz-adv-x="819" >
  <font-face 
    font-family="Garamond Premr Pro Smbd"
    font-weight="600"
    font-style="italic"
    font-stretch="normal"
    units-per-em="2048"
    panose-1="2 2 6 2 5 5 6 9 4 3"
    ascent="1485"
    descent="-563"
    x-height="834"
    cap-height="1305"
    bbox="-504.018 -856 3256 1909.67"
    underline-thickness="102"
    underline-position="-307"
    slope="-18"
    unicode-range="U+0020-FB04"
  />
<missing-glyph horiz-adv-x="1024" 
d="M0 0v1434h1024v-1434h-1024zM512 809l348 522h-696zM573 717l349 -522v1044zM164 102h696l-348 523zM102 1239v-1044l349 522z" />
    <glyph glyph-name="T_h" unicode="Th" horiz-adv-x="2150" 
d="M2083 686q0 -132 -59 -283.5t-117 -234.5q-17 -22 -44.5 -46t-48 -38.5t-53 -36.5t-41.5 -29q-31 -23 -68.5 -41t-58.5 -18q-45 0 -70.5 18.5t-25.5 53.5q0 15 45 67q4 7 13 8.5t10 -0.5q65 -45 96 -45q25 0 45 37q59 110 107.5 279.5t48.5 251.5q0 40 -13.5 63t-36.5 23
q-44 0 -98 -50t-158 -188q-61 -85 -142 -224.5t-122 -219.5q-16 -28 -40 -44t-40 -16q-20 0 -41 9.5t-32 23.5q-16 19 -11 49q29 107 170 560t177 575q3 7 -5 18t-14 11q-43 5 -197 9t-206 1q-6 0 -18 -9t-15 -16q-37 -96 -141.5 -459t-137.5 -512q-22 -96 2.5 -130.5
t120.5 -49.5q51 -11 51 -30q0 -14 -17.5 -22.5t-45.5 -8.5q-8 0 -97 4t-159 4q-81 0 -207.5 -5t-132.5 -5q-27 0 -44 8t-17 16q0 11 17.5 21.5t37.5 11.5q117 19 158 53t81 148q60 178 157.5 502t131.5 454q4 22 -14 25q-147 7 -256 -6q-55 -7 -116.5 -56t-104.5 -114
q-30 -45 -62 -45q-20 0 -8 36q3 10 48.5 104.5t64.5 164.5q1 7 16.5 17.5t24.5 10.5q7 0 16 -12q1 -6 9.5 -12t29.5 -11.5t49 -7.5q53 -2 313 -2h459q200 0 254 15q13 5 20 13t19 30q13 24 73 37.5t103 13.5q17 0 30 -11t7 -28q-43 -134 -115 -340.5t-123 -352t-55 -159.5
q-6 -14 6 -15q12 0 19 9q155 180 262 252q114 74 205 74q36 0 63 -16.5t41 -41.5t20.5 -48t6.5 -42z" />
    <glyph glyph-name="T_h.swash" unicode="&#xe0ea;h" horiz-adv-x="2273" 
d="M760 1327q138 0 532 -31q120 -8 226 -8q65 1 91 16t50 60q4 8 19.5 25t27.5 22q92 39 170 39q10 0 15 -17t-1 -32q-48 -126 -173.5 -491.5t-135.5 -401.5q-4 -10 6 -11.5t15 3.5q122 154 268 260q104 74 205 74q46 0 77.5 -29t42.5 -60t11 -55q0 -141 -66.5 -306.5
t-132.5 -246.5q-19 -24 -50.5 -47.5t-78.5 -52t-49 -29.5q-28 -18 -65 -33.5t-56 -15.5q-54 0 -72 18q-24 24 -24 54q0 13 59 84q4 4 19 4q78 -47 106 -47q18 0 33 28q54 89 105 266.5t51 260.5q0 41 -13 64.5t-37 23.5q-43 0 -98 -50.5t-156 -187.5q-53 -73 -133.5 -209
t-134.5 -235q-15 -28 -39 -44t-37 -16q-37 0 -63.5 30.5t-22.5 49.5q23 85 88 298.5t151 490t120 389.5q-27 -25 -98 -36t-132 -11q-44 0 -180 8h-5.5h-4.5h-3.5t-3.5 -0.5t-3 -1t-3.5 -2t-3.5 -3t-4 -3.5q-9 -12 -28 -66q-69 -198 -162 -493.5t-127 -421.5q-23 -83 1 -109
t130 -41q51 -7 51 -33q0 -12 -17.5 -20t-45.5 -8q-9 0 -137 5t-195 5q-71 0 -170.5 -6t-108.5 -6q-26 0 -43.5 8t-15.5 18q0 13 18.5 22t42.5 11q51 5 83 13t54.5 18.5t39 34.5t27.5 47.5t30 72.5q101 276 313 914q17 52 -6 57q-28 6 -120 12.5t-152 6.5q-76 0 -129.5 -9.5
t-68 -16.5t-40.5 -23q-47 -32 -47 -119q0 -38 17.5 -84.5t33.5 -69.5q9 -15 -14 -33q-16 -11 -43 -19.5t-43 -8.5q-27 0 -61.5 40t-34.5 105q0 56 44.5 117t96.5 100q73 60 169.5 92.5t248.5 32.5z" />
    <glyph glyph-name="Tcaron_h" unicode="&#x164;h" horiz-adv-x="2150" 
d="M2083 686q0 -132 -59 -283.5t-117 -234.5q-17 -22 -44.5 -46t-48 -38.5t-53 -36.5t-41.5 -29q-31 -23 -68.5 -41t-58.5 -18q-45 0 -70.5 18.5t-25.5 53.5q0 15 45 67q4 7 13 8.5t10 -0.5q65 -45 96 -45q25 0 45 37q59 110 107.5 279.5t48.5 251.5q0 40 -13.5 63t-36.5 23
q-44 0 -98 -50t-158 -188q-61 -85 -142 -224.5t-122 -219.5q-16 -28 -40 -44t-40 -16q-20 0 -41 9.5t-32 23.5q-16 19 -11 49q29 107 170 560t177 575q3 7 -5 18t-14 11q-43 5 -197 9t-206 1q-6 0 -18 -9t-15 -16q-37 -96 -141.5 -459t-137.5 -512q-22 -96 2.5 -130.5
t120.5 -49.5q51 -11 51 -30q0 -14 -17.5 -22.5t-45.5 -8.5q-8 0 -97 4t-159 4q-81 0 -207.5 -5t-132.5 -5q-27 0 -44 8t-17 16q0 11 17.5 21.5t37.5 11.5q117 19 158 53t81 148q60 178 157.5 502t131.5 454q4 22 -14 25q-147 7 -256 -6q-55 -7 -116.5 -56t-104.5 -114
q-30 -45 -62 -45q-20 0 -8 36q3 10 48.5 104.5t64.5 164.5q1 7 16.5 17.5t24.5 10.5q7 0 16 -12q1 -6 9.5 -12t29.5 -11.5t49 -7.5q53 -2 313 -2h459q200 0 254 15q13 5 20 13t19 30q13 24 73 37.5t103 13.5q17 0 30 -11t7 -28q-43 -134 -115 -340.5t-123 -352t-55 -159.5
q-6 -14 6 -15q12 0 19 9q155 180 262 252q114 74 205 74q36 0 63 -16.5t41 -41.5t20.5 -48t6.5 -42zM915 1384q-9 0 -24 16t-25 32q-11 21 -31.5 50t-48.5 67.5t-45 62.5q-17 26 -12.5 38.5t21.5 12.5q32 0 61 -18q13 -8 61.5 -41.5t75.5 -51.5q6 -4 17.5 -4.5t15.5 2.5
q41 21 227 99q32 14 64 14q16 0 15 -14q-1 -15 -27 -37q-14 -11 -112 -79t-144 -106q-65 -43 -89 -43z" />
    <glyph glyph-name="Tcaron_h.swash" unicode="&#xe0f1;h" horiz-adv-x="2273" 
d="M760 1327q138 0 532 -31q120 -8 226 -8q65 1 91 16t50 60q4 8 19.5 25t27.5 22q92 39 170 39q10 0 15 -17t-1 -32q-48 -126 -173.5 -491.5t-135.5 -401.5q-4 -10 6 -11.5t15 3.5q122 154 268 260q104 74 205 74q46 0 77.5 -29t42.5 -60t11 -55q0 -141 -66.5 -306.5
t-132.5 -246.5q-19 -24 -50.5 -47.5t-78.5 -52t-49 -29.5q-28 -18 -65 -33.5t-56 -15.5q-54 0 -72 18q-24 24 -24 54q0 13 59 84q4 4 19 4q78 -47 106 -47q18 0 33 28q54 89 105 266.5t51 260.5q0 41 -13 64.5t-37 23.5q-43 0 -98 -50.5t-156 -187.5q-53 -73 -133.5 -209
t-134.5 -235q-15 -28 -39 -44t-37 -16q-37 0 -63.5 30.5t-22.5 49.5q23 85 88 298.5t151 490t120 389.5q-27 -25 -98 -36t-132 -11q-44 0 -180 8h-5.5h-4.5h-3.5t-3.5 -0.5t-3 -1t-3.5 -2t-3.5 -3t-4 -3.5q-9 -12 -28 -66q-69 -198 -162 -493.5t-127 -421.5q-23 -83 1 -109
t130 -41q51 -7 51 -33q0 -12 -17.5 -20t-45.5 -8q-9 0 -137 5t-195 5q-71 0 -170.5 -6t-108.5 -6q-26 0 -43.5 8t-15.5 18q0 13 18.5 22t42.5 11q51 5 83 13t54.5 18.5t39 34.5t27.5 47.5t30 72.5q101 276 313 914q17 52 -6 57q-28 6 -120 12.5t-152 6.5q-76 0 -129.5 -9.5
t-68 -16.5t-40.5 -23q-47 -32 -47 -119q0 -38 17.5 -84.5t33.5 -69.5q9 -15 -14 -33q-16 -11 -43 -19.5t-43 -8.5q-27 0 -61.5 40t-34.5 105q0 56 44.5 117t96.5 100q73 60 169.5 92.5t248.5 32.5zM1073 1397q-9 0 -24 16t-25 31q-11 21 -31.5 50t-48.5 67.5t-45 62.5
q-17 26 -13 38.5t21 12.5q33 0 62 -18q110 -74 137 -92q6 -4 17.5 -4.5t15.5 2.5q30 16 227 98q32 14 64 14q15 0 15 -13q-2 -16 -28 -38q-14 -11 -112 -78.5t-144 -105.5q-65 -43 -88 -43z" />
    <glyph glyph-name="Tcommaaccent_h" unicode="&#x162;h" horiz-adv-x="2150" 
d="M2083 686q0 -132 -59 -283.5t-117 -234.5q-17 -22 -44.5 -46t-48 -38.5t-53 -36.5t-41.5 -29q-31 -23 -68.5 -41t-58.5 -18q-45 0 -70.5 18.5t-25.5 53.5q0 15 45 67q4 7 13 8.5t10 -0.5q65 -45 96 -45q25 0 45 37q59 110 107.5 279.5t48.5 251.5q0 40 -13.5 63t-36.5 23
q-44 0 -98 -50t-158 -188q-61 -85 -142 -224.5t-122 -219.5q-16 -28 -40 -44t-40 -16q-20 0 -41 9.5t-32 23.5q-16 19 -11 49q29 107 170 560t177 575q3 7 -5 18t-14 11q-43 5 -197 9t-206 1q-6 0 -18 -9t-15 -16q-37 -96 -141.5 -459t-137.5 -512q-22 -96 2.5 -130.5
t120.5 -49.5q51 -11 51 -30q0 -14 -17.5 -22.5t-45.5 -8.5q-8 0 -97 4t-159 4q-81 0 -207.5 -5t-132.5 -5q-27 0 -44 8t-17 16q0 11 17.5 21.5t37.5 11.5q117 19 158 53t81 148q60 178 157.5 502t131.5 454q4 22 -14 25q-147 7 -256 -6q-55 -7 -116.5 -56t-104.5 -114
q-30 -45 -62 -45q-20 0 -8 36q3 10 48.5 104.5t64.5 164.5q1 7 16.5 17.5t24.5 10.5q7 0 16 -12q1 -6 9.5 -12t29.5 -11.5t49 -7.5q53 -2 313 -2h459q200 0 254 15q13 5 20 13t19 30q13 24 73 37.5t103 13.5q17 0 30 -11t7 -28q-43 -134 -115 -340.5t-123 -352t-55 -159.5
q-6 -14 6 -15q12 0 19 9q155 180 262 252q114 74 205 74q36 0 63 -16.5t41 -41.5t20.5 -48t6.5 -42zM526 -88q50 0 83.5 -35t33.5 -98q0 -59 -30.5 -107t-76 -74.5t-89 -40.5t-76.5 -14q-31 0 -31 17q0 10 9.5 19.5t23.5 12.5q67 18 109 52t42 75q0 35 -53 43q-55 7 -55 60
q0 32 31.5 61t78.5 29z" />
    <glyph glyph-name="Tcommaaccent_h.swash" unicode="&#xe0f5;h" horiz-adv-x="2273" 
d="M760 1327q138 0 532 -31q120 -8 226 -8q65 1 91 16t50 60q4 8 19.5 25t27.5 22q92 39 170 39q10 0 15 -17t-1 -32q-48 -126 -173.5 -491.5t-135.5 -401.5q-4 -10 6 -11.5t15 3.5q122 154 268 260q104 74 205 74q46 0 77.5 -29t42.5 -60t11 -55q0 -141 -66.5 -306.5
t-132.5 -246.5q-19 -24 -50.5 -47.5t-78.5 -52t-49 -29.5q-28 -18 -65 -33.5t-56 -15.5q-54 0 -72 18q-24 24 -24 54q0 13 59 84q4 4 19 4q78 -47 106 -47q18 0 33 28q54 89 105 266.5t51 260.5q0 41 -13 64.5t-37 23.5q-43 0 -98 -50.5t-156 -187.5q-53 -73 -133.5 -209
t-134.5 -235q-15 -28 -39 -44t-37 -16q-37 0 -63.5 30.5t-22.5 49.5q23 85 88 298.5t151 490t120 389.5q-27 -25 -98 -36t-132 -11q-44 0 -180 8h-5.5h-4.5h-3.5t-3.5 -0.5t-3 -1t-3.5 -2t-3.5 -3t-4 -3.5q-9 -12 -28 -66q-69 -198 -162 -493.5t-127 -421.5q-23 -83 1 -109
t130 -41q51 -7 51 -33q0 -12 -17.5 -20t-45.5 -8q-9 0 -137 5t-195 5q-71 0 -170.5 -6t-108.5 -6q-26 0 -43.5 8t-15.5 18q0 13 18.5 22t42.5 11q51 5 83 13t54.5 18.5t39 34.5t27.5 47.5t30 72.5q101 276 313 914q17 52 -6 57q-28 6 -120 12.5t-152 6.5q-76 0 -129.5 -9.5
t-68 -16.5t-40.5 -23q-47 -32 -47 -119q0 -38 17.5 -84.5t33.5 -69.5q9 -15 -14 -33q-16 -11 -43 -19.5t-43 -8.5q-27 0 -61.5 40t-34.5 105q0 56 44.5 117t96.5 100q73 60 169.5 92.5t248.5 32.5zM625 -94q50 0 83 -35t33 -98q0 -59 -30.5 -107t-76 -74.5t-89 -40.5
t-76.5 -14q-31 0 -31 17q0 10 9.5 19.5t23.5 12.5q67 18 109.5 52t42.5 75q0 35 -54 43q-55 7 -55 60q0 32 32 61t79 29z" />
    <glyph glyph-name="f_f_b" unicode="ffb" horiz-adv-x="2058" 
d="M1421 1446q51 0 109 -15.5t90 -37.5q14 -7 20 2q12 12 40.5 31.5t39.5 19.5t17.5 -19t-0.5 -41q-35 -69 -143 -363t-164 -464q-4 -7 6 -8q6 -1 8 4q91 118 199 198.5t196 80.5q77 0 124.5 -52.5t47.5 -128.5q0 -102 -55.5 -221t-147 -222t-196.5 -165q-68 -40 -137 -59
t-115 -19q-90 0 -154.5 55.5t-64.5 163.5q0 57 86 338q33 100 124 360t119 330q27 79 5 111q-18 25 -46.5 41t-52.5 16q-100 0 -170 -98q-57 -81 -99 -185.5t-87 -258.5q-1 -6 2 -12.5t8 -6.5q74 0 168 4q6 0 11 -7.5t5 -14.5q0 -19 -13.5 -35.5t-33.5 -17.5q-97 -9 -159 -9
q-16 0 -25 -22q-158 -562 -231 -791q-37 -112 -105 -194t-147 -133q-61 -38 -149.5 -70.5t-141.5 -32.5q-60 0 -118 23.5t-87 60.5q-40 -44 -127 -91.5t-153 -47.5q-85 0 -125.5 32.5t-38.5 65.5q2 29 20 62.5t47 52.5q16 8 34.5 10t21.5 -2q39 -38 58.5 -55.5t50 -37.5
t50.5 -20q35 0 60 33.5t53 108.5q57 170 295 1009q6 19 -17 19q-29 -2 -133 -2q-16 0 -16 14q1 22 17 41t28 19q49 6 129 6q17 0 23 22q28 70 42 103.5t45.5 97.5t60 104t73 88.5t96.5 85.5q49 35 119 59.5t133 24.5q80 0 127 -18t84 -55q7 -7 20 2q49 38 89.5 63t109 47.5
t141.5 22.5zM506 809l282 6q11 0 15.5 5.5t9.5 21.5q4 9 23.5 59t28 69.5t26 59.5t35 72.5t37.5 64.5q13 20 8 31q-21 57 -72 88t-94 31q-117 0 -203 -182q-57 -119 -113 -312q-2 -5 2 -9.5t15 -4.5zM762 737l-283 -10q-15 0 -22 -14q-16 -57 -100 -345.5t-115 -402.5
q-32 -116 -109 -256q-11 -14 2 -31q28 -38 80.5 -62t108.5 -24q120 0 194 236q35 115 120 411t140 480q6 18 -16 18zM1751 735q-36 0 -73.5 -22t-75 -64.5t-68 -84t-66.5 -99.5q-68 -108 -104.5 -206t-36.5 -140q0 -28 20.5 -57t45.5 -29q20 0 56 21t71 55q98 101 191 285
t93 280q0 24 -14 42.5t-39 18.5z" />
    <glyph glyph-name="f_f_h" unicode="ffh" horiz-adv-x="2136" 
d="M850 1384q138 0 217 -65q2 -3 8.5 -2t9.5 4q50 37 89 60t106.5 44t140.5 21q51 0 104.5 -14.5t86.5 -36.5q3 -2 9 -1.5t9 3.5q10 10 44.5 29.5t45.5 19.5t17.5 -19t-0.5 -41q-42 -129 -116 -346.5t-124.5 -367t-54.5 -164.5q-3 -10 7 -11.5t15 3.5q117 152 267 260
q104 74 204 74q46 0 78 -29t43.5 -60t11.5 -55q0 -141 -66 -306.5t-132 -246.5q-20 -24 -52 -47.5t-78 -51.5t-50 -30q-26 -18 -63.5 -33.5t-57.5 -15.5q-54 0 -70 18q-24 24 -24 54q0 13 59 84q3 4 16 4q78 -47 107 -47q18 0 35 28q53 89 103 266t50 261q0 88 -49 88
q-42 0 -96 -50t-156 -188q-99 -132 -268 -444q-15 -27 -39.5 -43.5t-38.5 -16.5q-37 0 -62.5 30.5t-21.5 49.5q29 109 170 559t186 607q26 72 5 102q-19 26 -47.5 43.5t-51.5 17.5q-100 0 -170 -98q-56 -80 -98.5 -184t-87.5 -260q-1 -6 2 -12.5t8 -6.5q132 4 168 4
q6 0 11 -7.5t5 -14.5q0 -19 -13.5 -35.5t-33.5 -17.5q-64 -9 -159 -9q-16 0 -25 -22q-170 -604 -231 -791q-35 -112 -103 -194t-147 -131q-61 -38 -150.5 -71.5t-140.5 -33.5q-61 0 -119 24t-84 62q-43 -44 -130.5 -92.5t-151.5 -48.5q-85 0 -125.5 32.5t-38.5 65.5
q0 29 18 62.5t47 52.5q18 10 35.5 12t22.5 -4q39 -38 58.5 -55.5t50 -37.5t50.5 -20q35 0 59.5 34t51.5 108q48 136 295 1009q3 7 -0.5 12t-11.5 5h-138q-16 0 -16 14q1 22 17 41t28 19q49 6 131 6q15 0 21 22q28 70 42 103.5t45.5 97.5t60 104t73 88.5t96.5 85.5
q46 32 123.5 58t128.5 26zM805 1317q-117 0 -203 -182q-57 -119 -113 -312q-2 -5 2 -9.5t11 -4.5l289 8q15 0 22 25q4 9 23.5 59t28 69.5t26 59.5t35 72.5t37.5 64.5q3 5 6 16.5t2 14.5q-21 56 -72.5 87.5t-93.5 31.5zM326 -406q56 0 103.5 51.5t88.5 182.5
q38 121 124.5 424t135.5 467q3 16 -12 16l-291 -8q-4 0 -10 -4.5t-8 -9.5q-208 -731 -213 -748q-34 -118 -109 -254q-9 -16 2 -33q27 -38 80 -61t109 -23z" />
    <glyph glyph-name="f_f_j" unicode="ffj" horiz-adv-x="1589" 
d="M848 1374q139 0 209 -74q8 -13 24 0q167 134 340 134q58 0 103.5 -12.5t70 -30.5t40.5 -40.5t21 -39t5 -29.5q0 -56 -42 -90.5t-87 -34.5q-20 0 -42.5 19t-23.5 41q-5 76 -27 112.5t-75 36.5q-111 0 -203 -164q-81 -145 -135 -360q-2 -8 2 -16.5t10 -8.5q211 0 318 8
q31 3 65.5 7.5t60.5 8.5t31 5q13 2 21 -12.5t4 -34.5q-158 -582 -242 -840q-72 -218 -307 -342q-37 -21 -82.5 -33t-70.5 -12q-65 0 -96 26.5t-31 55.5q0 22 22 48.5t43 39.5q34 22 60 6q12 -8 37 -30.5t44.5 -34t38.5 -11.5q29 0 50 28.5t47 106.5q57 168 138 458.5
t118 439.5q4 20 -1.5 31.5t-19.5 11.5q-146 0 -272 -11q-7 0 -16 -12.5t-11 -19.5q-129 -446 -235 -771q-69 -215 -256 -333q-57 -37 -146.5 -69t-142.5 -32q-59 0 -115 24t-86 60q-42 -43 -131 -92t-149 -49q-88 0 -128 33.5t-38 66.5q2 29 20 61.5t47 51.5q18 10 35 12
t21 -4q35 -34 57.5 -53.5t52 -38t49.5 -18.5q35 0 59 32t52 107q61 170 297 1009q6 17 -17 17q-21 -1 -66 -2t-65 -2q-16 0 -16 14q1 21 18 40.5t29 21.5q4 1 127 8q13 0 21 20q27 74 49 123.5t59.5 117.5t88.5 125t116 103q50 35 121 60.5t133 25.5zM797 1307
q-53 0 -105 -47t-94 -136q-59 -123 -109 -305q-2 -5 2 -8.5t11 -3.5l286 8q17 0 25 23q7 18 23 59.5t25 64t24 57t32 66.5t37 64q13 20 7 33q-20 58 -69 91.5t-95 33.5zM317 -406q126 0 197 228q38 121 126 427.5t136 467.5q3 7 -0.5 12.5t-9.5 5.5l-289 -8q-15 0 -22 -14
q-29 -107 -106.5 -372.5t-104.5 -365.5q-35 -129 -111 -266q-9 -14 4 -31q29 -38 81 -61t99 -23z" />
    <glyph glyph-name="f_f_k" unicode="ffk" horiz-adv-x="2037" 
d="M805 1315q-119 0 -205 -180q-52 -109 -111 -312q-2 -5 2 -9.5t11 -4.5l286 6q11 0 15.5 5.5t9.5 21.5q4 11 20 50.5t22.5 55t21.5 50.5t26 57t27 52.5t33 57.5q5 8 6.5 19.5t-0.5 13.5q-22 57 -69.5 87t-94.5 30zM326 -397q57 0 105 51.5t89 181.5q38 122 124 421.5
t134 461.5q6 18 -16 18l-283 -10q-15 0 -22 -14q-156 -549 -213 -738q-38 -130 -107 -256q-12 -16 2 -30q28 -38 80 -62t107 -24zM850 1382q138 0 217 -65q8 -8 18 2q76 58 153.5 91.5t182.5 33.5q52 0 106.5 -14t84.5 -35q3 -3 9 -3t9 3q10 10 44.5 29.5t45.5 19.5
q12 0 17 -20.5t-4 -49.5q-4 -12 -56 -149.5t-124.5 -331.5t-118.5 -328q-6 -16 7 -17q13 0 21 13q102 152 254 230q82 43 178 43q52 0 83.5 -26t31.5 -60q0 -39 -40 -105t-109 -115q-89 -59 -203 -102q-17 -7 -10 -29q32 -143 59 -200q18 -41 30.5 -54.5t30.5 -13.5
q26 0 66 24t78 70q22 27 37 27q9 0 10.5 -12.5t-5 -32.5t-18.5 -39q-59 -83 -135 -141t-123 -58q-38 0 -74 37t-59 94q-11 29 -22 59.5t-24 69t-23 66.5q-22 72 -60 72q-12 0 -22.5 -14t-24.5 -44q-86 -209 -139 -307q-6 -11 -25.5 -19t-34.5 -8q-34 0 -61 23t-27 43
q0 15 17 59q41 110 379 1133q7 27 6 52.5t-8 35.5q-19 26 -47.5 43.5t-53.5 17.5q-101 0 -172 -96q-56 -80 -95.5 -181.5t-86.5 -262.5q-1 -6 2 -12.5t8 -6.5l168 2q6 0 11 -7.5t5 -12.5q0 -20 -13 -36t-32 -17q-101 -9 -161 -9q-16 0 -25 -22q-165 -586 -229 -780
q-37 -113 -105 -196t-145 -132q-61 -38 -150.5 -71.5t-140.5 -33.5q-60 0 -118.5 24.5t-86.5 61.5q-44 -46 -132 -97.5t-152 -51.5q-84 0 -124 36t-38 70q2 30 20 63t47 52q18 10 35 12t21 -4q114 -110 159 -110q35 0 60 33t53 108q48 134 293 999q3 7 -0.5 13t-9.5 6
l-140 -2q-16 0 -16 14q1 22 17 41t28 19q49 6 131 6q7 0 13 7t8 15q20 51 29 73t30.5 70.5t36.5 75t41 68.5t50.5 70.5t58.5 61t71 58.5q47 33 121.5 58.5t130.5 25.5zM1747 719q-15 0 -45.5 -10.5t-54.5 -26.5q-51 -31 -101.5 -97t-79.5 -134q-4 -13 2.5 -22t18.5 -9
q63 2 138 40t129 98.5t54 119.5q0 41 -61 41z" />
    <glyph glyph-name="f_f_t" unicode="fft" horiz-adv-x="1673" 
d="M846 1382q146 0 207 -71q11 -14 24 2q55 55 132.5 93t158.5 38q76 0 121 -37t45 -86q0 -54 -41 -109q-15 -17 -44.5 -29t-41.5 -12q-8 0 -17 7t-6 18q5 23 5 84q2 39 -18 69.5t-56 30.5q-48 0 -88.5 -45t-83.5 -139q-57 -121 -123 -362q-4 -10 0 -16.5t12 -6.5
q52 1 157.5 3t145.5 3q17 0 27 19q48 92 102 161q42 58 123 58q32 0 15 -62q-3 -14 -23 -80.5t-23 -76.5q-6 -21 15 -21q119 0 174 -2q3 0 5.5 -0.5t4 -1.5t2.5 -1.5t1.5 -3.5t0.5 -3.5v-4.5v-5q0 -15 -14.5 -33t-30.5 -19q-62 -10 -170 -10q-20 0 -28 -14
q-45 -94 -191 -508q-5 -16 0.5 -31.5t17.5 -15.5q27 0 88 38.5t103 78.5q12 10 27.5 13t17.5 -9q0 -25 -23 -60q-66 -92 -197.5 -171t-209.5 -79q-23 0 -49.5 28t-26.5 52q0 25 10 56q2 6 41 107.5t94.5 246.5t94.5 244q10 26 -13 26q-39 -2 -292 -2q-16 0 -27 -18
q-146 -522 -236 -793q-63 -201 -247 -319q-60 -37 -149 -69t-142 -32q-61 0 -118 24t-83 62q-39 -42 -132.5 -92.5t-154.5 -50.5q-80 0 -120.5 32.5t-40.5 67.5q2 30 20.5 62.5t46.5 50.5q13 9 30 11.5t21 -3.5q113 -113 166 -113q34 0 55.5 31.5t53.5 110.5
q53 141 299 1009q6 17 -17 17h-131q-16 0 -16 14q1 22 18 42t29 20q50 6 125 6q17 0 23 20q28 76 49.5 125t59.5 120t89 129t115 103q48 34 120 59t132 25zM797 1317q-110 0 -197 -184q-68 -142 -113 -312q-2 -5 1.5 -9.5t13.5 -4.5l280 2q16 0 27 25q70 204 145 325
q14 19 9 37q-21 56 -73 88.5t-93 32.5zM313 -406q60 0 109 48t90 178q17 56 262 891q3 8 -1.5 13t-14.5 5l-283 -4q-15 0 -22 -14q-29 -105 -106 -373.5t-105 -370.5q-35 -123 -109 -256q-11 -17 0 -35q28 -37 80.5 -59.5t99.5 -22.5z" />
    <glyph glyph-name="f_h" unicode="fh" horiz-adv-x="1597" 
d="M1190 1444q11 0 17 -16.5t-1 -38.5q-44 -132 -118 -347.5t-126.5 -367t-56.5 -166.5q-4 -10 6 -11.5t15 3.5q133 172 274 262q110 72 197 72q47 0 79 -29t43 -59.5t11 -55.5q0 -141 -66.5 -306.5t-132.5 -246.5q-20 -24 -53.5 -48.5t-75 -50t-49.5 -30.5
q-27 -18 -65 -33.5t-58 -15.5q-51 0 -67 18q-25 25 -25 54q0 9 22.5 40.5t34.5 43.5q3 4 17 4q78 -47 106 -47q20 0 37 28q52 90 103 267.5t51 259.5q0 40 -14 64t-38 24q-42 0 -95.5 -49.5t-157.5 -188.5q-52 -73 -134 -211.5t-133 -232.5q-16 -28 -39.5 -44t-38.5 -16
q-37 0 -62.5 30.5t-21.5 49.5q32 119 177 580t182 586q27 76 8 104q-18 27 -47 42t-55 15q-90 0 -166 -100q-57 -82 -101.5 -189t-89.5 -262q-1 -6 2.5 -13t8.5 -7q25 0 83 1t85 1q6 0 11 -7t5 -13q0 -18 -16.5 -35t-32.5 -17q-30 -3 -158 -8q-10 0 -25 -22
q-8 -28 -100.5 -360t-128.5 -455q-74 -255 -270 -377q-57 -33 -117.5 -52.5t-101.5 -19.5q-76 0 -120 34t-42 72q0 29 24 61t54 48q11 8 27 9t24 -7q91 -125 155 -125q34 0 65 59t69 199q20 69 106.5 376t147.5 517q11 35 -11 35h-108q-18 0 -26.5 8t-8.5 17q2 12 17.5 30
t37.5 19q11 2 60 3.5t55 2.5q14 3 22 22q34 90 65 159.5t72.5 141t86 123t102.5 94.5t125 68q93 35 168 35q55 0 111.5 -14t87.5 -39q2 -2 7.5 -2t8.5 4q11 11 40 30t40 19z" />
    <glyph glyph-name="f_j" unicode="fj" horiz-adv-x="1052" 
d="M897 1442q58 0 103 -13t68 -31t37.5 -40t18.5 -36.5t4 -25.5q0 -54 -42.5 -92.5t-88.5 -38.5q-20 0 -42 19t-23 43q-5 76 -26 111.5t-75 35.5q-56 0 -101 -38.5t-89 -110.5q-41 -68 -83 -178.5t-64 -204.5q-6 -27 12 -27q157 0 309 12q32 3 68 7t64.5 8t31.5 4
q13 2 21.5 -10.5t0.5 -36.5q0 -1 -102.5 -377t-146.5 -512q-72 -220 -306 -344q-83 -45 -155 -45q-63 0 -94 27t-31 57q0 21 21.5 48.5t41.5 39.5q12 9 27.5 11.5t24.5 -3.5q10 -7 31 -23.5t34 -26t31.5 -18t34.5 -8.5q29 0 49.5 28t46.5 105q55 166 139.5 475t124.5 472
q12 45 -20 45q-185 -4 -277 -15q-9 0 -26 -33q-23 -82 -74 -261.5t-88.5 -315t-61.5 -227.5q-37 -147 -104 -236t-166 -151q-54 -33 -112.5 -51.5t-98.5 -18.5q-72 0 -119 34t-47 79q0 30 25 59t53 43q11 8 27.5 9.5t21.5 -5.5q95 -123 156 -123q24 0 42.5 18t44.5 81
t56 178q151 580 238 888q3 12 -1.5 19.5t-13.5 7.5q-47 -2 -123 -2q-13 0 -20.5 6.5t-7.5 14.5t17 25.5t38 21.5q51 14 119 14q24 0 31 20q47 144 109.5 259t160.5 210q50 50 143 97t203 47z" />
    <glyph glyph-name="f_k" unicode="fk" horiz-adv-x="1495" 
d="M1184 1442q11 0 15 -20t-3 -42q-5 -14 -55.5 -151t-123.5 -335t-120 -329q-6 -17 8 -17q13 1 21 13q104 155 250 230q47 24 85.5 33.5t92.5 9.5q52 0 83 -26t31 -60q0 -40 -39.5 -105.5t-109.5 -114.5q-77 -53 -203 -102q-4 -1 -9 -9t-3 -11q24 -136 59 -209
q18 -41 31 -54.5t33 -13.5q26 0 65 24t76 70q22 27 37 27q10 0 12 -12.5t-4.5 -32.5t-19.5 -39q-57 -83 -133.5 -141t-124.5 -58q-37 0 -72.5 37.5t-58.5 93.5q-6 13 -70 195q-22 72 -60 72q-12 0 -22.5 -14t-24.5 -44q-94 -218 -139 -307q-6 -11 -25 -19t-34 -8
q-35 0 -60.5 22t-25.5 42q0 25 14 61q6 15 70 209t156 473t145 437q26 82 6 106q-37 55 -96 55q-92 0 -164 -100q-58 -82 -101.5 -186.5t-89.5 -262.5q-1 -6 2.5 -13t8.5 -7q115 0 168 2q6 0 11 -7t5 -13q0 -18 -15.5 -35t-33.5 -19q-58 -6 -158 -6q-10 0 -25 -22
q-11 -40 -102 -368.5t-127 -449.5q-73 -252 -270 -378q-56 -33 -116.5 -51.5t-102.5 -18.5q-76 0 -120 33.5t-42 72.5q0 29 23.5 59.5t54.5 49.5q10 6 26 7.5t21 -5.5q51 -63 88.5 -95t70.5 -32q34 0 65 59.5t69 200.5q21 73 108 384t148 519q3 8 -1.5 17.5t-11.5 9.5h-108
q-18 0 -26.5 8t-8.5 17q2 12 17.5 30t37.5 19q11 2 60 3.5t55 2.5q14 3 22 22q37 108 78 195.5t95 166.5t123.5 136t152.5 88q90 33 166 33q124 0 188 -49q19 -14 29 -2q12 12 38.5 30.5t37.5 18.5zM1206 719q-15 0 -45.5 -10.5t-56.5 -26.5q-49 -31 -98 -96.5t-80 -134.5
q-4 -13 2 -22t18 -9q64 2 139 40t129 98.5t54 119.5q0 41 -62 41z" />
    <glyph glyph-name="f_r" unicode="fr" horiz-adv-x="1273" 
d="M831 1444q92 0 131 -38.5t39 -94.5q0 -60 -39.5 -98.5t-82.5 -38.5q-22 0 -25 28q0 29 -3.5 57t-11.5 57.5t-25 46.5t-40 13q-71 0 -135 -123q-44 -83 -87 -202.5t-67 -214.5q-2 -5 2.5 -14t8.5 -9q315 14 331 14q43 2 74 -25t31 -75q0 -29 -66 -219q-4 -13 -2 -22
t11 -6.5t20 18.5q13 20 47.5 73.5t57 86t44.5 59.5q95 117 181 117q48 0 70 -30t22 -69q0 -77 -42.5 -128.5t-82.5 -51.5q-26 0 -31 31q-18 71 -53 71q-20 0 -46 -26t-67 -84q-21 -33 -48.5 -80t-50.5 -90.5t-52.5 -100.5t-46.5 -90.5t-41 -82t-27 -54.5q-21 -40 -54.5 -61
t-70.5 -21q-19 0 -35.5 13.5t-17.5 33.5q39 141 70 242q23 65 43.5 133.5t48.5 169.5t37 133q3 23 -15 39.5t-39 16.5q-93 -3 -227 -13q-13 0 -23 -24q-115 -397 -223 -828q-41 -145 -106.5 -227t-165.5 -145q-113 -68 -209 -68q-61 0 -112.5 30.5t-51.5 77.5q0 26 25 58
t51 45q11 8 28 9.5t23 -5.5q93 -119 156 -119q35 0 67 59.5t76 219.5q162 622 238 891q2 4 -1 11t-8 7q-18 0 -63.5 -1t-65.5 -1q-16 0 -16 25q3 18 16 32.5t29 14.5q15 1 62.5 3t62.5 3q3 0 8.5 5.5t7.5 8.5q53 168 132.5 306t164.5 208q139 113 260 113z" />
    <glyph glyph-name="f_t" unicode="ft" horiz-adv-x="1140" 
d="M1053 1053q31 0 14 -62q-3 -14 -23.5 -78.5t-23.5 -74.5q-2 -7 1 -14t9 -7q14 0 84 2.5t96 1.5q17 -2 17 -20q2 -13 -11.5 -29.5t-29.5 -19.5q-20 -3 -87 -8t-95 -5q-6 0 -14 -5t-9 -11q-16 -32 -44.5 -110.5t-78.5 -222.5t-63 -181q-5 -16 0.5 -31.5t17.5 -15.5
q27 0 88 38.5t103 78.5q14 11 28.5 13.5t16.5 -9.5q0 -29 -21 -60q-67 -91 -200 -170.5t-210 -79.5q-23 0 -50 28.5t-27 51.5q0 19 12 56q2 4 39 108t90 250t92 246q4 9 2.5 16.5t-6.5 7.5q-47 0 -162 -3t-139 -3q-12 0 -23 -22q-122 -427 -231 -863q-14 -57 -36.5 -104.5
t-44.5 -78t-55 -61t-54.5 -45.5t-57.5 -38q-53 -33 -117 -54.5t-102 -21.5q-81 0 -125.5 33t-44.5 75q0 28 32 63.5t60 45.5q9 4 25 3.5t20 -7.5q86 -119 150 -119q35 0 69 59.5t70 206.5q162 636 238 908q2 3 -4.5 8.5t-12.5 5.5h-114q-9 0 -14 7.5t-5 15.5q0 19 13 35
t30 16q19 0 65 2t60 2q7 0 14 14q54 167 141 319t173 214q126 96 239 96q88 0 130 -39.5t42 -95.5q0 -65 -41 -105.5t-86 -40.5q-9 0 -16.5 9t-7.5 20q0 5 1 23t1 22q0 143 -76 143q-34 0 -68 -28.5t-77 -112.5q-32 -63 -77 -187t-71 -227q-1 -6 3.5 -13t7.5 -7q287 5 311 8
q5 0 13.5 8.5t10.5 12.5q42 80 101 159q42 58 125 58z" />
    <glyph glyph-name="gamma_gamma" unicode="&#x3b3;&#x3b3;" horiz-adv-x="1632" 
d="M315 838q82 0 127.5 -64.5t38.5 -228.5q-2 -51 -18 -146.5t-39 -171.5q-1 -5 6 -6q12 -1 19 8q181 316 319 461q152 148 283 148q192 0 180 -301q-1 -46 -18 -143t-35 -167q-1 -3 4 -4q12 -2 20 8q180 258 266 392q80 124 131 227q3 6 18.5 6.5t18.5 -2.5
q17 -15 35.5 -55.5t18.5 -63.5q0 -50 -58 -137q-33 -44 -142.5 -171.5t-200 -246t-126.5 -200.5q-22 -51 -39 -115q-51 -187 -98 -305q-8 -19 -30 -36t-38 -13q-96 36 -118 106q-4 16 -4 43t6 39q27 60 194 305q26 34 47.5 90t28.5 96q5 43 8 75.5t4 79t-3 80.5t-15 71
t-30 60t-50 38.5t-72 15.5q-72 -1 -159 -70.5t-161.5 -171.5t-133.5 -204.5t-90 -183.5q-4 -12 -18.5 -48t-20.5 -59q-23 -75 -68 -204t-63 -169q-8 -18 -31 -35.5t-37 -13.5q-37 14 -71 44.5t-46 72.5q-4 15 -4.5 39t6.5 39q42 96 222 354q26 35 49 90t28 92q4 33 5.5 47
t5 51.5t3.5 58.5t0.5 57t-4 58t-10 51.5t-16.5 47.5t-25 35t-35 25t-47 8q-23 0 -46 -6t-46 -19t-36 -21.5t-35 -25.5t-25 -19q-11 -12 -24.5 -8.5t-12.5 31.5q1 23 22 67.5t42 71.5q48 63 114.5 104.5t128.5 41.5z" />
    <glyph glyph-name="lambda_lambda" unicode="&#x3bb;&#x3bb;" horiz-adv-x="1527" 
d="M344 1401q50 0 87.5 -17.5t60.5 -44.5t38.5 -69.5t22.5 -82t12 -91.5q11 -149 4 -748q0 -91 22 -148t56 -57q14 0 33.5 12.5t32.5 32.5q52 67 129 169t145 193.5t72 96.5q11 14 34.5 44.5t39.5 50t22 24.5q8 7 16 22.5t7 26.5q-5 162 -6 171q-16 191 -107 249
q-48 31 -117 31q-94 0 -196 -52q-20 -10 -29 2t-4 31q15 40 51 82q101 117 238 117q193 0 231 -322q8 -63 13 -347.5t3 -428.5q-2 -174 80 -174q76 0 162 80q7 6 14 -4t7 -21q0 -31 -23 -75q-48 -91 -108 -139t-117 -48q-59 0 -87 49.5t-28 114.5q0 50 13 220.5t16 201.5
q0 7 -7 10t-12 -4q-13 -21 -173 -244.5t-179 -242.5q-40 -50 -96 -79.5t-111 -29.5q-133 0 -133 170q0 50 12 224.5t15 201.5q0 7 -7 10t-12 -4q-8 -10 -143.5 -239.5t-149.5 -253.5q-13 -29 -45.5 -69t-56.5 -40q-20 0 -62.5 17.5t-60.5 35.5q-8 5 -12 26.5t2 27.5
q7 12 207.5 287.5t214.5 295.5q19 31 53 74t45 53q8 7 16 22.5t7 26.5q-1 54 -4 93.5t-11 89t-24 83.5t-40 64.5t-62.5 46t-88.5 15.5q-18 0 -36.5 -2.5t-31 -5.5t-30.5 -9.5t-24 -9t-23 -10.5l-17 -8q-17 -12 -26 -0.5t-4 30.5q7 32 47 78q98 117 223 117z" />
    <glyph glyph-name="longs_b" unicode="&#x17f;b" horiz-adv-x="1466" 
d="M1257 834q67 0 113 -43q55 -52 55 -138q0 -159 -120.5 -336.5t-274.5 -267.5q-68 -42 -138.5 -62t-117.5 -20q-90 0 -153.5 54.5t-63.5 162.5q0 79 86 346q27 84 124.5 365.5t113.5 331.5q8 19 7.5 45.5t-9.5 36.5q-50 47 -115 47q-77 0 -147.5 -116t-151.5 -380
q-128 -422 -223 -842q-40 -179 -97.5 -282t-152.5 -166q-192 -127 -305 -127q-59 0 -113.5 31t-54.5 80q0 17 24 49t56 51q13 6 30 7.5t23 -3.5q4 -4 23 -22t25 -23t22 -18.5t25 -18.5t23 -12.5t27 -10t27 -2.5q39 0 67 33t58 122t69 261q101 434 215 787q80 244 170 385
t193 209q52 36 133.5 66t134.5 30q90 0 158 -39q13 -9 49 14q45 25 68 25q8 0 13 -9.5t3.5 -27.5t-12.5 -39q-34 -64 -134 -338t-165 -469q-2 -6 5.5 -9t10.5 3q90 119 197.5 199t199.5 80zM1167 735q-35 0 -73.5 -23t-76.5 -65t-68.5 -84t-65.5 -96q-68 -108 -104 -205
t-36 -139q0 -35 19.5 -61.5t46.5 -26.5q19 0 55 21.5t72 54.5q97 100 190 283t93 278q0 25 -14 44t-38 19z" />
    <glyph glyph-name="longs_h" unicode="&#x17f;h" horiz-adv-x="1540" 
d="M881 1444q102 0 161 -41q9 -6 45 16q39 25 64 25q12 0 13 -25t-5 -39q-44 -130 -118.5 -345t-126.5 -363.5t-56 -163.5q-3 -10 6.5 -11.5t14.5 3.5q122 154 268 260q100 76 205 76q46 0 77.5 -30t42.5 -61.5t11 -56.5q0 -141 -66 -305.5t-133 -245.5q-16 -18 -42.5 -39.5
t-47 -35t-51 -33t-37.5 -23.5q-72 -47 -115 -47q-49 0 -65 18q-25 25 -25 54q0 19 43 71q4 4 21 4q5 -3 23 -14t27 -16t23 -10t25 -5q20 0 39 31q54 90 107 269.5t53 263.5q0 40 -13.5 64t-38.5 24q-44 0 -97 -49t-157 -187q-32 -44 -75 -113.5t-73 -122t-69.5 -123
t-46.5 -83.5q-14 -28 -39 -45t-41 -17q-37 0 -62.5 30.5t-21.5 49.5q34 124 186 605t179 569q20 68 8 80q-50 47 -137 47q-77 0 -151 -119t-150 -377q-132 -450 -219 -838q-40 -179 -97.5 -282t-152.5 -166q-195 -129 -307 -129q-59 0 -113.5 32t-54.5 79q0 17 24.5 50
t55.5 50q36 18 51 6q54 -50 93.5 -75t84.5 -25q38 0 65 30.5t57.5 118.5t69.5 258q34 151 95 379.5t116 405.5q145 447 367 596q48 34 137.5 65t145.5 31z" />
    <glyph glyph-name="longs_i" unicode="&#x17f;i" horiz-adv-x="1062" 
d="M850 1444q90 0 142 -38.5t52 -100.5q0 -38 -31.5 -71.5t-68.5 -33.5q-27 0 -53 33q-87 104 -160 104q-37 0 -65.5 -17.5t-63 -69t-72.5 -155t-81 -264.5q-136 -513 -203 -808q-44 -187 -100 -288.5t-150 -164.5q-192 -127 -307 -127q-60 0 -113 30t-53 78q0 21 25.5 55
t56.5 48q12 6 29.5 7.5t21.5 -3.5q53 -50 91.5 -74t84.5 -24q38 0 64.5 30.5t56 118t67.5 258.5q35 155 97 393t116 416q49 158 110.5 275.5t119.5 182.5t127 112q55 37 131 67.5t129 30.5zM928 829q18 0 33.5 -21.5t15.5 -37.5q0 -20 -23 -72q-49 -120 -111 -280.5
t-95 -239.5q-11 -31 18 -31q17 0 70 35t100 78q28 25 41 25q4 0 9 -5t5 -12q0 -31 -37 -71q-67 -84 -191.5 -159t-189.5 -75q-23 0 -49 18t-26 39q0 17 8 37q38 96 114 277t117 282q6 17 1.5 27.5t-19.5 7.5q-63 -15 -135 -67q-6 -6 -15.5 0t-9.5 14q0 17 23 47
q41 49 155.5 116.5t190.5 67.5z" />
    <glyph glyph-name="longs_k" unicode="&#x17f;k" horiz-adv-x="1419" 
d="M881 1444q99 0 161 -41q10 -7 45 14q34 27 62 27q11 0 12.5 -24t-4.5 -38q-4 -14 -54 -145.5t-122 -323.5t-119 -323q-7 -21 3 -24q7 -3 14 7q113 148 251 220q81 41 181 41q52 0 82 -29t30 -72q0 -39 -38 -95t-109 -106q-89 -59 -199 -102q-19 -8 -12 -33
q34 -145 59 -200q20 -40 33 -53t31 -13q27 0 64.5 23t76.5 71q20 25 35 25q9 0 11 -12t-3.5 -31.5t-17.5 -38.5q-58 -86 -134 -143.5t-124 -57.5q-38 0 -74 37.5t-59 93.5q-14 38 -38 107.5t-32 91.5q-23 68 -59 68q-25 0 -50 -58q-107 -255 -133 -305q-7 -11 -27.5 -20
t-35.5 -9q-36 0 -61 19.5t-25 38.5q0 38 12 69q30 76 381 1139q15 56 4 72q-54 51 -133 51q-78 0 -152 -121.5t-151 -382.5q-132 -450 -219 -838q-40 -179 -97.5 -282t-152.5 -166q-195 -129 -307 -129q-59 0 -113.5 32t-54.5 79q0 17 24.5 50t55.5 50q36 18 51 6
q54 -50 93.5 -75t84.5 -25q38 0 65 30.5t57.5 118.5t69.5 258q34 151 95 379.5t116 405.5q141 443 365 596q53 36 137.5 66t147.5 30zM1159 717q-71 0 -158 -84.5t-129 -181.5q-10 -31 23 -31q57 1 132.5 37t134 97t59.5 122q0 41 -62 41z" />
    <glyph glyph-name="longs_l" unicode="&#x17f;l" horiz-adv-x="1024" 
d="M881 1444q96 0 161 -43q9 -6 43 16q39 27 66 27q12 0 14 -25t-4 -39q-93 -246 -247 -677.5t-197 -557.5q-25 -67 14 -67q11 0 32.5 14t50 39.5t50.5 46.5t51.5 50t36.5 36q10 8 18.5 5t8.5 -13q0 -9 -5 -30.5t-9 -30.5q-55 -101 -159 -164.5t-198 -63.5q-43 0 -75.5 30
t-32.5 62q0 26 59 197q36 104 157 444.5t185 526.5q6 18 6.5 45t-6.5 35q-27 23 -64 36t-69 13q-158 0 -305 -498q-132 -450 -219 -838q-40 -179 -97.5 -282t-152.5 -166q-195 -129 -307 -129q-59 0 -113.5 32t-54.5 79q0 17 24.5 50t55.5 50q12 6 28.5 7.5t22.5 -1.5
q72 -67 102 -85q39 -24 76 -24q38 0 65.5 33t57.5 122.5t69 260.5q34 151 95 379.5t116 405.5q145 447 367 596q51 36 134.5 66t148.5 30z" />
    <glyph glyph-name="longs_longs" unicode="&#x17f;s" horiz-adv-x="987" 
d="M850 1401q108 0 207 -76q10 -10 20 0q153 119 269 119q71 0 115.5 -33t43.5 -90q-1 -37 -34 -70.5t-62 -33.5q-4 0 -7 0.5t-6 2.5t-5 3.5t-5.5 5.5t-5 6t-5 8t-5.5 8q-66 92 -129 92q-47 0 -88 -42t-90 -153.5t-105 -305.5q-64 -227 -204 -752q-50 -188 -115.5 -303
t-159.5 -176q-184 -125 -303 -125q-43 0 -103.5 24t-92.5 54q-7 7 -23 -2q-72 -53 -149.5 -86t-141.5 -33q-60 0 -112.5 29.5t-51.5 78.5q0 22 24.5 52t57.5 49q38 17 56 6q8 -7 40 -36t44.5 -38.5t37.5 -21t48 -11.5q54 0 96.5 94t107.5 351q96 363 197 684q39 116 71 195
t77.5 164.5t104 151.5t132.5 116q58 37 130.5 65.5t123.5 28.5zM764 1317q-36 0 -72 -26.5t-66 -72t-58 -102t-52 -122t-44.5 -125.5t-38.5 -118q-9 -29 -13 -42q-136 -480 -180 -662q-22 -93 -58.5 -189t-72.5 -155q-2 -3 0 -12t6 -13q41 -47 82.5 -71.5t97.5 -24.5
q63 0 111 91t120 347q154 550 219 748q37 121 90 237.5t97 178.5q13 18 4 33q-25 48 -65.5 74t-106.5 26z" />
    <glyph glyph-name="longs_longs_i" unicode="&#x17f;si" horiz-adv-x="1546" 
d="M762 1315q-128 0 -254 -340q-23 -62 -88 -266q-138 -490 -180 -662q-22 -92 -58.5 -188.5t-70.5 -153.5q-5 -15 4 -24q83 -93 188 -93q36 0 68 37t69.5 133t85.5 265q148 530 219 745q37 121 90 241t95 181q13 16 4 31q-53 94 -172 94zM1430 829q13 0 31 -22.5t18 -36.5
q0 -20 -23 -72q-56 -133 -121 -300t-86 -220q-4 -13 2.5 -22t20.5 -9q17 0 64 32.5t100 80.5q28 25 41 25q4 0 10 -5t6 -10q0 -30 -37 -73q-72 -87 -193 -160.5t-186 -73.5q-24 0 -52 20t-28 40q0 11 9 34q23 55 68.5 164.5t84 202.5t76.5 192q5 14 0.5 25t-16.5 10
q-55 -8 -136 -67q-7 -7 -17.5 -1.5t-10.5 13.5q0 22 26 51q42 47 157.5 114.5t191.5 67.5zM850 1401q66 0 113.5 -15t93.5 -53q9 -9 20 -2q50 33 80.5 50.5t91 39t115.5 21.5q52 0 93 -12.5t64.5 -30.5t39 -39.5t20.5 -38.5t4 -29q0 -52 -40 -88.5t-79 -36.5
q-19 0 -42.5 17.5t-26.5 38.5q-13 141 -105 141q-93 0 -174.5 -125t-159.5 -397q-45 -159 -115 -419.5t-89 -330.5q-50 -190 -114.5 -304t-158.5 -175q-184 -125 -305 -125q-43 0 -102.5 23.5t-91.5 54.5q-2 2 -10 2t-15 -4q-73 -54 -151 -87.5t-140 -33.5q-59 0 -112 31
t-52 80q2 22 25.5 52t56.5 48q24 11 33 12t23 -8q9 -8 33.5 -29t35 -29t29.5 -20.5t36 -17t36 -4.5q54 0 97 92t109 348q82 323 195 682q39 116 71 195t77.5 164.5t104 151.5t132.5 116q58 37 130.5 65.5t123.5 28.5z" />
    <glyph glyph-name="longs_longs_l" unicode="&#x17f;sl" horiz-adv-x="1517" 
d="M758 1327q-54 0 -102.5 -48.5t-94 -153t-67.5 -165.5t-61 -185q-8 -23 -11 -34q-77 -274 -189 -696q-65 -236 -129 -344q-2 -3 -0.5 -12t5.5 -13q85 -92 188 -92q55 0 104 92.5t119 341.5q163 581 221 760q38 121 92 238t97 180q11 14 4 31q-54 100 -176 100zM848 1411
q66 0 113.5 -15t93.5 -53q10 -10 20 0q144 111 279 111q49 0 104.5 -13.5t83.5 -35.5q3 -2 12 -1t13 5q15 15 41 32t37 17q10 0 14.5 -20t-2.5 -45q-246 -651 -455 -1237q-24 -68 15 -68q12 0 33.5 14t50.5 39.5t51 46.5t52 50.5t36 35.5q10 7 18 4t8 -12t-5.5 -30.5
t-10.5 -30.5q-55 -101 -157.5 -164.5t-196.5 -63.5q-44 0 -77.5 30.5t-33.5 62.5q0 25 59 196q174 494 345 965q22 76 6 98q-15 23 -45.5 38t-59.5 15q-181 0 -334 -530q-47 -165 -126.5 -460t-81.5 -304q-49 -186 -115 -301t-158 -180q-166 -123 -305 -123
q-44 0 -104.5 24.5t-90.5 55.5q-12 6 -24 -4q-73 -52 -150 -84.5t-139 -32.5q-60 0 -113.5 29.5t-52.5 76.5q2 22 25.5 52.5t56.5 48.5q21 11 31.5 11.5t23.5 -9.5q11 -9 41.5 -35t43.5 -35.5t37.5 -20t47.5 -10.5q54 0 97.5 94t109.5 351q98 383 199 694q25 75 45.5 131.5
t47.5 120.5t55.5 113.5t64 99t78.5 91t94 75.5q54 35 127 62.5t127 27.5z" />
    <glyph glyph-name="longs_t" unicode="&#x17f;t" horiz-adv-x="1105" 
d="M907 1430q102 0 168 -52.5t66 -111.5q0 -8 -9.5 -38t-27.5 -80t-34.5 -95.5t-41.5 -112.5t-39 -104q-4 -8 -2 -17.5t10 -9.5q22 0 65.5 -0.5t79.5 -1t38 -0.5q5 0 9.5 -8.5t2.5 -12.5q2 -14 -13 -32t-30 -21q-69 -6 -180 -6q-10 0 -21 -16q-46 -94 -188 -500
q-5 -14 0.5 -30.5t17.5 -16.5q26 0 87 39t102 78q13 12 28.5 14t16.5 -10q0 -29 -21 -60q-68 -92 -199.5 -171t-209.5 -79q-22 0 -48.5 27.5t-27.5 52.5q0 19 12 56q3 7 40.5 105t93 242.5t93.5 243.5q4 8 2.5 17.5t-6.5 9.5q-21 0 -56 1t-52 1q-27 0 -27 21q0 18 14.5 35.5
t20.5 17.5q20 1 65.5 2t63.5 2q11 0 23 20q28 61 149 400q9 46 -8 61q-54 47 -143 47q-93 0 -172.5 -120t-153.5 -369q-146 -466 -234 -828q-44 -182 -100 -284t-151 -164q-192 -129 -306 -129q-60 0 -114 31.5t-54 79.5q0 15 24.5 48t55.5 52q14 8 29 9t23 -5
q40 -36 59.5 -51.5t53.5 -33t65 -17.5q37 0 64.5 34t57.5 122.5t70 260.5q109 438 211 734q158 456 410 624q137 99 278 99z" />
    <glyph glyph-name="n_t.end" unicode="n&#xe26c;" horiz-adv-x="2545" 
d="M391 834q45 0 67 -36.5t1 -84.5q-4 -9 -50.5 -117t-56.5 -133q-11 -28 0 -34q10 -5 23 17q45 70 121.5 162t121.5 129q121 97 209 97q63 0 101.5 -39t38.5 -90q0 -57 -31 -134q-30 -81 -87 -208t-75 -160q-15 -29 -16.5 -48t6.5 -26.5t22 -7.5q73 -2 266.5 187t362.5 431
h-172q-22 0 -22 35q0 10 14.5 23.5t28.5 13.5q4 0 94 1t94 1q9 0 35 29q29 35 76 96.5t76 98t36 36.5q25 0 43.5 -15.5t18.5 -33.5q3 -23 -56 -184q-6 -25 9 -25q147 0 202 -2q7 0 13 -9.5t6 -17.5q0 -18 -14.5 -33.5t-32.5 -15.5h-189q-20 0 -27 -7t-16 -28
q-47 -95 -186 -487q-12 -34 -10.5 -67t14.5 -37q7 -3 59 -8.5t152.5 -11t202.5 -5.5q110 0 193 8t147.5 26t97.5 50t33 78q0 29 -11.5 42t-48.5 23q-39 14 -57 39t-18 51q0 43 36.5 80t79.5 37q53 0 90 -56.5t37 -125.5q0 -97 -51.5 -167t-130.5 -105q-93 -43 -198.5 -62.5
t-321.5 -19.5q-34 0 -225 8t-195 8q-29 2 -107 -6q-31 -3 -36.5 7t10.5 65q7 18 47.5 119.5t83.5 208.5t70 169q4 9 -0.5 13.5t-11.5 3t-9 -6.5q-48 -66 -148.5 -184.5t-201.5 -212.5q-69 -65 -137 -109.5t-121.5 -64t-88.5 -26.5t-63 -7q-29 0 -56.5 12t-39.5 29
q-26 32 -4 74q29 57 139 285t125 270q31 88 -33 88q-37 0 -93.5 -50t-115.5 -134q-54 -75 -160.5 -251.5t-123.5 -201.5q-78 -125 -111 -125q-38 0 -68 28t-30 54q-2 36 47 146q4 10 87.5 191t119.5 273q13 33 -10 33q-27 0 -59.5 -18t-50 -33.5t-50.5 -46.5
q-14 -14 -29 -14q-4 0 -9 9t-5 15q0 75 92 153.5t221 78.5z" />
    <glyph glyph-name="f_f" unicode="ff" horiz-adv-x="1095" 
d="M846 1384q140 0 209 -73q3 -3 9.5 -2.5t10.5 6.5q53 53 132 92t159 39q76 0 121 -37t43 -86q0 -61 -41 -109q-15 -17 -44.5 -28.5t-41.5 -11.5q-8 0 -16.5 6.5t-4.5 17.5q4 18 4 84q0 39 -19.5 69.5t-53.5 30.5q-48 0 -88.5 -45t-83.5 -139q-51 -110 -123 -352
q-3 -10 0.5 -16.5t11.5 -6.5l180 8q9 0 15 -6.5t6 -15.5q0 -10 -17 -30t-30 -21q-83 -9 -183 -13q-10 0 -22 -24q-150 -535 -238 -801q-64 -205 -245 -319q-61 -37 -148.5 -69t-140.5 -32q-60 0 -116.5 23.5t-84.5 60.5q-39 -42 -131.5 -91.5t-153.5 -49.5
q-82 0 -122.5 32.5t-38.5 67.5q2 30 19.5 61.5t45.5 51.5q14 9 31.5 11t21.5 -3q115 -115 166 -115q34 0 55.5 32t53.5 112q53 149 297 1009q6 17 -17 17l-131 -4q-16 0 -16 14q1 22 18 42t29 20q83 10 125 10q17 0 23 20q28 75 49.5 125.5t60 121t89.5 129t114 103.5
q46 32 123 58t129 26zM504 809l280 10q8 0 16.5 8.5t10.5 16.5q10 24 29 75t31.5 81.5t34 75.5t46.5 85q5 7 6.5 20t-0.5 15q-20 57 -70 90t-91 33q-53 0 -103.5 -47.5t-93.5 -136.5q-57 -120 -113 -314q-2 -5 2.5 -8.5t14.5 -3.5zM762 739l-287 -12q-13 0 -20 -14
q-29 -106 -107.5 -375.5t-105.5 -370.5q-32 -117 -111 -260q-9 -14 4 -31q28 -38 79.5 -61t98.5 -23q60 0 107 48t88 180q31 100 69 228t97 330.5t98 334.5q4 26 -10 26z" />
    <glyph glyph-name="f_i" unicode="fi" horiz-adv-x="1048" 
d="M1128 1296q0 -50 -38 -90.5t-93 -40.5q-24 0 -44 19t-21 43q-3 75 -25.5 111t-75.5 36q-56 0 -101 -39t-89 -112q-39 -65 -81.5 -177t-67.5 -210q-2 -8 1.5 -15.5t10.5 -7.5q172 0 309 10q94 7 164 25q11 2 18 -9.5t0 -25.5q-39 -92 -119.5 -312.5t-111.5 -320.5
q-4 -10 1 -21.5t13 -11.5q19 0 73.5 36t98.5 75q25 25 43 25q4 0 8.5 -5t4.5 -12q0 -24 -37 -71q-67 -85 -190 -158.5t-189 -73.5q-23 0 -46.5 22.5t-23.5 47.5q0 31 12 63q31 75 232 623q3 12 -2 19t-14 7q-173 0 -273 -10q-10 0 -24 -28q-213 -748 -230 -813
q-40 -149 -106.5 -238t-163.5 -148q-116 -65 -209 -65q-72 0 -119 33t-47 75q0 27 25 59.5t51 47.5q13 7 29 8t22 -6q95 -123 158 -123q24 0 41.5 18t42.5 80.5t57 180.5q118 451 240 886q6 25 -15 25h-125q-13 0 -19.5 6.5t-6.5 14.5t17 25.5t38 21.5q18 5 66.5 9t54.5 5
q24 4 27 18q101 301 276 471q51 51 142.5 97.5t199.5 46.5q59 0 104 -13t68 -31t37.5 -40.5t18 -36.5t3.5 -25z" />
    <glyph glyph-name="f_l" unicode="fl" horiz-adv-x="1058" 
d="M909 1444q112 0 170 -47q21 -12 29 -2q12 12 37.5 30.5t34.5 18.5q11 0 16 -19t-2 -41q-79 -202 -231.5 -643t-206.5 -610q-8 -29 -3 -44t17 -15q41 0 223 190q11 9 20 7t9 -11q0 -10 -5 -30.5t-11 -30.5q-54 -104 -155.5 -167t-197.5 -63q-51 0 -79.5 35t-26.5 66
q4 32 49 170q154 445 170 493q6 19 -10 19l-281 -11q-5 0 -12 -6.5t-10 -15.5q-16 -56 -66.5 -234.5t-96.5 -339.5t-73 -252q-41 -143 -109.5 -232t-160.5 -146q-57 -33 -117.5 -52.5t-101.5 -19.5q-76 0 -120 34t-42 74q0 29 24 60t54 47q10 6 27 9t22 -3q98 -129 157 -129
q34 0 65 59t69 199q18 62 105.5 378t148.5 527q9 33 -9 33h-110q-19 0 -32 8.5t-13 16.5q2 11 18.5 29.5t36.5 21.5q12 2 68.5 5.5t60.5 4.5q6 0 13 7.5t10 15.5q42 113 81 195t92 160.5t120.5 133t150.5 84.5q88 33 184 33zM838 1378q-47 0 -84.5 -21.5t-75.5 -74.5
q-96 -134 -191 -446q-2 -6 3 -12.5t14 -6.5q12 0 132 4t140 4q10 0 25 19q3 7 27.5 76.5t56 162.5t45.5 131q29 86 16 113q-13 20 -47.5 35.5t-60.5 15.5z" />
    <glyph glyph-name="f_f_i" unicode="ffi" horiz-adv-x="1617" 
d="M852 1386q136 0 209 -73q11 -11 22 -2q166 135 344 135q71 0 122 -18.5t73.5 -46t31.5 -49.5t9 -40q0 -56 -42 -90.5t-85 -34.5q-22 0 -44 17.5t-22 40.5q-3 77 -26 116t-76 39q-110 0 -201 -163q-37 -67 -77 -172t-64 -203q-3 -8 -1 -16.5t7 -8.5q195 0 328 10
q110 9 156 21q11 2 16.5 -9t-0.5 -26q-43 -98 -121 -313.5t-108 -317.5q-4 -16 1 -26.5t13 -10.5q16 0 68.5 33.5t101.5 81.5q16 19 41 19q14 -5 5 -29.5t-26 -48.5q-60 -84 -185.5 -161t-193.5 -77q-24 0 -47.5 22t-23.5 52q0 35 18 82q28 71 120.5 318.5t102.5 279.5
q4 17 0 22.5t-18 5.5q-190 0 -270 -8q-7 0 -16 -8t-11 -16q-155 -545 -233 -789q-66 -205 -250 -323q-60 -37 -149.5 -69t-141.5 -32q-57 0 -110.5 20t-84.5 54q-2 2 -8 3t-10 -3q-49 -46 -132.5 -88.5t-142.5 -42.5q-86 0 -124.5 34t-36.5 68q2 29 19.5 60t45.5 51
q17 9 34.5 12t21.5 -2q112 -112 161 -112q35 0 60 33.5t51 107.5q63 177 297 1007q6 17 -14 17l-134 -4q-16 0 -16 14q1 21 17 40.5t28 21.5q24 3 127 10q15 0 21 16q29 77 51 126.5t60.5 121.5t89.5 130t114 103q50 34 126.5 61t131.5 27zM805 1319q-120 0 -205 -184
q-55 -115 -111 -312q-2 -5 1.5 -9.5t11.5 -4.5l284 6q17 0 27 23q5 13 19 50.5t21 55t20.5 51t24.5 56.5t27 53t33 57q4 7 6.5 18.5t0.5 14.5q-21 55 -68.5 90t-91.5 35zM319 -406q26 0 49.5 9.5t49 32.5t50.5 69.5t46 114.5q11 34 262 897q3 7 -0.5 13.5t-11.5 6.5
l-287 -10q-15 0 -22 -14q-29 -105 -107 -372t-106 -372q-32 -117 -111 -260q-7 -13 4 -31q29 -38 83 -61t101 -23z" />
    <glyph glyph-name="f_f_l" unicode="ffl" horiz-adv-x="1591" 
d="M1427 1446q129 0 191 -53q5 -4 12 -3.5t10 5.5q14 14 39 32.5t35 18.5q11 0 17.5 -19t-0.5 -41q-80 -205 -235.5 -648.5t-205.5 -602.5q-20 -57 13 -57q47 0 223 184q10 9 20 7t10 -11t-5.5 -30.5t-10.5 -30.5q-54 -103 -156.5 -166.5t-199.5 -63.5q-49 0 -78 29t-29 63
q0 37 51 187q89 247 168 485q5 23 -8 23l-284 -15q-6 0 -12.5 -7t-8.5 -13q-150 -535 -231 -791q-37 -113 -105 -194.5t-147 -130.5q-62 -38 -150.5 -71.5t-140.5 -33.5q-58 0 -114 21.5t-83 56.5q-8 8 -14 2q-44 -45 -128 -90t-146 -45q-85 0 -125.5 32.5t-38.5 65.5
q2 30 21 63.5t46 51.5q14 9 33 11t23 -3q39 -38 58.5 -55.5t50 -37.5t50.5 -20q35 0 60 33.5t53 108.5q44 134 295 1007q3 17 -10 17l-140 -4q-16 0 -16 14q1 22 16 40.5t27 20.5q16 1 66.5 5.5t66.5 5.5q12 0 21 18q21 54 29.5 74.5t30.5 71t36.5 76.5t40.5 69t50.5 71.5
t58.5 61.5t71 59q46 33 124 59.5t128 26.5q148 0 215 -67q9 -11 22 2q162 125 340 125zM502 807l289 12q17 0 26 25q5 12 19.5 50.5t21 55.5t20.5 51.5t25 57t27 53t33 57.5q13 19 6 33q-41 115 -164 115q-117 0 -203 -180q-65 -135 -113 -316q-2 -5 2 -9.5t11 -4.5z
M324 -406q121 0 196 238q38 120 123 418.5t135 468.5q1 7 -2 12.5t-8 5.5l-291 -12q-11 0 -20 -14q-136 -456 -215 -746q-14 -49 -49.5 -130.5t-59.5 -123.5q-8 -13 2 -33q27 -38 80 -61t109 -23zM1372 1382q-49 0 -88.5 -21.5t-77.5 -74.5q-55 -77 -97.5 -185t-90.5 -265
q-2 -6 2.5 -11.5t13.5 -5.5q12 0 137.5 6t145.5 6q7 0 18 17q4 7 28 75t57.5 165t45.5 129q28 81 9 108q-17 27 -47 42t-56 15z" />
    <glyph glyph-name=".notdef" horiz-adv-x="1024" 
d="M0 0v1434h1024v-1434h-1024zM512 809l348 522h-696zM573 717l349 -522v1044zM164 102h696l-348 523zM102 1239v-1044l349 522z" />
    <glyph glyph-name=".null" horiz-adv-x="0" 
 />
    <glyph glyph-name="nonmarkingreturn" horiz-adv-x="682" 
 />
    <glyph glyph-name="space" unicode=" " horiz-adv-x="395" 
 />
    <glyph glyph-name="exclam" unicode="!" horiz-adv-x="612" 
d="M575 1253q42 0 68 -41.5t26 -99t-24 -119.5q-35 -81 -130 -269t-153 -296q-7 -16 -24 -30.5t-35 -14.5q-13 0 -19.5 17t-4.5 40q8 59 42.5 272.5t57.5 329.5q18 99 72.5 155t123.5 56zM254 274q63 0 97 -38.5t34 -104.5q0 -76 -49 -118t-107 -42q-65 0 -98 38.5
t-33 101.5q0 66 47.5 114.5t108.5 48.5z" />
    <glyph glyph-name="quotedbl" unicode="&#x22;" horiz-adv-x="671" 
d="M516 1409q12 0 20 -17t1 -46q-14 -67 -71 -178t-128 -205q-16 -16 -44.5 -35t-45.5 -19q-9 0 -14.5 14.5t-2.5 24.5q36 96 66.5 211t36.5 158q6 18 22 29q29 22 77 42.5t83 20.5zM844 1409q7 0 13 -7t9 -21t-2 -35q-14 -69 -71.5 -181.5t-128.5 -203.5q-13 -14 -41.5 -33
t-44.5 -19q-9 0 -15.5 14t-1.5 23q36 97 65.5 212.5t35.5 158.5q5 15 26 31q28 21 75 41t81 20z" />
    <glyph glyph-name="numbersign" unicode="#" horiz-adv-x="1011" 
d="M1047 879q-38 -76 -56 -76l-153 -6q-3 0 -10.5 -7.5t-10.5 -13.5l-86 -198q-2 -5 0 -9.5t8 -3.5l164 6q7 0 10.5 -24t-0.5 -33q-9 -25 -32.5 -63.5t-38.5 -38.5l-164 -6q-5 0 -11 -3.5t-9 -7t-3 -4.5l-133 -328q-4 -12 -20.5 -20t-34.5 -8q-5 0 -14.5 7.5t-6.5 12.5
l132 330q3 7 -2.5 12.5t-10.5 5.5l-186 -8q-3 0 -12 -6.5t-9 -9.5l-137 -332q-4 -10 -23.5 -16t-29.5 -6t-16.5 9.5t-4.5 16.5l129 322q4 6 1 13t-11 7l-149 -4q-4 0 -6 22.5t0 26.5q13 45 31 76t30 31l166 8q13 0 20 14l80 197q3 6 0 13.5t-10 6.5l-168 -6q-6 7 -1.5 34.5
t13.5 53.5q3 12 23.5 39.5t28.5 28.5l168 8q19 0 24 14l113 291q3 9 25.5 17t41.5 8q6 0 13 -8.5t4 -12.5l-121 -293q-1 -4 0.5 -9t3.5 -5l186 6q19 0 27 19l127 299q10 20 65 20q2 0 5.5 -3t6 -9t-2.5 -16l-123 -287q-7 -19 4 -19l162 4q5 -16 2 -43t-8 -36zM739 772
q2 7 2.5 12t-1.5 7.5t-7 1.5l-194 -7q-15 0 -19 -16l-88 -199q-2 -4 1.5 -10.5t8.5 -5.5l187 6q18 0 26 19z" />
    <glyph glyph-name="dollar" unicode="$" horiz-adv-x="1011" 
d="M735 1272l43 131q6 12 29 12q14 0 23.5 -7.5t9.5 -14.5l-41 -127q-3 -13 8 -17q83 -30 125 -55q31 -22 51 -18q11 2 31 8.5t26 7.5q8 0 16 -9.5t3 -21.5q-83 -169 -98 -235q-12 -52 -33 -52q-13 0 -23 19t-6 51q13 81 -13.5 144.5t-94.5 97.5q-14 5 -17 -8l-133 -412
q0 -5 3.5 -13.5t6.5 -9.5q248 -210 248 -383q0 -95 -57.5 -174.5t-153.5 -128.5q-48 -25 -122.5 -41.5t-151.5 -17.5q-18 0 -21 -14l-51 -150q-1 -1 -3 -3.5t-3.5 -3.5t-3.5 -2.5t-4.5 -2.5t-5.5 -2t-7.5 -1.5t-9.5 -0.5q-10 0 -18.5 5t-10.5 11l52 160q1 0 1 2.5t-2 5.5
t-5 4q-40 9 -96 31.5t-83 40.5q-22 11 -34 10t-37 -12q-46 -24 -68 -8q-5 5 -5.5 16t3.5 20q19 46 92 285q9 28 21.5 40.5t21.5 12.5q23 0 23 -57q-6 -139 42 -211.5t136 -103.5q12 -3 16 10l144 448q4 11 -6 21q-48 44 -80.5 78.5t-70 83t-56.5 99.5t-19 103q0 88 37 159.5
t99.5 115.5t144.5 63.5t172 10.5q12 0 16 10zM588 807l121 383q1 3 -1.5 7.5t-5.5 4.5q-100 10 -169.5 -50.5t-69.5 -143.5q0 -33 8 -60.5t28 -55t32.5 -41t43.5 -44.5q9 -12 13 0zM551 475l-127 -399q-3 -3 -0.5 -11t10.5 -8q64 2 114 23.5t78.5 55t43 70.5t14.5 75
q0 86 -119 200q-3 3 -8 1.5t-6 -7.5z" />
    <glyph glyph-name="percent" unicode="%" horiz-adv-x="1531" 
d="M621 1280q94 0 147 -72.5t53 -169.5q0 -123 -77 -255.5t-193 -192.5q-75 -35 -152 -35q-92 0 -144 66t-52 157q-1 125 54.5 235.5t150.5 188.5q87 78 213 78zM614 1225q-53 0 -106 -76q-64 -84 -104 -204t-39 -232q0 -38 13 -68.5t44 -30.5q40 0 90 60q49 59 105.5 210
t56.5 246q0 42 -17 68.5t-43 26.5zM1331 1282q11 0 24.5 -9t18.5 -18q11 -15 -6 -32q-361 -426 -1061 -1272q-14 -11 -24 -8q-11 3 -21.5 14t-13.5 23q-9 13 10 32q340 403 1036 1245q25 25 37 25zM1237 700q94 0 146.5 -72.5t52.5 -168.5q0 -132 -75.5 -260t-193.5 -189
q-75 -35 -153 -35q-93 0 -144 67t-51 159q0 125 55 234t150 188q91 77 213 77zM1231 641q-51 0 -109 -74q-62 -84 -101.5 -202t-39.5 -232q0 -98 57 -98q43 0 90 59q49 60 103.5 208.5t54.5 244.5q0 43 -14.5 68.5t-40.5 25.5z" />
    <glyph glyph-name="ampersand" unicode="&#x26;" horiz-adv-x="1660" 
d="M590 997q43 0 87 -41.5t56 -126.5q1 -8 9 -8.5t12 4.5q231 207 231 381q0 47 -29 103q-12 31 -2 47q11 19 40 35t44 16q42 0 65 -36t23 -93q0 -49 -14 -97.5t-43.5 -96.5t-58 -86.5t-76.5 -87t-79 -77t-83 -75.5q-47 -42 -139.5 -106t-180 -121.5t-98.5 -65.5
q-14 -12 -14 -35q3 -52 28.5 -106.5t67.5 -101t105.5 -76t134.5 -29.5q154 0 278 88q116 84 191 211t78 225q0 11 -1 17t-4.5 13.5t-5.5 12.5q-2 6 -17 15t-43 17.5t-58 8.5t-51 -9t-31 -19t-15 -29t-5.5 -27t-0.5 -25q0 -44 31 -108q7 -22 -2 -35q-6 -10 -27.5 -18.5
t-42.5 -8.5q-49 0 -79.5 29t-30.5 66q0 50 31 97t90 103q52 48 116.5 78.5t118.5 30.5q50 0 100 -16.5t89 -42.5t61 -43.5t39 -34.5q33 -33 55 -33q19 0 19 39q0 30 -20 79t-36 74q-10 10 -3.5 23.5t30.5 13.5q59 0 96 -50t37 -99q0 -32 -18 -63t-41 -44q-98 -58 -142 -92
q-27 -13 -39 2q-44 47 -108 88q-6 3 -12.5 -6.5t-6.5 -17.5q-5 -42 -10 -68q-20 -104 -72.5 -215t-111.5 -178q-101 -115 -234 -180.5t-258 -65.5q-111 0 -197 33t-135 83t-80.5 116.5t-42 125t-10.5 117.5q0 268 207 465q46 44 119.5 90.5t118.5 46.5zM330 553
q0 -7 5 -10.5t11 0.5q41 24 121 75.5t92 61.5q16 16 16 65q-2 37 -29.5 80t-68.5 43q-62 0 -106.5 -96t-40.5 -219z" />
    <glyph glyph-name="quotesingle" unicode="'" horiz-adv-x="339" 
d="M522 1409q12 0 20 -17t1 -46q-14 -66 -73 -177t-132 -206q-13 -15 -41 -34.5t-43 -19.5q-13 0 -20 17t-3 26q27 79 58.5 201.5t36.5 161.5q7 20 28 35q31 21 82.5 40t85.5 19z" />
    <glyph glyph-name="parenleft" unicode="(" horiz-adv-x="755" 
d="M938 1483q27 0 27 -21q0 -22 -39 -53q-582 -446 -582 -1212q0 -175 31 -316.5t69 -232.5q8 -19 5 -32t-15 -13q-26 0 -67 41q-25 23 -53.5 64.5t-64.5 116t-59.5 192t-23.5 253.5q0 169 37.5 325.5t100 280t149 231.5t178.5 186t194 139q91 51 113 51z" />
    <glyph glyph-name="parenright" unicode=")" horiz-adv-x="755" 
d="M-86 -397q-29 0 -29 22q0 9 16 26t27 25q580 444 580 1213q0 301 -102 549q-9 19 -5.5 32t15.5 13q6 0 11 -1t11 -4l10 -5t10.5 -7.5t8.5 -7.5t9.5 -8.5t8.5 -7.5q18 -18 39 -45t51.5 -83.5t53.5 -122.5t40 -166t17 -210q0 -169 -38 -325t-101 -278.5t-150 -231
t-178.5 -186.5t-193.5 -140q-28 -18 -53.5 -30.5t-39 -16.5t-18.5 -4z" />
    <glyph glyph-name="asterisk" unicode="*" horiz-adv-x="751" 
d="M844 1130q16 3 34.5 -2t18.5 -22q0 -9 -14 -22t-29 -19q-83 -33 -166 -59q-14 -3 2 -19q21 -21 42 -46t46 -57t35 -44q18 -24 18 -52q0 -6 -8 -10t-23.5 -2.5t-31.5 12.5q-28 19 -77.5 62t-80.5 74q-14 14 -18 -2q-48 -161 -72 -193q-17 -31 -43 -31q-8 0 -12.5 9
t-4.5 32t7 56q6 33 18 87.5t13 61.5q1 6 -5.5 8t-13.5 0q-169 -41 -196 -41q-22 0 -38 6.5t-16 16.5q0 8 10 19t27 18q22 11 44.5 20.5t38.5 15t49.5 17t58.5 20.5q5 2 7 7.5t-3 13.5q-10 10 -46 43t-61.5 60t-40.5 51q-13 22 -1.5 36.5t40.5 4.5q5 -1 23 -12t58.5 -41
t90.5 -72q6 -6 12.5 -5t8.5 7q0 1 25.5 73.5t39.5 98.5q20 39 43 39q8 0 14.5 -14t6.5 -34q-3 -64 -25 -182q-3 -18 15 -18q66 17 180 30z" />
    <glyph glyph-name="plus" unicode="+" horiz-adv-x="1277" 
d="M600 1020q0 11 31.5 21t56.5 10q51 0 51 -37v-414q0 -18 17 -18h403q27 0 27 -33q0 -35 -9.5 -62.5t-19.5 -27.5h-399q-19 0 -19 -23l-2 -428q0 -18 -30.5 -28.5t-65.5 -10.5q-13 0 -27 7t-14 22v438q0 23 -18 23h-392q-34 0 -34 47q0 22 9 49t19 27h402q14 0 14 16v422z
" />
    <glyph glyph-name="comma" unicode="," horiz-adv-x="505" 
d="M178 307q48 0 81.5 -29.5t46.5 -67.5t13 -79q0 -61 -26.5 -115.5t-64.5 -92t-87.5 -68.5t-89 -48t-76.5 -28q-25 -4 -44 2t-19 18q0 16 13 28t40 28q174 96 174 202q0 32 -18.5 49t-59.5 33q-9 5 -19.5 18.5t-10.5 20.5q0 48 42 88.5t105 40.5z" />
    <glyph glyph-name="hyphen" unicode="-" horiz-adv-x="679" 
d="M158 502q42 7 226 27t194 20q11 0 17.5 -12t4.5 -21q0 -27 -22.5 -72.5t-47.5 -48.5q-15 -2 -407 -41q-9 -1 -17 9t-8 18q0 26 24 72.5t36 48.5z" />
    <glyph glyph-name="period" unicode="." horiz-adv-x="505" 
d="M176 274q63 0 97 -38.5t34 -104.5q0 -76 -49 -118t-106 -42q-66 0 -100 38.5t-34 101.5q0 66 48.5 114.5t109.5 48.5z" />
    <glyph glyph-name="slash" unicode="/" horiz-adv-x="710" 
d="M-57 -92q382 640 860 1411q16 22 37 22q38 0 53 -6q7 -3 10 -11t-2 -17q-234 -381 -860 -1407q-24 -35 -41 -35q-25 0 -45 10q-8 3 -12 14.5t0 18.5z" />
    <glyph glyph-name="zero" unicode="0" horiz-adv-x="1011" 
d="M729 1280q71 0 126 -23t88.5 -60.5t55.5 -89t30.5 -104t8.5 -110.5q0 -185 -67 -383.5t-180 -337.5q-75 -94 -174.5 -146.5t-196.5 -52.5q-77 0 -136 25.5t-93.5 65t-56 92.5t-29 101t-7.5 99q0 195 70.5 391.5t169.5 315.5q174 217 391 217zM721 1219q-49 0 -94.5 -45
t-98.5 -144q-92 -168 -148 -395.5t-56 -415.5q0 -84 25.5 -133t70.5 -49q30 0 58 14t53.5 44t46 61t43.5 81.5t39 88t38 96.5q46 128 81.5 309t35.5 303q0 185 -94 185z" />
    <glyph glyph-name="one" unicode="1" horiz-adv-x="1011" 
d="M111 18q0 24 61 33q71 10 98 33t56 92q49 122 186 590q84 286 86 315q3 41 -16 41q-68 12 -88 13q-52 6 -52 30q0 25 56 31q73 9 114 15t95.5 20t95.5 33q37 16 55 16q6 0 12.5 -13t3.5 -20q-1 -4 -9.5 -29t-25 -78.5t-36.5 -119.5q-7 -25 -59 -203.5t-97 -339
t-72 -270.5q-22 -85 -5.5 -114t96.5 -42q41 -8 41 -28q0 -29 -66 -29q-34 0 -116 3t-109 3q-66 0 -149 -5t-91 -5q-65 0 -65 28z" />
    <glyph glyph-name="two" unicode="2" horiz-adv-x="1011" 
d="M649 1280q143 0 232.5 -94.5t89.5 -222.5q0 -68 -20.5 -128t-62 -113t-77 -88t-92.5 -83q-55 -46 -119 -96.5t-99 -77t-128.5 -94.5t-120.5 -88q-9 -9 -4.5 -15t12.5 -6q31 -2 247.5 -1.5t256.5 7.5q20 4 34.5 9.5t40.5 27.5t52 59q14 21 23 27t20 6q10 0 12 -18t-6 -41
q-13 -49 -52.5 -123t-66.5 -113q-19 -24 -76 -24q-7 0 -238.5 5t-287.5 5h-196q-46 0 -46 29q0 16 54 63q185 132 389 320q75 67 123 115.5t100.5 115.5t78.5 135.5t26 139.5q0 96 -57.5 147t-133.5 51q-71 0 -135 -30t-109 -74q-48 -45 -59 -45q-7 0 -12.5 6t-5.5 14
q3 22 22 55q62 100 166.5 169t224.5 69z" />
    <glyph glyph-name="three" unicode="3" horiz-adv-x="1011" 
d="M664 1280q130 0 206 -69t76 -162q0 -80 -42 -134.5t-134 -113.5q-31 -20 -85 -46.5t-60 -29.5q-7 -3 -7 -8t5 -8q77 -20 136.5 -56.5t90.5 -74.5q57 -65 57 -189q0 -134 -114 -250t-324 -190q-139 -51 -260 -51q-90 0 -145.5 38t-55.5 105q5 42 27 61q9 6 18 4t15 -8
q55 -49 133.5 -77.5t144.5 -28.5q116 0 180 49q61 44 95 123t34 176q0 65 -17.5 115t-46 78.5t-61.5 42.5t-69 14q-55 0 -113 -15q-28 -8 -47 -8q-9 0 -17 6t-8 15q0 10 14.5 28.5t31.5 26.5q10 4 44 17t76.5 30.5t79.5 36.5q98 52 142.5 115.5t44.5 158.5q0 77 -46.5 120.5
t-119.5 43.5q-70 0 -131 -51.5t-97 -122.5q-3 -3 -10 -4.5t-16 4.5q-29 34 -29 66q0 13 13.5 31.5t35.5 35.5q65 56 161 106t194 50z" />
    <glyph glyph-name="four" unicode="4" horiz-adv-x="1011" 
d="M555 383q-79 0 -471 -16q-26 0 -39 16q-3 7 -3.5 9.5t2 10.5t3.5 13q363 359 850 809q21 21 60 38t69 17q8 0 14 -14t0 -31q-32 -110 -95.5 -337t-108.5 -380q-2 -6 0 -10t4.5 -6t3.5 -2q140 4 174 4q4 1 9 -7.5t5 -17.5q0 -25 -19 -53.5t-28 -28.5q-5 0 -78 -4t-94 -4
q-8 0 -14 -7t-8 -15q-14 -47 -50.5 -180.5t-56.5 -202.5q-7 -26 -27 -35q-55 -25 -186 -25q-14 0 -26.5 11.5t-8.5 23.5q1 3 47 146t80 264q3 14 -8 14zM586 489q10 0 18 21q45 140 97.5 289t66.5 200q2 4 0 9.5t-6.5 5.5t-11.5 -8q-44 -42 -140 -135t-149.5 -144.5
t-123 -120t-116.5 -117.5q-5 -5 -2 -10.5t12 -5.5q211 7 355 16z" />
    <glyph glyph-name="five" unicode="5" horiz-adv-x="1011" 
d="M514 1231q69 13 238.5 31t224.5 18q16 0 24.5 -8t8.5 -15q-1 -42 -33 -94t-76 -86q-13 -11 -67 -18q-41 -4 -369 -4q-11 0 -31 -25q-18 -25 -37.5 -60.5t-19.5 -51.5q0 -25 29 -39q178 -89 235 -123q63 -36 108.5 -71.5t84 -80t58 -99t19.5 -118.5q0 -180 -186 -324
q-82 -64 -219.5 -114.5t-265.5 -50.5q-37 0 -75.5 11t-72 43.5t-33.5 80.5q0 26 15 53q5 7 17.5 11.5t19.5 0.5q52 -38 138 -66t148 -28q42 0 81 7t81 26.5t72 50t49.5 82.5t19.5 119q0 107 -91 194.5t-240 153.5q-51 22 -84.5 48.5t-42.5 42t-9 24.5q0 13 11.5 50.5
t27.5 71.5q27 66 81.5 163.5t82.5 131.5q44 57 78 62z" />
    <glyph glyph-name="six" unicode="6" horiz-adv-x="1011" 
d="M729 852q82 0 139.5 -47t81 -113t23.5 -141q0 -145 -61 -263.5t-164 -203.5q-72 -60 -157.5 -86.5t-158.5 -26.5q-144 0 -236 94.5t-92 278.5q0 240 171 477t440 404q106 67 208 107t164 40q23 0 35.5 -9t12.5 -17q0 -10 -25 -25q-186 -96 -336.5 -223t-245.5 -273
q-9 -14 11 -14q173 41 190 41zM586 768q-26 0 -59 -14.5t-52 -34.5q-63 -70 -104 -215t-41 -277q0 -196 127 -196q68 0 145 98q39 49 87 183.5t48 248.5q0 36 -7.5 70t-23.5 66t-47 51.5t-73 19.5z" />
    <glyph glyph-name="seven" unicode="7" horiz-adv-x="1011" 
d="M698 1253q144 0 286 3.5t163 3.5q7 0 17 -6.5t10 -14.5q0 -17 -20.5 -47.5t-70.5 -93.5q-418 -564 -843 -1168q-22 -32 -41 -32q-13 0 -28 14.5t-15 32.5q-3 19 55 92q463 608 741 1003q3 4 1.5 10.5t-7.5 6.5q-54 6 -260 6q-182 0 -270 -6q-36 -3 -60 -16t-37 -28.5
t-49 -64.5q-28 -41 -51 -41q-10 0 -15 7.5t-4.5 19t3.5 23.5t8 22q10 18 44.5 83t62.5 116.5t36 64.5q17 17 43 17q3 0 104.5 -3.5t196.5 -3.5z" />
    <glyph glyph-name="eight" unicode="8" horiz-adv-x="1011" 
d="M725 1311q137 0 220 -78.5t83 -200.5q0 -106 -104 -184q-134 -103 -209 -148q-9 -3 -2 -10q99 -114 129 -157q69 -102 69 -205q0 -74 -46 -144t-122 -121q-143 -90 -309 -90q-168 0 -262 79t-94 206q0 36 12 68t37.5 60.5t49 49.5t61.5 49q31 22 99 66t99 67q4 3 4 8
t-2 7q-143 161 -143 309q0 181 168 291q120 78 262 78zM674 1247q-32 0 -63.5 -12.5t-60.5 -37t-47 -69t-18 -102.5q0 -62 51 -141t121 -137q11 -11 19 -3q88 66 135 141.5t47 145.5q0 98 -50.5 156.5t-133.5 58.5zM481 39q104 0 161.5 66t57.5 147q0 60 -47.5 136
t-148.5 185q-13 13 -25 9q-215 -147 -215 -301q0 -111 62.5 -176.5t154.5 -65.5z" />
    <glyph glyph-name="nine" unicode="9" horiz-adv-x="1011" 
d="M715 1280q83 0 146 -31.5t98.5 -85t53 -114.5t17.5 -127q0 -145 -59.5 -294t-163.5 -282q-111 -142 -274.5 -254.5t-274.5 -163.5q-101 -49 -133 -49q-44 0 -49 15q-5 17 22 30q134 77 293 228t248 290q1 1 0 5t-4 7t-8 1q-132 -39 -193 -39q-46 0 -90.5 19.5t-82 57
t-60.5 100.5t-23 142q0 94 46.5 197.5t127.5 181.5q81 81 176.5 123.5t186.5 42.5zM698 1219q-30 0 -73.5 -28t-79.5 -73q-55 -67 -96 -174t-41 -217q0 -113 44 -169t101 -56q99 0 156 88q33 55 70.5 191.5t37.5 234.5q0 203 -119 203z" />
    <glyph glyph-name="colon" unicode=":" horiz-adv-x="585" 
d="M373 813q58 0 89.5 -35t31.5 -96q0 -70 -46.5 -111t-97.5 -41q-61 0 -93 37t-32 97q0 61 45.5 105t102.5 44zM215 254q58 0 88.5 -35.5t30.5 -97.5q0 -69 -45.5 -108.5t-98.5 -39.5q-60 0 -90 34t-30 93q0 62 44.5 108t100.5 46z" />
    <glyph glyph-name="semicolon" unicode=";" horiz-adv-x="585" 
d="M373 813q58 0 89.5 -35t31.5 -96q0 -70 -46.5 -111t-97.5 -41q-61 0 -93 37t-32 97q0 61 45.5 105t102.5 44zM217 307q71 0 107 -55t36 -121q0 -61 -26.5 -115.5t-64.5 -92t-88 -68.5t-90 -48t-77 -28q-23 -4 -42 2t-19 18q0 16 12.5 28.5t38.5 27.5q176 95 176 202
q0 32 -18.5 49t-59.5 33q-9 5 -19.5 18.5t-10.5 20.5q0 47 42 88t103 41z" />
    <glyph glyph-name="less" unicode="&#x3c;" horiz-adv-x="1259" 
d="M995 178q4 -6 3 -23.5t-13 -44t-29 -42.5q-12 -8 -15 -7t-23 11l-668 368q-51 29 -67.5 43t-16.5 25q0 16 12 33q26 30 66 51l669 377q23 13 39 2q13 -13 26 -35t18.5 -43t-7.5 -29l-608 -329q-7 -3 -8.5 -10t6.5 -13z" />
    <glyph glyph-name="equal" unicode="=" horiz-adv-x="1277" 
d="M1159 772q19 0 25 -5t6 -19q0 -35 -10 -67t-19 -32h-964q-37 0 -37 43q0 22 9 51t19 29h971zM1159 393q19 0 25 -5t6 -19q0 -37 -10 -68t-19 -31h-968q-33 0 -33 45q0 23 9 50.5t19 27.5h971z" />
    <glyph glyph-name="greater" unicode="&#x3e;" horiz-adv-x="1259" 
d="M1114 528q0 -18 -12 -32q-23 -27 -68 -50l-665 -376q-19 -10 -25.5 -11t-15.5 7q-13 13 -26.5 34.5t-19 43.5t8.5 30q238 127 606 328q23 8 4 20q-107 59 -305.5 166.5t-310.5 169.5q-4 6 -2.5 23.5t13 45t28.5 44.5q12 8 15 7t23 -11q621 -346 666 -371q53 -29 69.5 -43
t16.5 -25z" />
    <glyph glyph-name="question" unicode="?" horiz-adv-x="802" 
d="M565 1268q53 0 93 -15t96 -59q42 -34 75 -98.5t33 -130.5q0 -52 -36 -107t-76 -84q-36 -26 -119.5 -75t-104.5 -62q-73 -43 -73 -102q0 -51 49 -134q4 -8 3 -16t-11 -12.5t-31 0.5q-17 4 -44 20t-59 44.5t-54.5 76.5t-22.5 104q1 55 20 86.5t62 71.5q32 28 105.5 72.5
t145.5 81.5q60 30 94.5 66.5t34.5 66.5q0 102 -96 102q-72 0 -119 -73q-23 -34 -40 -45t-46 -11q-35 0 -60.5 25.5t-25.5 68.5q0 57 63 97.5t144 40.5zM352 274q63 0 96 -38.5t33 -104.5q0 -76 -48.5 -118t-104.5 -42q-66 0 -99.5 38.5t-33.5 101.5q0 66 48 114.5t109 48.5z
" />
    <glyph glyph-name="at" unicode="@" horiz-adv-x="1763" 
d="M692 231q0 -30 11.5 -50.5t29.5 -20.5q46 0 125 71q74 66 138 170.5t104 196.5q4 15 -6 25q-14 13 -42.5 22.5t-56.5 9.5q-76 0 -147 -82q-67 -73 -111.5 -167t-44.5 -175zM483 113q-3 121 201 374q87 106 207 191.5t180 85.5q16 0 42.5 -7t39.5 -16q8 0 10 2q8 12 29 62
q6 14 29 14q20 0 60 -9t50 -19q11 -11 8 -21q-180 -422 -211 -580q-8 -41 6 -64.5t48 -23.5q78 0 151.5 35.5t129 96t89 148t33.5 185.5q0 165 -77 286.5t-209 183t-300 61.5q-144 0 -266.5 -46.5t-208.5 -125t-146.5 -182.5t-89 -218t-28.5 -231q0 -95 22.5 -184.5
t72 -172.5t121 -145.5t177 -99.5t232.5 -37q266 0 452 160q6 6 13.5 9t14.5 0t7 -15t-9.5 -31t-21.5 -31q-87 -88 -230 -137t-280 -49q-110 0 -214 27t-198.5 85.5t-165.5 142.5t-113 207t-42 271q0 161 55 304.5t146.5 247t207.5 179t240.5 113t243.5 37.5q133 0 246.5 -33
t193.5 -90t137 -134t84 -165.5t27 -184.5q0 -105 -45.5 -206.5t-123 -180t-190.5 -126.5t-239 -48q-67 0 -104 22t-39 46q0 25 10 55l58 148q4 11 -4 11q-6 0 -13 -7q-119 -121 -233 -198t-197 -77q-28 0 -52 34.5t-24 70.5z" />
    <glyph glyph-name="A" unicode="A" horiz-adv-x="1341" 
d="M1286 1339q33 0 8 -75q-44 -130 -67 -226q-105 -490 -158 -794q-19 -107 -1 -143t95 -48q23 -3 38.5 -12.5t15.5 -22.5q0 -11 -20.5 -17.5t-45.5 -6.5q-34 0 -86.5 3t-91.5 3q-53 0 -164.5 -7t-151.5 -7q-58 0 -55 24q0 11 18 21t46 14q22 3 40.5 9t31 12.5t24 17.5
t18 18.5t13 20.5t8.5 18.5t6 18.5l4 12q43 140 78 320q7 28 -23 28q-33 0 -136 -6.5t-150 -13.5q-35 -6 -80 -54q-40 -42 -97 -113.5t-94 -129.5q-76 -123 62 -154q37 -11 37 -31q0 -11 -17 -18.5t-39 -7.5q-40 0 -110 4t-121 4q-46 0 -117 -5t-76 -5q-67 0 -67 30
q0 23 65 33q87 10 146 45t121 105q58 64 120 134.5t127.5 147.5t116.5 138t118.5 144t101 124t96 118.5t73.5 90.5q73 85 88 117q4 5 14.5 14.5t14.5 9.5q123 6 180 74q21 24 43 24zM637 580q21 0 115 5.5t137 10.5q4 0 13.5 10.5t12.5 18.5q16 41 84 360q10 60 8 63
q-1 1 -3 1q-11 0 -46 -35q-57 -57 -162 -191.5t-165 -218.5q-3 -6 -1 -15t7 -9z" />
    <glyph glyph-name="B" unicode="B" horiz-adv-x="1249" 
d="M1214 1059q0 -132 -94.5 -215t-253.5 -123q-11 -2 -13.5 -12t9.5 -15q114 -43 185 -102q86 -79 86 -209q0 -107 -59.5 -190t-153.5 -130q-62 -32 -179 -52.5t-245 -20.5q-61 0 -140.5 5t-117.5 5q-6 0 -106.5 -4t-141.5 -4q-20 0 -39 7t-19 17q0 25 62 33q93 11 127 45
q26 25 59 110q0 1 13 34q32 78 136 424t130 458q6 26 8 41.5t0 31.5t-14 25t-33 13q-6 1 -38 3.5t-50 4.5q-24 3 -42 12t-18 19q0 12 17.5 19t42.5 7h231q6 0 49.5 4t103.5 8.5t107 4.5q194 0 277 -51q114 -77 114 -203zM981 1040q0 83 -58.5 148t-156.5 65q-33 0 -53 -61
q-32 -103 -125 -436q-1 -7 5.5 -14t14.5 -7q143 0 205 33q62 28 115 104t53 168zM879 395q0 59 -23.5 122t-58.5 93q-80 74 -211 74q-16 0 -29 -29q-23 -54 -70.5 -213.5t-64.5 -242.5q-13 -64 24 -101q25 -24 63 -36.5t56 -12.5q46 0 112.5 34t115.5 91q36 46 61 108
t25 113z" />
    <glyph glyph-name="C" unicode="C" horiz-adv-x="1345" 
d="M156 479q0 164 74.5 331t203.5 290q119 112 282 171.5t324 59.5q87 0 165.5 -16t125.5 -37q28 -12 42.5 -11t39.5 15q22 11 30 12.5t13 -4.5q5 -5 9 -19t-3 -30q-70 -102 -116 -264q-12 -39 -27 -39q-14 0 -24 19t-7 40q10 70 1.5 107.5t-40.5 75.5q-35 45 -92.5 70.5
t-99.5 25.5q-83 0 -187 -43.5t-213 -153.5q-113 -113 -175 -287.5t-62 -334.5q0 -179 69 -277q103 -143 259 -143q43 0 116 30.5t125 67.5q2 2 21.5 18t26 22t25 21.5t28.5 25.5t25.5 24.5t28 28.5t23.5 28q25 25 35 25q20 0 6 -66q-8 -25 -50.5 -93.5t-73 -113.5t-44.5 -65
q-5 -7 -18.5 -13t-17.5 -2q-52 41 -109 29q-7 -1 -56 -13t-97 -20t-89 -8q-62 0 -123.5 13t-127.5 42t-121 85.5t-86 134.5q-39 89 -39 241z" />
    <glyph glyph-name="D" unicode="D" horiz-adv-x="1509" 
d="M842 1309q261 0 426 -129q100 -79 150 -193.5t50 -243.5q0 -105 -30.5 -205t-81 -177t-110 -136.5t-124.5 -97.5q-123 -75 -259 -107t-310 -32q-84 0 -184.5 6t-135.5 6q-47 0 -135.5 -4t-103.5 -4q-69 0 -72 28q0 26 64 33q37 4 57.5 8.5t46 16.5t42 31.5t33.5 54
t32 84.5q43 137 141.5 468t118.5 396q35 113 -37 123q-70 8 -107 10q-22 0 -39.5 7.5t-17.5 17.5q0 13 17 21.5t49 8.5q19 0 88 -2t98 -2q22 0 146 6.5t188 6.5zM827 1249q-35 0 -59 -12q-9 -3 -21 -14t-16 -21q-23 -43 -58 -153t-112 -377q-108 -366 -115 -490
q-2 -31 5 -58t20 -34q25 -14 64.5 -28.5t50.5 -14.5q157 0 325 115q129 87 212 256.5t83 363.5q0 118 -40.5 225.5t-106.5 159.5q-101 82 -232 82z" />
    <glyph glyph-name="E" unicode="E" horiz-adv-x="1239" 
d="M594 686l192 6q64 2 100.5 14t56.5 31t54 66q30 37 47 37q13 0 14 -26t-11 -52q-50 -101 -89 -270q-4 -22 -15 -37t-19 -15q-10 0 -18.5 15.5t-8.5 46.5q-1 60 -22 82t-62 22l-227 -6q-13 0 -29 -9.5t-22 -23.5q-24 -65 -82 -303q-16 -64 -16.5 -96t16.5 -64
q11 -20 27 -27.5t50 -10.5q114 -13 230 -13q32 0 72.5 13.5t68.5 31.5q40 22 87.5 68.5t90.5 105.5q23 28 35 39t23 11q21 0 10 -54q-11 -48 -43.5 -120t-59.5 -107q-32 -35 -49 -41q-27 -12 -123 -12q-44 0 -306.5 6t-323.5 6q-64 0 -151 -5t-111 -5q-28 0 -46 8t-18 20
q0 10 16 20t45 13q57 6 93 17t58 34t33.5 46.5t24.5 68.5q81 252 267 868q25 85 0.5 116t-127.5 48q-50 10 -50 33q0 10 20.5 16.5t51.5 6.5q19 0 109 -4.5t149 -4.5h193q225 0 315.5 4.5t138.5 16.5q9 3 14 -13t1 -22q-27 -48 -50 -127.5t-30 -122.5q-3 -16 -19 -16
q-14 0 -30 18t-17 45q-3 66 -18 97.5t-47 42.5q-38 14 -203 14q-40 0 -63.5 -8t-33 -17.5t-24.5 -33.5q-47 -75 -153 -461q-3 -9 2.5 -18t11.5 -9z" />
    <glyph glyph-name="F" unicode="F" horiz-adv-x="1122" 
d="M598 1296h215q379 0 447 23q9 2 16 -2q6 -6 9 -17.5t-1 -17.5q-23 -32 -52.5 -112t-39.5 -130q-7 -47 -29 -47q-11 0 -22 18.5t-11 47.5q0 42 -6 69t-25 54t-61.5 40t-109.5 13q-135 0 -164 -4q-27 -3 -53 -64q-20 -46 -70 -214.5t-63 -229.5q-2 -8 3 -18t15 -13
q28 -14 104 -14q100 0 152 8q73 14 123 88q29 43 47 43q12 0 14.5 -19.5t-6.5 -41.5q-14 -32 -26.5 -67t-20.5 -62t-16 -56.5t-11.5 -45.5t-7.5 -35.5t-4 -20.5q-4 -26 -15 -39.5t-20 -13.5q-24 0 -24 55q-3 72 -19.5 96.5t-50.5 26.5q-50 4 -108 4q-117 0 -142 -4
q-26 -3 -39 -49q-48 -172 -77 -314q-7 -35 -9.5 -59.5t3 -43t14.5 -30t29 -21t42.5 -15t59.5 -11.5q39 -7 39 -26q0 -13 -18.5 -22t-49.5 -9q-46 0 -122 4t-115 4q-37 0 -150 -7t-178 -7q-19 0 -32.5 5.5t-19 11.5t-5.5 11q0 25 63 35q25 3 44 6.5t35.5 11t26.5 12t21 19
t16.5 22t15 31t14 35.5t15.5 45q43 131 134.5 443.5t117.5 419.5q21 83 -0.5 112t-115.5 41q-24 1 -42 10.5t-20 20.5q0 10 19.5 18.5t46.5 8.5q32 0 119.5 -5.5t150.5 -5.5z" />
    <glyph glyph-name="G" unicode="G" horiz-adv-x="1447" 
d="M1085 1333q133 0 263 -33q9 -2 17.5 -2.5t19 1t16.5 2.5t19.5 5t17.5 5q40 8 43 8q7 0 13 -17.5t-1 -29.5q-42 -47 -80 -130.5t-49 -142.5q-10 -51 -25 -51t-27 16.5t-12 47.5q0 19 1.5 46.5t2 43t-2.5 35t-11 34.5q-24 45 -82 74t-129 29q-113 0 -211 -51.5t-200 -157.5
q-113 -117 -178.5 -283.5t-65.5 -326.5q0 -67 10.5 -127.5t35.5 -116.5t63 -96.5t96.5 -65t132.5 -24.5q35 0 76 26q26 14 43 45q37 53 116 312q7 32 6 56.5t-32 41.5t-97 24q-59 8 -59 35q0 10 20.5 18.5t45.5 8.5q39 0 111 -4t122 -4q60 0 141 10t107 10q55 0 55 -26
q-3 -20 -53 -33q-25 -7 -43 -15.5t-27.5 -14t-21.5 -22.5t-14.5 -22t-16.5 -31q-28 -64 -61 -178q-33 -126 -37 -176q0 -6 -24.5 -26t-43.5 -25q-14 -3 -88.5 -25t-143 -35.5t-134.5 -13.5q-143 0 -250.5 38.5t-172.5 108.5t-96.5 162.5t-31.5 206.5q0 142 65 303t183 283
q126 130 300 200t379 70z" />
    <glyph glyph-name="H" unicode="H" horiz-adv-x="1579" 
d="M305 1278q0 27 70 27q20 0 102 -4.5t137 -4.5q75 0 161 4.5t91 4.5q28 0 43 -8t15 -19q-1 -13 -20.5 -22.5t-47.5 -12.5q-65 -10 -91 -32t-48 -70q-26 -55 -61.5 -165t-57.5 -192q-17 -61 4 -69q29 -4 115 -4q108 -2 251.5 1t184.5 7q30 2 43 47q54 150 102 344
q16 63 -3 95t-91 42q-22 5 -35 13.5t-12 17.5q0 27 68 27q18 0 111 -4.5t137 -4.5q43 0 123.5 4.5t109.5 4.5q25 0 39 -8t14 -17q-3 -28 -59 -35q-68 -10 -96 -36.5t-64 -104.5q-49 -113 -142 -441.5t-116 -441.5q-17 -91 1.5 -122.5t88.5 -43.5q60 -15 60 -35
q0 -28 -54 -28q-37 0 -146 4t-145 4q-46 0 -128 -4t-103 -4q-29 0 -42 9t-13 19q0 25 61 33q66 8 94 32t56 81q14 33 40.5 118.5t56 187t38.5 130.5q0 4 -7 13.5t-14 9.5q-240 0 -553 -9q-7 0 -11.5 -2.5t-14.5 -18t-23 -46.5q-20 -52 -52 -166.5t-40 -171.5
q-13 -79 6.5 -111.5t102.5 -46.5q53 -10 53 -35q0 -10 -17.5 -19t-46.5 -9q-15 0 -114.5 5t-149.5 5q-58 0 -164.5 -5t-109.5 -5q-19 0 -37 9t-18 19q0 12 15.5 22t41.5 13q52 7 79.5 14.5t48.5 28.5t32 45t30 78q31 86 143 452t134 451q17 65 -3 88t-100 35q-53 11 -53 33z
" />
    <glyph glyph-name="I" unicode="I" horiz-adv-x="737" 
d="M301 1274q0 9 14.5 16.5t42.5 7.5q30 0 86 -1t91 -1q62 0 178.5 5.5t138.5 5.5q24 0 39.5 -7.5t15.5 -15.5q0 -15 -14 -24t-49 -15q-27 -5 -45 -10t-33.5 -15t-23.5 -16.5t-19 -26t-16.5 -31.5t-18.5 -44q-36 -88 -129 -431.5t-117 -453.5q-20 -91 -5.5 -120t91.5 -44
q25 -4 39.5 -13t14.5 -17q0 -29 -60 -29q-35 0 -97 3t-83 3q-65 0 -180 -7t-158 -7q-27 0 -41 7.5t-14 16.5q0 12 16 22t39 13q47 6 75.5 15t50 35t29.5 43.5t29 71.5q2 4 2.5 6t2 5t2.5 6q29 73 119.5 396t119.5 448q23 100 9.5 128t-89.5 42q-50 9 -53 33z" />
    <glyph glyph-name="J" unicode="J" horiz-adv-x="741" 
d="M-129 -418q-62 0 -109 12.5t-61 30.5q-35 40 -35 103q0 41 14 63.5t33 22.5q35 0 133 -86q80 -68 121 -68q26 0 52 33t66 134t95 282q38 131 135.5 481t124.5 457q27 110 8.5 147t-104.5 49q-57 9 -57 39q0 8 17 14.5t42 6.5q30 0 118 -3.5t142 -3.5q66 0 149 4.5
t107 4.5q25 0 41.5 -8t16.5 -19q3 -24 -56 -33q-73 -13 -96 -36.5t-54 -105.5q-2 -4 -2.5 -6t-2 -5.5t-2.5 -6.5q-18 -45 -58 -179t-76.5 -263t-70.5 -251.5t-35 -125.5q-43 -160 -88 -280q-30 -83 -80 -152.5t-105.5 -115t-116 -77t-112.5 -45.5t-94 -14z" />
    <glyph glyph-name="K" unicode="K" horiz-adv-x="1394" 
d="M311 1278q0 10 18.5 17.5t41.5 7.5q34 0 116.5 -3.5t133.5 -3.5q45 0 127.5 6.5t113.5 6.5q53 0 53 -25q0 -13 -18 -23.5t-43 -13.5q-67 -10 -101.5 -40t-56.5 -93q-35 -104 -118 -389q-4 -11 1 -19t15 -8q48 0 106 25q72 37 221 168t275 252q76 76 -20 98q-50 10 -50 33
q0 24 60 24q12 0 36 -2t44 -2q71 0 188 7.5t137 7.5q21 0 36 -6.5t15 -16.5q0 -24 -55 -35q-57 -10 -102.5 -25t-94.5 -44.5t-72.5 -46.5t-86.5 -64q-291 -229 -375 -313q-16 -16 -16 -29q0 -10 10 -50t18 -63q46 -128 108 -263.5t105 -196.5q20 -25 27.5 -34.5t28 -28.5
t37.5 -26.5t45 -14.5t61 -7q24 0 39.5 -9t15.5 -20q0 -30 -80 -30q-37 0 -146.5 4t-141.5 4q-45 0 -64 14q-30 21 -55 53.5t-55 106.5q-25 62 -76.5 194.5t-79.5 204.5q-28 76 -62 76q-14 0 -18.5 -5t-11.5 -28q-79 -242 -115 -399q-18 -77 3.5 -110.5t90.5 -49.5
q37 -7 47.5 -14.5t10.5 -22.5q0 -10 -15 -17t-37 -7q-44 0 -138.5 5t-125.5 5q-30 0 -134 -5t-120 -5q-27 0 -44.5 7t-16.5 17q0 15 13.5 23t45.5 14q78 14 109 42.5t61 99.5q34 89 127.5 405.5t134.5 468.5q12 45 16.5 69t4.5 45t-12 31t-30 17.5t-52 13.5q-26 4 -43 15
t-15 20z" />
    <glyph glyph-name="L" unicode="L" horiz-adv-x="1259" 
d="M610 53q228 0 312 29q53 19 113.5 76.5t103.5 140.5q17 31 28 42t23 11q9 0 11.5 -15t-0.5 -35t-9 -38q-12 -34 -62 -132t-51 -101q-6 -11 -22.5 -24.5t-26.5 -14.5q-32 -8 -207 -8q-53 0 -284.5 8t-302.5 8q-45 0 -141 -7t-115 -7q-66 0 -66 26q0 24 63 33
q88 13 130.5 41t70.5 102q54 138 285 861q19 63 25 98t-3.5 55.5t-26.5 28t-55 14.5q-57 12 -57 37q4 23 62 23q20 0 113 -4.5t126 -4.5q21 0 132.5 5.5t146.5 5.5q27 0 41 -9.5t14 -19.5q0 -9 -17 -18.5t-40 -12.5q-50 -6 -82 -17.5t-55 -37t-36 -51.5t-34 -78
q-43 -109 -144.5 -414t-136.5 -432q-25 -100 29 -139q41 -25 145 -25z" />
    <glyph glyph-name="M" unicode="M" horiz-adv-x="1785" 
d="M293 1276q0 29 74 29q8 0 109.5 -5.5t156.5 -5.5q19 0 50.5 2t33.5 2q32 0 39 -51q18 -144 88 -534q39 -220 57 -262q5 -11 13.5 -10t13.5 10q83 119 215.5 297t195.5 253q98 121 172 261q6 9 22 21.5t28 12.5q31 0 164.5 5.5t168.5 5.5q29 0 43.5 -7.5t14.5 -17.5
q0 -27 -78 -37q-42 -6 -71 -20t-46.5 -38t-25 -40t-17.5 -47q-63 -181 -127 -445.5t-90 -427.5q-15 -92 5 -127t93 -49q60 -11 60 -39q0 -9 -16.5 -15.5t-41.5 -6.5q-17 0 -146.5 5t-178.5 5q-38 0 -101.5 -5t-93.5 -5q-61 0 -61 24q0 26 61 37t92.5 43.5t51.5 95.5
q77 238 243 834q6 19 -7 18q-11 0 -21 -12q-56 -59 -204.5 -264t-234.5 -334q-55 -83 -122 -201.5t-80 -140.5q-46 -74 -74 -74q-35 0 -39 72q-3 132 -31 326q-58 487 -86 553q-13 25 -26 -2q-29 -42 -125 -299t-121 -357q-33 -127 -16 -183t100 -71q57 -11 57 -35
q0 -11 -18.5 -18.5t-44.5 -7.5q-16 0 -68 3t-100 3q-56 0 -139.5 -6t-122.5 -6q-24 0 -39 8.5t-15 17.5q0 24 60 33q94 13 137.5 48t71.5 106q37 86 172 424.5t164 416.5q62 163 -54 189q-38 10 -86 16q-59 10 -59 29z" />
    <glyph glyph-name="N" unicode="N" horiz-adv-x="1505" 
d="M252 1280q0 10 15.5 17.5t45.5 7.5q27 0 119 -4.5t139 -4.5q7 0 62 2t63 2q20 3 43 -67q41 -114 190 -490t179 -440q3 -8 12.5 -10t12.5 6q62 181 131.5 418.5t93.5 347.5q21 92 -1.5 128.5t-119.5 53.5q-24 3 -41.5 12t-17.5 21q0 23 57 23q31 0 85 -3.5t81 -3.5
q48 0 141 4.5t109 4.5q28 1 41.5 -6.5t13.5 -18.5q3 -20 -61 -33q-73 -12 -111.5 -51.5t-79.5 -148.5q-107 -284 -260 -797q-16 -62 -16 -80q0 -44 17 -69t71 -52q26 -12 26 -31q0 -7 -17 -16.5t-28 -9.5q-108 8 -139 8q-79 0 -115 -6q-35 0 -45 33q-19 72 -65 188
q-102 293 -262 705q-42 116 -62 147q-18 28 -33 -12q-41 -99 -120.5 -382t-98.5 -384q-12 -70 -13.5 -111t10.5 -67.5t34.5 -38.5t64.5 -21q66 -12 66 -35q0 -26 -66 -26q-22 0 -89 5t-109 5q-43 0 -120 -6t-103 -6q-68 0 -68 26q0 23 57 33q95 14 136 43.5t71 114.5
q62 179 159 480.5t118 379.5q18 72 10 104q-10 49 -62 62q-16 5 -100 18q-21 3 -36 12.5t-15 18.5z" />
    <glyph glyph-name="O" unicode="O" horiz-adv-x="1427" 
d="M956 1335q199 0 325 -140t126 -364q0 -139 -51.5 -287.5t-149.5 -279t-221 -203.5q-80 -49 -176.5 -75.5t-185.5 -26.5q-96 0 -185.5 30t-152.5 93q-57 55 -98.5 146.5t-41.5 222.5q0 116 41.5 249.5t128 267.5t201.5 222q81 65 200.5 105t239.5 40zM956 1278
q-125 0 -254 -129q-137 -134 -222 -371t-85 -454q0 -62 12.5 -114.5t39 -96t72 -68.5t106.5 -25q121 0 245 130q103 106 197 340.5t94 443.5q0 153 -51 248.5t-154 95.5z" />
    <glyph glyph-name="P" unicode="P" horiz-adv-x="1208" 
d="M778 1311q231 0 340 -72q131 -88 131 -256q0 -65 -20.5 -125.5t-51.5 -104t-71.5 -80t-76 -58t-68.5 -35.5q-112 -43 -244 -43q-74 0 -74 34q0 9 6.5 15t12.5 7.5t20 4.5q79 18 119 37q90 44 149.5 155t59.5 197q0 187 -101 236q-66 28 -133 28q-10 0 -24.5 -11.5
t-20.5 -27.5q-50 -119 -142 -432t-147 -540q-8 -33 -11.5 -57.5t-3 -42.5t8 -31.5t14.5 -21.5t24.5 -15.5t31 -12t39.5 -10.5q53 -11 53 -35t-61 -24q-11 0 -90 5t-146 5q-42 0 -155 -5t-154 -5q-23 0 -38 6.5t-15 15.5q0 26 61 39q88 13 120.5 42.5t59.5 111.5
q19 56 277 899q24 61 6 94.5t-96 40.5q-48 4 -64 13.5t-16 23.5q-2 8 12 14t39 6h113q292 15 327 15z" />
    <glyph glyph-name="Q" unicode="Q" horiz-adv-x="1417" 
d="M956 1333q92 0 168.5 -29.5t127.5 -77.5t86.5 -110.5t51 -127t15.5 -128.5q0 -244 -124.5 -448.5t-311.5 -321.5q-42 -26 -87.5 -49t-80 -39t-91 -37.5t-85.5 -31.5t-100.5 -34.5t-102.5 -35.5q-19 -7 -20 -14q0 -3 8 -3q53 0 100.5 -4t91 -16t74 -20.5t70 -28.5
t56.5 -29t57 -33l50 -30q139 -78 225 -115t160 -37q106 0 169 17t120 63q15 15 28.5 19.5t20 0t6.5 -13.5q0 -28 -28 -63q-69 -89 -181.5 -139t-234.5 -50q-72 0 -140 16t-139.5 51.5t-115 61t-121.5 76.5q-69 45 -108.5 69t-94 50.5t-103.5 37.5t-102 11q-131 0 -247 -57
q-11 -7 -25 -4t-14 16q-1 6 4 17t21 27t40 28q55 28 122.5 58t113.5 49t120 49t103 42q6 2 8 4.5t-1 5.5t-13 7q-36 9 -76.5 28.5t-92 59t-91.5 90t-67.5 128t-27.5 167.5q0 109 26.5 213.5t69 187t99 155t112.5 123t113 85.5q186 114 389 114zM950 1272q-138 0 -243 -107
q-131 -128 -220.5 -356.5t-89.5 -431.5q0 -171 57.5 -266t153.5 -95q15 0 57 19t83 49q173 132 291 378.5t118 483.5q0 33 -4.5 70t-18 84t-35 84t-60.5 62.5t-89 25.5z" />
    <glyph glyph-name="R" unicode="R" horiz-adv-x="1292" 
d="M1245 1040q0 -177 -176 -292q-44 -28 -154 -62q-7 -1 -12.5 -12.5t-3.5 -20.5q77 -350 129 -450q42 -83 82.5 -116t122.5 -42q49 -6 49 -31q0 -21 -55 -28q-42 -2 -66.5 -1.5t-79.5 4t-69 3.5q-74 1 -111 14.5t-63.5 54t-53.5 129.5q-32 98 -90 336q-10 32 -33 65.5
t-47 33.5q-16 0 -31.5 -1t-23.5 -1q-23 0 -37 -43q-10 -25 -43.5 -151.5t-46.5 -188.5q-22 -104 -3.5 -139t103.5 -52q50 -12 50 -33q0 -26 -62 -26q-53 0 -152.5 5t-152.5 5q-31 0 -97 -4t-98 -4q-27 0 -46 6.5t-19 17.5q0 28 68 37q49 6 79.5 24.5t38.5 32t17 37.5
q33 79 157 478.5t140 474.5q12 46 13 75.5t-26 44.5t-94 19q-31 1 -49 10t-18 21q0 24 57 24q89 0 221 4q30 1 132 8t134 7q231 0 320 -68q100 -77 100 -205zM1001 1010q0 105 -59.5 173t-169.5 68q-9 0 -27 -14.5t-24 -26.5q-40 -87 -158 -503q-1 -10 7.5 -19.5t17.5 -9.5
q108 0 182 24q102 38 166.5 121t64.5 187z" />
    <glyph glyph-name="S" unicode="S" horiz-adv-x="1013" 
d="M719 1333q19 0 36 -0.5t33.5 -2.5t28.5 -3.5t27 -5t23 -5t23 -6t19.5 -6t20 -6.5t18.5 -6q46 -16 72 -16q16 0 31 2t18 2q6 2 12 -10t2 -21q-30 -52 -58.5 -132.5t-37.5 -139.5q-3 -43 -22 -43q-13 0 -25.5 17t-11.5 44q6 42 2 91t-27 85q-29 47 -77 78t-107 31
q-93 0 -150 -68t-57 -153q0 -104 78 -199q7 -9 47.5 -55t87 -101t82.5 -102q66 -82 86 -139t20 -129q0 -90 -51 -173t-131 -128q-128 -72 -307 -72q-68 0 -142.5 20.5t-123.5 43.5q-28 7 -42.5 4.5t-54.5 -17.5q-22 -7 -43 11q-14 14 -2 32q35 65 113 303q9 25 23.5 39.5
t27.5 14.5q18 0 13 -60q-8 -75 1.5 -136t28.5 -83q94 -113 223 -113q106 0 172 66q62 53 62 154q0 67 -45 143t-156 203q-95 108 -139.5 196.5t-44.5 182.5q0 154 115 260q116 108 309 108z" />
    <glyph glyph-name="T" unicode="T" horiz-adv-x="1337" 
d="M723 1296h508q175 0 219 17q28 14 39 14q9 0 16 -14t-2 -31q-82 -135 -104 -256q-5 -41 -25 -41q-13 0 -23 14t-10 41q3 64 2 103t-20 58.5t-68 27.5q-99 13 -219 2q-6 0 -19 -11t-16 -18q-27 -59 -139.5 -451t-138.5 -511q-23 -100 -0.5 -136t119.5 -51q21 -3 37 -12.5
t16 -20.5q0 -28 -61 -28q-11 0 -95.5 4t-142.5 4q-76 0 -205 -5t-149 -5q-28 0 -46 7.5t-18 16.5q0 12 17 21.5t38 11.5q83 12 122.5 30t63.5 53.5t52 115.5q63 186 158.5 506t130.5 450q1 9 -4 17t-13 10q-104 11 -231 -4q-57 -8 -118 -54t-105 -116q-31 -47 -64 -47
q-18 0 -8 39q2 6 47.5 100.5t65.5 167.5q2 6 17 16t24 10q8 0 14 -12q4 -9 27.5 -18.5t64.5 -12.5q53 -2 246 -2z" />
    <glyph glyph-name="U" unicode="U" horiz-adv-x="1476" 
d="M258 1278q0 25 61 25q35 0 136 -3.5t129 -3.5q22 0 110.5 4.5t120.5 4.5q51 0 51 -23q0 -20 -57 -35q-61 -13 -85 -31t-46 -77q-45 -118 -174 -588q-71 -260 -15 -352q31 -51 106.5 -86t154.5 -35q150 0 236.5 66t135.5 192q46 110 125.5 361t98.5 343q10 45 14 73.5
t1 51t-9 34t-25 21t-38 13.5t-56 10q-55 10 -55 33q0 11 15 17.5t38 6.5q29 0 109 -2t110 -2q40 0 103 4.5t83 4.5q56 0 56 -25q2 -9 -15 -19t-45 -16q-75 -15 -106 -51.5t-82 -163.5q-84 -223 -217 -614q-77 -220 -150 -293q-90 -95 -192.5 -127.5t-235.5 -32.5
q-47 0 -96 8.5t-103 28t-101.5 58.5t-76.5 92q-64 117 -36 260q46 217 165 624q35 115 19.5 156.5t-103.5 54.5q-59 11 -59 33z" />
    <glyph glyph-name="V" unicode="V" horiz-adv-x="1280" 
d="M215 1278q0 8 17.5 15t41.5 7q14 0 94.5 -2t123.5 -2q49 0 157.5 5.5t114.5 5.5q55 0 55 -25q0 -23 -53 -35q-44 -7 -69.5 -16t-42.5 -29.5t-24.5 -40.5t-19.5 -63q-20 -74 -64 -368.5t-46 -360.5q0 -11 6.5 -13.5t15.5 4.5q120 122 349.5 382t283.5 339q54 78 53 115.5
t-61 46.5q-51 9 -51 35q0 22 63 22q4 0 54 -2t100 -2q40 0 114.5 3.5t100.5 3.5q49 0 49 -23q0 -24 -59 -35q-74 -14 -137.5 -55.5t-147.5 -134.5q-61 -69 -348.5 -388.5t-419.5 -476.5q-32 -40 -89 -108t-67 -80q-36 -47 -61 -47q-17 0 -30 23t-7 53q1 7 21 107t34 175
q18 108 39 251.5t42 297t28 203.5q8 60 5 97t-27 56t-81 27q-57 6 -57 33z" />
    <glyph glyph-name="W" unicode="W" horiz-adv-x="1912" 
d="M205 1278q0 25 63 25q34 0 106.5 -3.5t106.5 -3.5q35 0 117.5 4.5t118.5 4.5q26 0 43.5 -7.5t17.5 -15.5q0 -24 -45 -35q-57 -9 -80.5 -28.5t-40.5 -75.5q-25 -86 -72 -381.5t-51 -364.5q-1 -9 7 -8q11 1 20 12q149 172 311 378t203 292q17 27 17 47q9 57 -6.5 87
t-77.5 38q-23 3 -40 12.5t-16 20.5q0 24 60 24q36 0 109.5 -2t105.5 -2q36 0 134.5 5.5t108.5 5.5q22 0 38 -7t16 -16q0 -27 -56 -37q-75 -16 -100 -34.5t-37 -73.5q-19 -86 -45 -398t-20 -360q2 -8 7.5 -11.5t14.5 3.5q70 65 282 333t265 357q28 45 40 75t14 49t-12 30
t-31.5 16t-51.5 10q-23 3 -38.5 11.5t-14.5 17.5q0 28 61 28q8 0 80 -2t117 -2t112.5 4.5t83.5 4.5q56 0 56 -21q-2 -28 -64 -39q-18 -3 -35 -8t-30.5 -10t-29.5 -15.5t-26 -16.5t-25.5 -20.5t-23 -20.5t-24 -24.5t-21.5 -24t-23 -26.5t-22 -26q-37 -46 -288 -357.5
t-316 -386.5q-43 -52 -89 -113t-84.5 -115t-45.5 -63q-45 -53 -74 -53q-15 0 -22 17.5t-5 31.5q26 210 37 320q35 419 43 584q1 13 -10 12q-12 -1 -20 -12q-39 -54 -96.5 -129t-124 -158t-117 -145t-112.5 -138.5t-73 -89.5q-52 -66 -109 -147t-71 -97q-19 -22 -47.5 -39.5
t-42.5 -17.5q-11 0 -18.5 15t-3.5 36q18 73 65 332q45 250 104 721q6 45 5.5 73.5t-5 48t-19.5 31t-33 17.5t-50 12q-55 10 -55 35z" />
    <glyph glyph-name="X" unicode="X" horiz-adv-x="1310" 
d="M258 1278q0 25 70 25q17 0 105.5 -3.5t131.5 -3.5q69 0 140.5 3.5t78.5 3.5q23 0 37.5 -7.5t14.5 -17.5q0 -26 -60 -33q-49 -7 -62 -27t-7 -65q7 -64 40.5 -184t55.5 -170q7 -11 16 -2q62 59 166 178t131 164q18 27 21 46t-9 31t-28 19t-43 14q-35 7 -35 29t63 22
q16 0 75.5 -3t78.5 -3q42 0 128 5.5t103 5.5q60 0 60 -25q1 -10 -14 -19t-37 -12q-86 -10 -151.5 -46.5t-147.5 -115.5q-137 -135 -336 -346q-7 -8 -9.5 -21.5t-0.5 -19.5q23 -99 77 -269.5t88 -252.5q27 -60 63 -90.5t107 -38.5q62 -9 62 -33q0 -26 -62 -26q-10 0 -131 5
t-172 5q-46 0 -110 -6t-78 -6q-23 0 -37 5t-18.5 11t-4.5 12q0 16 48 29q90 23 90 84q-5 57 -47 208.5t-64 213.5q-4 15 -16 6q-61 -59 -146.5 -166t-128.5 -180q-84 -135 31 -158q49 -11 49 -30q-2 -11 -17.5 -20t-35.5 -9q-37 0 -95.5 3t-95.5 3q-62 0 -144.5 -6t-96.5 -6
q-25 0 -42 5t-22.5 11t-5.5 12q3 24 51 29q96 11 169 50t167 141q76 88 338 385q5 7 7.5 21.5t0.5 21.5q-81 293 -127 409q-3 7 -8 22q-15 41 -23.5 60t-26 42t-42.5 33.5t-63 14.5q-64 7 -64 33z" />
    <glyph glyph-name="Y" unicode="Y" horiz-adv-x="1263" 
d="M219 1278q4 25 70 25q21 0 108 -3.5t127 -3.5q56 0 131.5 4.5t87.5 4.5q23 0 39.5 -7.5t16.5 -15.5q0 -25 -56 -35q-48 -10 -69 -25t-21 -34t4 -45q12 -73 49 -226.5t56 -195.5q9 -12 16 -2q66 69 184 213t156 205q17 28 20.5 48.5t-7 32.5t-27.5 19t-45 12q-37 9 -37 31
q0 10 19 16.5t46 6.5q9 0 69 -3.5t101 -3.5q27 0 106.5 4.5t92.5 4.5q55 0 55 -25q0 -20 -67 -35q-51 -9 -90.5 -29t-65.5 -41.5t-83 -75.5q-11 -10 -17 -16q-75 -70 -191 -201.5t-192 -226.5q-10 -13 -28 -46.5t-27 -67.5q-6 -19 -28 -93t-33.5 -115.5t-25.5 -93.5t-18 -77
q-10 -95 107 -111q24 -3 41.5 -12t17.5 -21t-20.5 -20t-49.5 -8q-17 0 -104.5 5t-138.5 5q-73 0 -168 -6t-127 -6q-28 0 -45 8t-17 18q0 21 60 33q100 14 145 49t78 135l82 246q41 123 33 191q-16 123 -101 391q-36 112 -67.5 145t-106.5 45q-45 7 -45 29z" />
    <glyph glyph-name="Z" unicode="Z" horiz-adv-x="1335" 
d="M733 1296q89 -1 239 1.5t273 5t137 2.5q37 0 37 -15q0 -10 -11.5 -28.5t-25.5 -30.5q-53 -44 -231 -240q-119 -130 -410 -462.5t-368 -428.5q-6 -9 -3 -21t13 -13q116 -7 360 -7q145 0 232 41q58 27 124 87t105 124q43 64 58 64q11 0 15 -22.5t-3 -41.5
q-14 -42 -103 -217q-38 -68 -69 -90q-16 -14 -238 -14q-66 0 -350.5 5t-316.5 5q-34 0 -111.5 -5t-93.5 -5q-9 0 -13 9.5t-1 23t14 24.5q209 194 586 618t460 539q5 7 5 18t-7 11q-257 0 -350 -4q-98 -5 -151.5 -20t-88.5 -50q-32 -31 -71.5 -88t-55.5 -90q-17 -35 -32 -35
q-12 0 -17.5 18.5t-1.5 45.5q5 38 101 254q3 10 19 26.5t24 16.5q5 0 33.5 -5.5t43.5 -5.5h244z" />
    <glyph glyph-name="bracketleft" unicode="[" horiz-adv-x="778" 
d="M614 1440q69 0 176 1t113 1q25 0 38 -8t13 -19q0 -13 -18 -25t-47 -16q-3 0 -78 -6t-98 -8q-20 0 -28 -11t-19 -42q-57 -165 -203 -660q-36 -127 -223 -819q-28 -104 10 -107q16 -2 93 -6t79 -4q20 0 38.5 -8.5t14.5 -26.5q-5 -22 -69 -32q-32 -4 -173 -4q-115 0 -165 4
q-11 0 -19 19t-4 32l352 1220q38 133 73.5 254.5t49.5 169.5t17 58q8 26 26 37q8 6 51 6z" />
    <glyph glyph-name="backslash" unicode="\" horiz-adv-x="790" 
d="M582 -98q0 -3 -6.5 -10.5t-20.5 -15t-31 -7.5h-16q-11 0 -16 7.5t-5 14.5q-86 776 -145 1428q0 3 10 10.5t13 7.5l49 4q13 2 24 -14q19 -214 41.5 -437t57 -550t45.5 -438z" />
    <glyph glyph-name="bracketright" unicode="]" horiz-adv-x="778" 
d="M205 -358q-68 0 -175 -1t-112 -1q-51 0 -51 26q0 12 17.5 23.5t47.5 15.5q24 4 177 12q20 1 28 13t19 43q68 201 200 661q107 374 226 819q27 102 -11 105q-13 1 -82 5t-83 5q-22 0 -43 9t-17 26q5 24 74 35q32 4 168 4q116 0 166 -4q10 0 18.5 -19t3.5 -33l-352 -1222
q-139 -478 -139 -479q-7 -25 -27 -37q-8 -6 -53 -6z" />
    <glyph glyph-name="asciicircum" unicode="^" horiz-adv-x="993" 
d="M559 1282q10 0 20 -7.5t21 -24t15.5 -25t15.5 -29.5l309 -612q10 -20 10.5 -25t-6.5 -14q-12 -14 -35 -28t-44 -19.5t-29 8.5l-273 575q-11 21 -22 4l-283 -589q-5 -4 -22 -2t-44.5 14t-44.5 27q-3 3 -4.5 5.5t-2 5t-0.5 4t1.5 5t2.5 5t3.5 7t4.5 8.5l313 623
q17 34 38 54t33.5 25t22.5 5z" />
    <glyph glyph-name="underscore" unicode="_" horiz-adv-x="1013" 
d="M-123 -254h1014v-100h-1014v100z" />
    <glyph glyph-name="grave" unicode="`" 
d="M596 1348q26 0 39 -86q7 -50 15 -166t9 -129q1 -23 -8 -42.5t-20 -19.5t-23.5 13.5t-15.5 25.5q-52 121 -88 258q-11 40 -6 62q11 28 42 56t56 28z" />
    <glyph glyph-name="a" unicode="a" horiz-adv-x="958" 
d="M612 803q4 0 18.5 -4.5t35.5 -15t34 -23.5q3 -3 11.5 -0.5t9.5 8.5q30 50 35 59q3 6 17 12.5t22 6.5q42 0 110 -37q3 -2 4.5 -15t-2.5 -24q-3 -8 -59 -150.5t-96.5 -250.5t-63.5 -181q-8 -26 4 -38.5t29 -12.5q30 0 78.5 34.5t89.5 80.5q12 12 21.5 8.5t9.5 -16.5
q0 -25 -19 -56q-45 -76 -109 -128.5t-118.5 -72.5t-100.5 -20q-42 0 -70 23t-30 57q0 20 72 201q8 15 -3 23q-6 4 -12 -3q-123 -136 -242 -218.5t-196 -82.5q-32 0 -70 26.5t-38 61.5q0 76 82 215q89 148 229 293.5t242 208.5q50 31 75 31zM578 670q-120 0 -209 -119
q-56 -70 -100 -170.5t-44 -175.5q0 -34 13 -54t30 -20q25 0 70 32.5t100 96.5q50 55 110.5 150t94.5 172q17 35 6 51q-16 16 -37.5 26.5t-33.5 10.5z" />
    <glyph glyph-name="b" unicode="b" horiz-adv-x="991" 
d="M776 834q76 0 123 -52.5t47 -128.5q0 -155 -119 -334t-280 -274q-70 -40 -138 -59t-114 -19q-92 0 -155.5 55.5t-63.5 163.5q0 67 88 340q32 106 237 699q9 27 11 43.5t-7.5 30t-18.5 20t-34 22.5q-10 6 -18 16t-8 15q0 9 16 19.5t35 15.5q22 5 146 22t151 17q7 0 11 -12
t1 -21q-35 -67 -151 -372.5t-175 -481.5q-1 -4 2.5 -6.5t8 -2t6.5 4.5q91 118 200.5 198.5t198.5 80.5zM686 735q-36 0 -74 -22t-76 -64.5t-69 -84t-68 -99.5q-64 -106 -100.5 -205.5t-36.5 -140.5q0 -28 21 -57t45 -29q20 0 55.5 21t69.5 55q99 100 192.5 284.5t93.5 280.5
q0 24 -14 42.5t-39 18.5z" />
    <glyph glyph-name="c" unicode="c" horiz-adv-x="702" 
d="M596 836q54 0 94 -21q14 -5 25.5 -18t11.5 -29q0 -52 -32 -95.5t-56 -43.5q-23 0 -37 22q-3 6 -11 22.5t-11 22.5t-10.5 19t-11.5 18.5t-11.5 14t-13.5 11.5t-15 6t-18 3q-56 0 -127 -141q-43 -80 -73 -182.5t-30 -182.5q0 -46 8.5 -77t24 -44t29 -17.5t30.5 -4.5
q102 0 211 104q8 8 17 10.5t15.5 -0.5t6.5 -10q0 -30 -26 -65q-147 -181 -342 -181q-51 0 -89.5 22.5t-59 58t-30.5 72t-10 71.5q0 65 25.5 158t62.5 159q58 108 124.5 176.5t158.5 106.5q33 15 88 25t82 10z" />
    <glyph glyph-name="d" unicode="d" horiz-adv-x="1038" 
d="M25 125q0 57 27.5 143t77.5 182t135 189t186 147q85 50 165 50q27 0 64 -18t59 -40q4 -1 10.5 2t8.5 8q5 19 30 98.5t53 174.5t48 170q11 50 7.5 66.5t-26.5 27.5q-69 34 -69 45q0 10 10.5 20.5t19.5 14.5q29 9 143.5 25t149.5 16t6 -103q-13 -43 -76 -236.5t-118 -369.5
q-22 -74 -81.5 -268.5t-80.5 -269.5q-6 -24 4 -39t29 -15q27 0 72.5 36t85.5 85q15 18 22 8q7 -7 4 -32q-4 -35 -39.5 -83t-85 -91t-111 -73t-112.5 -30q-29 0 -55.5 32t-26.5 58q0 33 70 254q3 8 -5 12.5t-14 -4.5q-123 -180 -234 -264t-228 -84q-51 0 -89 33
q-17 19 -26.5 55.5t-9.5 67.5zM244 168q0 -29 11 -46.5t28 -17.5q45 0 117 58.5t145 152.5q89 126 143 279q27 73 12 117q-26 53 -53 53q-61 0 -182 -137q-85 -100 -153 -239.5t-68 -219.5z" />
    <glyph glyph-name="e" unicode="e" horiz-adv-x="768" 
d="M590 834q89 0 131.5 -44t42.5 -98q0 -129 -184 -217q-94 -46 -265 -86q-19 -5 -28 -33q-19 -59 -19 -123q0 -57 28.5 -88.5t68.5 -31.5q98 0 217 102q3 3 12.5 10.5t14 10.5t11 6.5t11.5 3.5q6 0 10 -5t4 -10q0 -10 -9 -30t-18 -31q-68 -85 -169.5 -142t-208.5 -57
q-59 0 -124 68t-65 170q0 105 61.5 238t147.5 223q76 76 166.5 120t163.5 44zM565 776q-65 0 -140.5 -98t-107.5 -211q-2 -9 1.5 -16.5t11.5 -4.5q124 42 198 125.5t74 147.5q0 28 -10.5 42.5t-26.5 14.5z" />
    <glyph glyph-name="f" unicode="f" horiz-adv-x="559" 
d="M500 807l174 6q7 0 11.5 -7t4.5 -13q0 -12 -15.5 -34t-33.5 -22q-22 0 -78.5 -3t-87.5 -3q-9 0 -24 -22q-102 -340 -244 -863q-16 -57 -40 -104.5t-45.5 -78t-55.5 -61t-54.5 -45t-56.5 -38.5q-54 -34 -119 -55t-104 -21q-80 0 -123 32.5t-43 75.5q0 28 32 63.5t60 45.5
q8 4 25 3.5t22 -7.5q83 -119 148 -119q74 0 141 266q12 45 49.5 183.5t62 227.5t64.5 230t78 267q2 3 -5 9.5t-14 6.5l-114 -4q-9 0 -14 8.5t-5 16.5q2 18 15.5 34.5t29.5 16.5q20 0 67 2t60 2q2 0 8 5.5t7 8.5q55 167 144.5 319t176.5 214q129 96 242 96q87 0 128.5 -39.5
t41.5 -95.5q-1 -65 -43 -105.5t-86 -40.5q-9 0 -17 9.5t-8 19.5q0 5 1 23t1 22q3 143 -73 143q-34 0 -68.5 -28.5t-79.5 -112.5q-33 -62 -79.5 -186t-74.5 -228q-1 -6 3.5 -13t7.5 -7z" />
    <glyph glyph-name="g" unicode="g" horiz-adv-x="847" 
d="M557 840q71 0 141 -41q14 -7 27.5 -7t44.5 7q8 2 37 8.5t52.5 11t39.5 4.5q62 0 62 -63q-1 -41 -17.5 -55.5t-44.5 -14.5q-31 0 -69 12.5t-56 12.5q-12 0 -16 -9t-2 -16q8 -39 8 -63q-1 -124 -90 -248t-189 -172q-73 -38 -198 -43q-5 0 -13 -8q-6 -12 -6 -29
q0 -39 66 -80q30 -19 132.5 -79.5t129.5 -80.5q115 -85 115 -174q0 -38 -32.5 -82t-78.5 -75q-172 -111 -395 -111q-162 0 -271 66q-54 30 -84 71.5t-30 81.5q0 47 33 82t86 68q22 15 52.5 31t49 24t57 23.5t43.5 17.5q4 3 6 7.5t0 6.5q-4 6 -16.5 23.5t-19.5 32.5t-7 32
q0 33 25 62q14 14 45.5 41.5t42.5 40.5q3 3 2.5 7t-2 7.5t-2.5 3.5q-62 23 -98.5 74t-36.5 108q1 85 40.5 169.5t89 140.5t105.5 96q107 78 242 78zM541 780q-34 0 -76 -39q-80 -74 -150.5 -223t-70.5 -223q0 -31 15.5 -53.5t43.5 -22.5q24 0 70 41q65 56 139.5 200.5
t77.5 244.5q0 32 -13.5 53.5t-35.5 21.5zM322 -479q80 0 139 33.5t59 80.5q0 46 -49 84q-71 57 -250 148q-6 3 -24.5 4t-26.5 -2q-56 -21 -111 -74.5t-55 -101.5q0 -54 47 -92q51 -39 125.5 -59.5t145.5 -20.5z" />
    <glyph glyph-name="h" unicode="h" horiz-adv-x="1046" 
d="M979 690q0 -142 -67 -307.5t-134 -245.5q-19 -24 -50.5 -47.5t-78.5 -52t-49 -29.5q-26 -18 -63.5 -33.5t-57.5 -15.5q-53 0 -71 18q-23 23 -23 54q0 9 23 40t36 44q3 4 17 4q78 -47 106 -47q11 0 17.5 5.5t15.5 22.5q54 89 105 266.5t51 260.5q0 88 -49 88
q-43 0 -98 -50.5t-156 -187.5q-53 -73 -135 -210.5t-134 -233.5q-13 -27 -37 -43.5t-38 -16.5q-37 0 -63.5 30.5t-22.5 49.5q34 124 185 601.5t179 568.5q15 45 5.5 70t-60.5 36q-21 5 -33 14.5t-12 16.5q0 8 12.5 19.5t30.5 17.5q48 12 164.5 30.5t146.5 18.5q9 0 14.5 -17
t1.5 -30q-43 -132 -118 -350.5t-128.5 -372t-56.5 -168.5q-4 -10 5 -11.5t14 3.5q122 154 268 260q104 74 205 74q47 0 79 -29t43 -59.5t11 -55.5z" />
    <glyph glyph-name="i" unicode="i" horiz-adv-x="573" 
d="M461 829q14 0 31.5 -22.5t17.5 -36.5q0 -20 -23 -72q-49 -120 -111 -280.5t-95 -239.5q-4 -13 3 -22t19 -9q18 0 66.5 31.5t97.5 77.5q33 29 43 29q4 0 9 -5t5 -10q0 -33 -37 -73q-70 -87 -191.5 -160.5t-186.5 -73.5q-24 0 -52 20t-28 40q0 14 8 34q15 36 97 232.5
t134 326.5q5 14 0.5 25t-16.5 10q-62 -8 -135 -67q-7 -6 -18 -1t-11 13q0 19 25 51q44 48 159 115t189 67zM487 1255q48 0 73.5 -30.5t25.5 -75.5q0 -47 -39.5 -91t-87.5 -44q-30 0 -45 12q-49 33 -49 94q0 66 59 113q34 22 63 22z" />
    <glyph glyph-name="j" unicode="j" horiz-adv-x="524" 
d="M465 1268q50 0 75 -32t25 -81q0 -53 -41 -95t-84 -42q-40 0 -68 29.5t-28 74.5q0 42 20 74.5t46 50.5q34 21 55 21zM446 838q16 0 31.5 -35t9.5 -62q-41 -150 -147.5 -481.5t-157.5 -443.5q-96 -214 -307 -328q-88 -45 -151 -45q-64 0 -98 28t-34 56q0 23 21.5 57
t40.5 45q32 21 59 4q13 -10 40.5 -37t49 -42t41.5 -15q47 0 97 115q47 121 170 517.5t139 461.5q9 33 -17 33q-14 0 -58.5 -25t-80.5 -53q-14 -9 -23.5 -10.5t-13.5 2t-4 10.5q0 32 27 59q70 68 176.5 128.5t189.5 60.5z" />
    <glyph glyph-name="k" unicode="k" horiz-adv-x="952" 
d="M819 834q53 0 85 -26t32 -60q0 -39 -40.5 -105t-111.5 -115q-79 -54 -202 -102q-6 -1 -10.5 -9t-2.5 -14q23 -124 62 -206q18 -42 31 -55t32 -13q26 0 65 24t77 70q25 31 34 31q10 0 12.5 -13.5t-3.5 -34.5t-19 -40q-59 -83 -135 -141t-123 -58q-37 0 -73.5 37.5
t-59.5 93.5q-29 77 -68 195q-26 72 -59 72q-22 0 -49 -58q-54 -132 -137 -307q-7 -11 -26.5 -19t-31.5 -8q-35 0 -63.5 23t-28.5 43q0 15 17 59q24 62 380 1143q12 33 3.5 49.5t-52.5 34.5q-14 6 -24.5 14t-10.5 11q0 17 31 34q23 12 143 34t156 22q11 0 14.5 -22.5
t-1.5 -41.5q-4 -11 -57.5 -149.5t-127 -333t-119.5 -328.5q-4 -11 0 -18t11 -6.5t12 8.5q114 166 260 242q47 24 85.5 33.5t92.5 9.5zM672 719q-15 0 -46 -10.5t-55 -26.5q-50 -31 -99.5 -96.5t-80.5 -134.5q-4 -13 2.5 -22t18.5 -9q64 2 139 40t128.5 98.5t53.5 119.5
q0 20 -13 30.5t-48 10.5z" />
    <glyph glyph-name="l" unicode="l" horiz-adv-x="542" 
d="M326 1358q0 8 13 19t30 14l56 9q56 9 110 18.5t79 15.5q50 12 60 12q14 0 16 -22t-6 -42q-75 -199 -446 -1239q-10 -34 -6 -52.5t18 -18.5q19 0 63.5 38t98.5 92.5t65 63.5q9 7 18 3.5t9 -11.5q0 -29 -17 -63q-54 -101 -157.5 -164.5t-198.5 -63.5q-42 0 -75 30.5
t-33 59.5q0 28 59 199q179 509 340 969q20 60 12 76t-61 28q-47 12 -47 29z" />
    <glyph glyph-name="m" unicode="m" horiz-adv-x="1558" 
d="M395 834q48 0 80 -23q26 -20 10 -78q-1 -3 -21.5 -51.5t-43 -99.5t-33.5 -74q-10 -20 3 -21q12 -1 30 19q7 9 39 47.5t51 59.5t49 54t57 58t52 43q89 66 186 66q48 0 83.5 -36t35.5 -77q-2 -63 -60 -191q-6 -15 1 -18t16 8q3 4 24 29.5t26.5 32t24 28.5t26.5 30.5
t23.5 26.5t25.5 28l23 23t25 23q114 93 211 93q67 0 97 -41.5t30 -92.5q0 -27 -9.5 -69t-18.5 -60q-15 -26 -185 -381q-5 -8 0 -16t11 -8q24 2 92 42t127 91q11 9 22 7t11 -11q0 -51 -78 -121q-73 -73 -189 -140t-186 -67q-14 0 -38.5 10t-37.5 29q-13 17 0 43
q4 13 64 138.5t132 274t77 159.5q25 55 17.5 85.5t-34.5 30.5q-87 0 -274 -278q-90 -136 -250 -410q-21 -33 -66.5 -57.5t-68.5 -24.5q-16 0 -35 11.5t-25 27.5q-6 17 8 53q24 63 89 212t115 266t52 131q7 32 -2 50.5t-30 18.5q-54 0 -144.5 -98.5t-214.5 -302.5
q-111 -189 -198 -305q-51 -64 -68 -64q-34 0 -61 21t-29 39q0 43 18 79q27 55 113.5 255t130.5 294q22 52 -18 52q-46 0 -158 -101q-23 -20 -35 -20q-9 0 -13 13t1 36q9 34 32 67t60 63.5t95.5 49.5t127.5 19z" />
    <glyph glyph-name="n" unicode="n" horiz-adv-x="1071" 
d="M836 831q64 0 100.5 -39.5t36.5 -91.5q0 -59 -29 -131q-30 -81 -86 -206.5t-74 -157.5q-12 -28 -9 -41.5t18 -13.5q24 0 77.5 34t94.5 72q12 12 20.5 14.5t12 -3t3.5 -15.5q0 -28 -30 -68q-61 -83 -176.5 -151t-200.5 -68q-17 0 -40 13.5t-36 33.5q-18 29 -2 62
q27 52 139 286.5t127 276.5q29 90 -32 90q-35 0 -93.5 -51.5t-115.5 -132.5q-53 -75 -160.5 -252t-124.5 -203q-76 -125 -109 -125q-40 0 -70 27t-30 53q-2 37 47 147q19 42 62 134.5t80 175.5t63 151q16 33 -10 33q-11 0 -22.5 -3t-20.5 -6t-22 -11.5t-20 -12.5t-21 -16
t-18 -16t-19 -17.5t-17 -15.5q-15 -15 -29 -15q-4 -1 -9 7.5t-5 15.5q0 76 93 156.5t222 80.5q19 0 44 -14t32 -39q9 -23 -8 -65q-5 -13 -111 -254q-10 -23 2 -30q10 -5 21 15q44 67 122 159t124 130q122 98 209 98z" />
    <glyph glyph-name="o" unicode="o" horiz-adv-x="907" 
d="M598 834q74 0 130.5 -41.5t82 -98.5t25.5 -116q0 -96 -31 -188t-82.5 -164.5t-116 -128.5t-133.5 -87q-95 -43 -190 -43q-88 0 -159 65.5t-71 184.5q0 102 67 250.5t177 243.5q64 56 143 89.5t158 33.5zM578 774q-47 0 -109 -74q-82 -99 -145.5 -268t-63.5 -319
q0 -36 19.5 -61t48.5 -25q20 0 37 12t49 45q70 73 149.5 275t79.5 331q0 36 -16.5 60t-48.5 24z" />
    <glyph glyph-name="p" unicode="p" horiz-adv-x="940" 
d="M885 588q0 -79 -27 -158t-70 -143t-99 -120.5t-111.5 -96.5t-110.5 -66q-31 -15 -69.5 -24t-55.5 -9q-34 0 -94 27q-63 -194 -94 -354q-10 -48 9.5 -68.5t82.5 -34.5q55 -11 55 -35q0 -11 -17.5 -18.5t-43.5 -7.5q-30 0 -77 1t-73 1q-61 0 -156 -7t-116 -7q-60 -3 -60 22
q0 23 56 37q60 15 83.5 37.5t41.5 77.5q198 626 335 1054q3 6 -1 11t-11 2q-50 -14 -156 -68q-20 -9 -37.5 -6t-17.5 12q0 22 23 39q46 31 113.5 64t105.5 47q8 2 16 18q35 105 58 131q13 14 58 23.5t81 9.5q29 0 29 -39q0 -9 -25 -92q-5 -19 6 -19q56 0 106.5 -7t99.5 -25
t84.5 -44.5t57 -69t21.5 -95.5zM676 625q0 47 -49 86t-115 39q-6 0 -18 -5.5t-13 -9.5q-135 -408 -194 -618q-1 -5 -1 -18t1 -17q8 -22 24.5 -38.5t26.5 -16.5q38 0 100 55q105 102 171.5 250.5t66.5 292.5z" />
    <glyph glyph-name="q" unicode="q" horiz-adv-x="987" 
d="M635 834q45 0 88 -33t70 -80q4 -6 13 -5.5t15 9.5q9 13 24.5 37t28 41.5t23.5 30.5q34 43 55 43q10 0 17 -10.5t7 -32t-9 -48.5q-88 -268 -119 -376q-191 -663 -219 -770q-11 -42 7 -58.5t64 -23.5q52 -8 52 -29q0 -9 -11.5 -18.5t-33.5 -12.5q-17 -2 -124 -11.5
t-180.5 -19t-126.5 -22.5q-20 -5 -40.5 -1t-20.5 17q0 12 14 22.5t31 16.5q82 33 109.5 60.5t52.5 97.5q90 235 207 618q5 13 -6 12q-7 0 -13 -7q-107 -133 -246.5 -221.5t-228.5 -88.5q-34 0 -77.5 36.5t-43.5 105.5q0 78 42 190t118 221q61 89 123 145.5t160 112.5
q44 25 94 38.5t84 13.5zM635 776q-23 0 -80 -46t-106 -109q-77 -102 -139 -236.5t-62 -218.5q0 -72 47 -72q33 0 100 54t148 159q58 77 107.5 187t49.5 184q0 27 -17.5 62.5t-47.5 35.5z" />
    <glyph glyph-name="r" unicode="r" horiz-adv-x="763" 
d="M317 834q48 0 76.5 -34.5t28.5 -76.5q0 -65 -49 -193q-9 -27 1 -27q8 1 23 25q90 136 138 191q99 115 188 115q47 0 69.5 -30.5t22.5 -68.5q0 -74 -47.5 -130t-77.5 -56t-35 31q-22 98 -49 98q-38 0 -98 -100q-49 -86 -150 -295t-118 -238q-24 -42 -47.5 -60t-57.5 -18
q-18 0 -45.5 10t-36.5 25q-1 3 -1 17.5t1 21.5q6 16 80 219t113 324q12 44 5.5 61t-26.5 17q-43 0 -110 -72q-29 -33 -39 -33q-14 0 -18 19t5 45q36 99 109 156t145 57z" />
    <glyph glyph-name="s" unicode="s" horiz-adv-x="628" 
d="M475 834q38 0 70.5 -13.5t48.5 -29.5q24 -24 24 -52q0 -23 -23.5 -58t-43.5 -48q-13 -8 -29 4q-4 3 -31.5 26.5t-42.5 34.5t-41 23t-47 12q-18 0 -41.5 -21.5t-23.5 -54.5q0 -55 125 -192q102 -117 102 -189q0 -52 -36.5 -107t-92.5 -97q-59 -46 -130.5 -73.5
t-110.5 -27.5q-65 0 -120 36t-55 85q0 12 20.5 47t41.5 58q6 6 17 7t16 -5q3 -2 22 -18.5t30 -25.5t33 -24.5t38.5 -24t38.5 -15.5t42 -7q37 0 64 21t27 51q0 53 -119 180q-94 105 -94 199q0 41 27.5 96.5t80.5 101.5q59 53 115.5 77t97.5 24z" />
    <glyph glyph-name="t" unicode="t" horiz-adv-x="649" 
d="M563 1053q32 0 15 -62q-3 -14 -24 -82t-24 -78q-4 -22 13 -22q35 0 170 -6q24 0 24 -19q0 -14 -16 -30t-33 -19q-62 -10 -178 -10q-16 0 -23 -14q-69 -155 -188 -502q-6 -15 0 -31t18 -16q27 0 87 38t102 79q14 10 29.5 13t17.5 -9q0 -25 -23 -60q-67 -92 -198.5 -171
t-208.5 -79q-24 0 -51 28t-27 52q0 25 10 56q29 72 230 591q4 10 2.5 17.5t-6.5 7.5q-10 1 -46.5 3t-46.5 3q-43 3 -43 23q0 14 19 29.5t33 17.5q29 3 112 8q7 0 15.5 6.5t11.5 13.5q53 100 102 166q42 58 125 58z" />
    <glyph glyph-name="u" unicode="u" horiz-adv-x="1038" 
d="M446 834q10 0 27.5 -15t26.5 -33q9 -22 -6 -53q-35 -72 -113 -267t-92 -245q-10 -41 -1.5 -60.5t25.5 -19.5q49 0 141.5 96.5t178.5 239.5q54 90 166 295q11 21 32 41.5t39 20.5q34 0 65.5 -24t31.5 -40q0 -34 -19 -78q-148 -352 -190 -485q-4 -17 0.5 -29t15.5 -12
q22 0 74.5 32.5t118.5 98.5q8 8 19.5 8.5t12.5 -10.5q0 -23 -12 -47q-29 -61 -100.5 -127t-153 -110t-137.5 -44q-21 0 -42.5 25.5t-21.5 40.5q0 9 7 33q4 14 47 117t49 124q10 31 -1 32t-30 -22q-79 -97 -170.5 -175.5t-165.5 -125.5q-33 -21 -73.5 -35t-67.5 -14
q-48 0 -72 31q-10 12 -12.5 39t8.5 61q16 45 87 219.5t124 298.5q18 43 -2 43q-14 0 -131 -75q-10 -7 -21.5 -10.5t-19.5 -2t-8 8.5q0 11 16 38q29 52 150 134t200 82z" />
    <glyph glyph-name="v" unicode="v" horiz-adv-x="878" 
d="M217 -25q-55 0 -92 41t-37 103q0 60 33 147q18 52 72 189t71 184q3 9 0 16t-12 7q-41 0 -148 -93q-12 -10 -25 -8.5t-13 12.5q0 23 28 60q41 54 145 127.5t185 73.5q29 0 55 -52q19 -49 -8 -108q-150 -379 -170 -445q-14 -46 5.5 -74t47.5 -28q67 0 146.5 63.5t136.5 169
t57 209.5q0 41 -41 105q-18 29 -18 49q0 28 48 70.5t99 42.5q31 0 54.5 -37.5t23.5 -91.5q0 -104 -82.5 -254t-183.5 -258q-83 -87 -184.5 -153.5t-192.5 -66.5z" />
    <glyph glyph-name="w" unicode="w" horiz-adv-x="1327" 
d="M436 834q15 0 32.5 -11.5t23.5 -25.5q20 -46 -11 -140q-123 -308 -157 -407q-19 -52 -16.5 -91.5t28.5 -39.5q44 0 113 55t139 160q31 48 45 92q5 17 24 87.5t29 102.5q1 3 5 14t5 14t4.5 12t5 12t5 10.5t6.5 11t7 9.5t9 10.5t10 9.5q18 18 57 34.5t79 16.5q76 0 24 -158
q-15 -39 -33.5 -77.5t-44 -86t-30.5 -57.5q-12 -26 -25 -68.5t-14 -66.5q-3 -37 -1 -69.5t20 -55t50 -22.5q36 0 80.5 25t73.5 59q83 87 121.5 184t38.5 172q0 58 -35 143q-7 20 2 37q20 33 71 69t83 36q51 0 51 -129q0 -86 -43.5 -192t-110.5 -199.5t-147.5 -172.5
t-153.5 -121q-81 -51 -172 -51q-63 0 -92 71t-6 175q2 9 -5.5 11t-13.5 -7q-41 -46 -103 -100.5t-87 -71.5q-56 -41 -97 -58.5t-90 -17.5q-42 0 -69.5 40.5t-24.5 103.5q0 25 14.5 80t34.5 104q77 203 129 342q6 11 2.5 17t-12.5 6q-20 0 -69.5 -29t-94.5 -66
q-9 -7 -15.5 -0.5t-6.5 15.5q0 24 20 51q49 63 155.5 131t182.5 68z" />
    <glyph glyph-name="x" unicode="x" horiz-adv-x="925" 
d="M379 829q27 0 50.5 -36t33.5 -72q41 -129 63 -193q2 -4 7 -2.5t8 6.5q10 13 34 44t34.5 45t31 39.5t33 40t30 33t32.5 32.5t30 25q16 16 44.5 29.5t55.5 13.5q51 0 73 -28t22 -65q0 -30 -38 -79.5t-71 -49.5q-20 0 -35 23q-6 13 -19.5 27t-25.5 14q-37 0 -103 -71.5
t-114 -139.5q-12 -17 -6 -45q45 -156 71 -215.5t54 -59.5q44 0 121 113q14 21 24 21q23 0 17 -46q-10 -96 -99 -178t-164 -82q-34 0 -70.5 40.5t-58.5 103.5q-10 32 -26.5 89.5t-22.5 78.5q-2 2 -6 2.5t-6 -2.5q-132 -182 -207.5 -254t-144.5 -72q-38 0 -65.5 30t-24.5 64
q1 47 30.5 84.5t59.5 50.5q36 9 41 -6q19 -51 63 -51q36 0 101 63t129 154q12 14 6 43q-2 13 -68 217q-9 29 -18 37t-19 8q-23 0 -49.5 -23t-64.5 -73q-14 -18 -23 -18q-18 0 -18 32q2 31 27.5 75t62.5 84.5t85.5 69.5t92.5 29z" />
    <glyph glyph-name="y" unicode="y" horiz-adv-x="817" 
d="M324 834q41 0 77.5 -59.5t44.5 -131.5q35 -289 13 -502q0 -12 7 -11q10 0 23 22q76 133 124.5 303t52.5 348q0 14 14.5 26.5t24.5 12.5q28 0 59 -39t31 -60q0 -114 -76 -289.5t-160 -314.5q-96 -156 -225 -329q-137 -182 -250 -271q-118 -88 -227 -88q-38 0 -72.5 24.5
t-34.5 65.5q0 45 37.5 87t62.5 42q24 0 29 -8q5 -4 31 -26.5t45 -33t37 -10.5q43 0 80.5 20t81.5 75q57 72 94 235t37 330q0 278 -23 369q-18 71 -43 71q-33 0 -115 -145q-24 -43 -41 -43q-18 0 -22 43q-1 35 21.5 83.5t59 94t91 77.5t111.5 32z" />
    <glyph glyph-name="z" unicode="z" horiz-adv-x="868" 
d="M393 834q81 0 203 -54q38 -16 92 -16q48 0 123 57q35 25 47 25q9 0 17 -6.5t8 -14.5q0 -11 -9.5 -27t-19.5 -24q-127 -110 -328 -290t-250 -234q-7 -8 -5 -13.5t10 -5.5q95 -3 221 -92q63 -45 119 -45q57 0 74.5 36.5t17.5 111.5q0 19 -8 67q-1 6 6 11.5t16 5.5
q35 0 57.5 -31t20.5 -76q0 -91 -139 -199q-107 -83 -199 -83q-45 0 -168 92q-57 43 -83.5 56t-53.5 13q-46 0 -78 -37q-30 -37 -47 -79q-3 -5 -10 -10t-11 -5q-10 0 -24.5 18t-14.5 35q-3 48 74 117q39 36 174.5 158t232.5 211.5t103 103.5q4 11 -6 11q-40 3 -113 22
q-19 5 -90 30t-102 25q-52 0 -55 -45q0 -59 10 -88q1 -3 1 -5.5t-0.5 -4t-2.5 -4.5t-3 -4l-4.5 -4.5l-5.5 -5.5q-18 -16 -44.5 -29.5t-41.5 -13.5q-16 0 -23 20t-7 43q0 31 36 84.5t91 99.5q56 46 107.5 69.5t84.5 23.5z" />
    <glyph glyph-name="braceleft" unicode="{" horiz-adv-x="794" 
d="M184 592q3 19 31 24q63 10 106.5 28t68 44t36 49.5t20.5 57.5q7 28 23.5 181t32.5 204q15 51 59 106.5t111 95.5q72 44 152 63t120 19q17 0 31 -7t14 -15q0 -24 -28 -31q-42 -13 -58 -18.5t-53.5 -20.5t-56.5 -29.5t-45 -37.5t-42.5 -53t-27.5 -68q-18 -64 -21.5 -186
t-17.5 -169q-21 -68 -110.5 -136t-186.5 -101q-7 -2 -9.5 -7t7.5 -12q91 -49 130.5 -119t21.5 -143q-28 -107 -97 -239q-27 -61 -39 -119q-22 -94 12 -167.5t130 -107.5q10 -4 20 -15.5t8 -16.5q-4 -23 -55 -23q-52 0 -110.5 32.5t-105 87.5t-67.5 128t2 154
q8 29 52.5 138.5t56.5 147.5q30 100 14.5 152.5t-80.5 77.5q-26 7 -39 23t-10 28z" />
    <glyph glyph-name="bar" unicode="|" horiz-adv-x="604" 
d="M289 1413h145v-1814h-145v1814z" />
    <glyph glyph-name="braceright" unicode="}" horiz-adv-x="718" 
d="M412 1464q52 0 111 -32t105.5 -86.5t67 -127.5t-3.5 -155q-9 -32 -42.5 -119.5t-43.5 -116.5q-32 -89 -16.5 -148t84.5 -85q55 -20 55 -41q0 -7 -11.5 -18.5t-25.5 -12.5q-201 -34 -235 -180q-6 -24 -31.5 -203.5t-40.5 -232.5q-15 -51 -58 -106.5t-110 -96.5
q-70 -43 -152 -61.5t-122 -18.5q-22 0 -34.5 8.5t-12.5 18.5q0 22 51 35q105 33 142 55q83 50 114 164q17 60 32 207t29 196q23 75 102 142t195 100q6 2 6.5 7.5t-6.5 10.5q-180 117 -145 258q9 44 36.5 108t30.5 73q34 88 43 127q45 197 -135 272q-11 5 -21 15t-10 18
q0 10 14 18t38 8z" />
    <glyph glyph-name="asciitilde" unicode="~" horiz-adv-x="1277" 
d="M465 711q54 0 119.5 -37t115 -81t101.5 -81t82 -37q53 0 92 44.5t92 170.5q8 19 23 19q27 0 61 -19t27 -39q-110 -311 -310 -311q-47 0 -96.5 24t-91 59t-80.5 69.5t-79 58.5t-72 24q-48 0 -94.5 -50.5t-86.5 -153.5q-6 -19 -11 -25t-15 -6q-19 0 -55 17.5t-31 35.5
q20 66 47 120.5t64.5 100.5t88 71.5t109.5 25.5z" />
    <glyph glyph-name="uni00A0" unicode="&#xa0;" horiz-adv-x="395" 
 />
    <glyph glyph-name="exclamdown" unicode="&#xa1;" horiz-adv-x="632" 
d="M53 -397q-42 0 -67.5 42t-25 99.5t23.5 118.5q38 89 135 283t147 282q9 17 26 31t36 14q12 0 19 -16.5t5 -40.5q-8 -59 -42.5 -271t-57.5 -327q-20 -100 -75 -157.5t-124 -57.5zM373 582q-62 0 -95.5 38.5t-33.5 104.5q0 76 48.5 118t104.5 42q67 0 100 -38t33 -102
q0 -66 -48 -114.5t-109 -48.5z" />
    <glyph glyph-name="cent" unicode="&#xa2;" horiz-adv-x="1011" 
d="M760 1069l41 125q10 16 20 16q11 0 31 -10t20 -16l-36 -115q-1 -6 1 -10t5 -4q89 -9 135 -37q13 -9 19 -14.5t12 -16.5t6 -26q0 -36 -33 -75.5t-55 -39.5t-39 33q-15 36 -36 68t-38 40q-3 2 -8 -1t-6 -7l-221 -666q-1 -6 2.5 -9t11.5 -1q156 19 293 127q9 5 15.5 0.5
t6.5 -14.5q0 -29 -30 -62q-62 -72 -153 -112.5t-173 -51.5q-15 -5 -19 -16l-51 -145q-19 -15 -43 -15q-6 0 -15.5 6t-12.5 13l53 147q6 11 -6 17q-115 15 -194 92t-79 203q0 166 99.5 303.5t257.5 210.5q32 15 96.5 31.5t107.5 19.5q10 3 15 12zM516 336l215 647q3 8 0.5 10
t-8.5 2q-45 -4 -98.5 -47t-99.5 -110t-76.5 -161.5t-30.5 -189.5q0 -55 24.5 -100t59.5 -59q7 -2 14 8z" />
    <glyph glyph-name="sterling" unicode="&#xa3;" horiz-adv-x="1011" 
d="M831 1280q90 0 143.5 -46t53.5 -108q1 -48 -34 -86t-74 -41q-12 -2 -22 4.5t-9 18.5q2 16 2 72q-2 45 -30 86t-73 41q-48 0 -86.5 -44.5t-78 -159.5t-78.5 -312q-2 -5 0 -11t8 -6l240 12q5 0 10 -12t2 -24q-1 -12 -12 -25.5t-17 -13.5l-237 -15q-10 0 -15 -16
q-40 -119 -84.5 -192.5t-115.5 -137.5q-6 -12 4 -16q81 -26 170 -70q4 -2 25.5 -12t28.5 -13t27 -12t29.5 -12.5t27 -10.5t28.5 -10t25.5 -7t26 -5.5t21.5 -1.5q69 0 105.5 31t36.5 108q0 39 -17 127q-1 7 11.5 18t21.5 11q32 0 58 -31t26 -84q0 -79 -65 -159.5
t-160.5 -130.5t-182.5 -50q-45 0 -96 20.5t-87.5 44.5t-102.5 73q-5 4 -14 10.5t-12.5 8.5t-10.5 7t-9.5 6.5t-8 4.5t-8.5 4.5t-7.5 3.5t-8.5 3.5t-9 2.5q-15 4 -52 -25q-121 -106 -170 -106q-61 0 -61 45q0 50 66.5 106.5t142.5 83.5q36 12 47 21q31 22 50.5 87.5
t55.5 248.5q0 14 -14 14l-139 -6q-6 0 -10.5 11t-1.5 20q3 14 11.5 29t14.5 16l137 10q18 0 21 18q57 205 125.5 322.5t169.5 183.5q118 78 241 78z" />
    <glyph glyph-name="currency" unicode="&#xa4;" horiz-adv-x="1011" 
d="M969 963l-105 -121q-5 -14 -2 -23q66 -101 66 -221q0 -110 -68 -211q-9 -9 -4 -14l113 -131q9 -6 2 -29.5t-27 -42.5q-11 -12 -29 -18.5t-26 0.5l-129 122q-6 6 -21 -2q-100 -65 -182 -65q-104 0 -190 55q-11 6 -25 -2l-113 -115q-18 -18 -61 19q-16 16 -22 34.5t-5 29
t4 14.5l101 110q7 14 0 23q-64 103 -64 221q0 103 64 209q2 2 3 11.5t-3 14.5l-109 130q-8 11 4 34.5t25 36.5q16 16 34 22.5t31 -1.5l107 -115q5 -5 15.5 -7t15.5 1q86 53 188 53t195 -57q12 -6 20 2l105 117q25 20 69 -21q19 -16 24.5 -35.5t-1.5 -27.5zM557 854
q-109 0 -180.5 -73t-71.5 -185t74.5 -183t177.5 -71q100 0 175 72t75 182q0 105 -78.5 181.5t-171.5 76.5z" />
    <glyph glyph-name="yen" unicode="&#xa5;" horiz-adv-x="1011" 
d="M215 1241q0 21 55 21q14 0 85.5 -3.5t97.5 -3.5q31 0 99.5 3.5t84.5 3.5q24 0 36.5 -7.5t12.5 -15.5q0 -25 -51 -35q-37 -10 -50.5 -25.5t-9.5 -52.5q44 -307 58 -378q0 -6 6 -7.5t12 4.5q116 137 223 281q84 109 93 135q2 8 -0.5 15t-17 15.5t-42.5 14.5q-14 4 -27.5 13
t-13.5 20q0 10 17 16.5t41 6.5q20 0 64.5 -3.5t62.5 -3.5q26 -1 80 3t73 4q47 0 47 -23q0 -11 -16.5 -21t-30.5 -12q-46 -8 -81.5 -27.5t-61.5 -44.5t-76 -81q-41 -46 -88 -102t-111.5 -133t-107.5 -128q-6 -6 -4 -12t8 -6l190 4q13 0 13 -27q0 -14 -11.5 -26.5t-19.5 -12.5
l-199 -4q-10 0 -20 -20l-31 -99q-2 -12 10 -12l197 4q14 0 14 -28q0 -16 -12.5 -27.5t-21.5 -11.5l-193 -4q-8 0 -15 -5t-8 -12q-8 -32 -26.5 -99.5t-26.5 -103.5q-11 -37 -12 -59.5t10.5 -37.5t31.5 -23t58 -15q45 -10 45 -33q0 -26 -61 -26q-19 0 -107 3t-129 3
q-26 0 -101.5 -3t-117.5 -3q-61 0 -61 26q0 27 65 37q76 12 104.5 41t61.5 135l49 154q2 6 -1 12.5t-9 6.5l-176 -7q-10 0 -10 23q0 10 9.5 26.5t14.5 16.5l187 6q11 0 14 10l33 101q3 8 1.5 14t-7.5 6l-185 -6q-16 0 -16 16q0 21 10.5 36.5t22.5 15.5l178 6q6 0 10.5 3.5
t3.5 10.5q-31 208 -78 414q-11 53 -30.5 75t-73.5 35q-41 12 -41 33z" />
    <glyph glyph-name="brokenbar" unicode="&#xa6;" horiz-adv-x="604" 
d="M289 -354v708h145v-708h-145zM289 1368h145v-709h-145v709z" />
    <glyph glyph-name="section" unicode="&#xa7;" horiz-adv-x="897" 
d="M807 1294q63 0 100 -37q9 -6 15 -19t4 -21q-1 -12 -16.5 -31.5t-36 -40l-21.5 -21.5q-33 -11 -43 -6q-96 62 -154 62q-61 0 -89.5 -38t-28.5 -79q-1 -21 5.5 -46t24 -61t27.5 -54.5t38 -67t34 -58.5q120 -195 122 -342q0 -60 -17.5 -121t-49.5 -116.5t-60 -95.5t-67 -87
q-83 -101 -225.5 -187.5t-262.5 -86.5q-26 0 -54 12.5t-42 28.5q-32 43 -26 119q0 11 11.5 26.5t18.5 12.5q45 -32 114.5 -55t111.5 -23q85 0 128.5 32t43.5 82q0 32 -20 84.5t-40 90.5t-57 106q-121 206 -121 354q0 213 232 441q77 101 172 161q129 82 229 82zM389 952
q-48 -49 -66 -104.5t-20 -122.5q0 -98 117 -330q7 -14 25 -49.5t26 -52.5t22.5 -47.5t21.5 -49.5t15 -43.5t11.5 -45t3.5 -39.5q-2 -6 3 -9.5t11 2.5q47 48 66.5 111.5t19.5 116.5q0 85 -26 168.5t-84 187.5q-114 197 -132 305q0 4 -2 5.5t-5.5 0.5t-6.5 -4z" />
    <glyph glyph-name="dieresis" unicode="&#xa8;" 
d="M444 1243q40 0 63 -28.5t23 -65.5q0 -46 -33 -83.5t-81 -37.5q-33 0 -56.5 28.5t-23.5 67.5q0 51 33 85t75 34zM786 1243q40 0 63 -28.5t23 -65.5q0 -44 -32.5 -82.5t-79.5 -38.5q-35 0 -58.5 28.5t-23.5 67.5q0 48 34 83.5t74 35.5z" />
    <glyph glyph-name="copyright" unicode="&#xa9;" horiz-adv-x="1441" 
d="M768 1286q180 0 323.5 -85.5t221.5 -230t78 -317.5t-80 -317.5t-223.5 -230t-319.5 -85.5q-186 0 -330.5 86t-220.5 229.5t-76 317.5q0 173 80.5 317.5t225 230t321.5 85.5zM768 1225q-153 0 -279.5 -75.5t-199 -206.5t-72.5 -288q0 -117 43 -223t116.5 -182.5
t175.5 -122t216 -45.5q113 0 214 44t174 120t116 182.5t43 226.5q0 157 -72.5 288t-198.5 206.5t-276 75.5zM823 1016q53 0 115 -15q65 -16 98 -18q14 -4 19 -47q2 -27 2 -94q0 -18 -7 -29.5t-16 -11.5q-18 0 -35 33q-24 71 -65 92q-50 35 -117 35q-100 0 -159.5 -82
t-59.5 -191q0 -83 25 -148t63 -99t76 -51t72 -17q73 0 112.5 26.5t73.5 89.5q12 25 21.5 36.5t21.5 11.5q6 0 10 -11.5t4 -21.5q0 -26 -30 -127q-3 -10 -15 -22t-20 -15q-24 -10 -83 -21.5t-120 -11.5q-97 0 -180 35t-129 86q-88 101 -88 238q0 87 36.5 152.5t86.5 105.5
q59 50 138 71t150 21z" />
    <glyph glyph-name="ordfeminine" unicode="&#xaa;" horiz-adv-x="684" 
d="M104 614q0 53 68 158q46 74 131.5 160t167.5 135q36 20 53 20q39 0 64 -22q1 -2 7 -1.5t7 3.5q34 53 53 53q16 0 42 -8t40 -18q15 -11 8 -37q-71 -150 -135 -344q-5 -25 -1 -31t18 -6q31 0 100 63q7 6 17 6t12 -6q0 -23 -13 -43q-45 -66 -116 -106.5t-131 -40.5
q-26 0 -46 14.5t-20 36.5q0 6 6 23.5t12.5 33t16.5 38t12 28.5q6 14 1 17t-17 -9q-68 -68 -149 -125t-140 -57q-23 0 -45.5 18.5t-22.5 46.5zM291 725q0 -35 26 -35q39 0 99 60q14 13 26.5 27t24.5 30.5t19.5 27t19 30t15 25t15.5 26.5l11 22q10 24 2 37q-6 8 -24 15t-31 7
q-63 0 -117 -69q-38 -42 -62 -102t-24 -101z" />
    <glyph glyph-name="guillemotleft" unicode="&#xab;" horiz-adv-x="1386" 
d="M150 401q0 7 8 14.5t18 10.5q149 68 313 157t283 169q32 16 47 16q9 0 14 -7t-2 -24t-30 -39q-16 -16 -33.5 -31.5t-41 -33.5t-38 -30t-45 -33.5t-42 -30t-48 -33t-43 -29t-48 -32t-44.5 -29.5q-13 -8 -17.5 -19t2.5 -20q11 -13 58 -68t70 -83t51.5 -67t38.5 -61
q8 -12 7 -35t-16 -24q-21 0 -41 20q-60 60 -186 159.5t-215 158.5q-20 16 -20 24zM621 403q0 13 24 23q139 60 307 153.5t289 172.5q40 16 47 16q9 0 14 -6t-1 -22.5t-29 -37.5q-24 -24 -57 -51t-56 -45.5t-71 -52t-64 -44.5t-74.5 -50l-64.5 -43q-29 -19 -17 -37
q4 -5 48 -54t58 -65.5t44.5 -53.5t46.5 -62t25 -46q7 -12 6 -35t-15 -24q-21 0 -39 20q-58 61 -182 158t-223 162q-16 12 -16 24z" />
    <glyph glyph-name="logicalnot" unicode="&#xac;" horiz-adv-x="1277" 
d="M184 715h940q27 0 27 -43v-561q0 -20 -39.5 -30.5t-75.5 -10.5q-12 0 -18 5.5t-6 24.5v441q0 10 -1.5 16.5t-6 12t-7.5 8t-11 7.5t-11 7h-778q-27 0 -34 5t-7 26q0 25 9 58.5t19 33.5z" />
    <glyph glyph-name="uni00AD" unicode="&#xad;" horiz-adv-x="679" 
d="M158 502q42 7 226 27t194 20q11 0 17.5 -12t4.5 -21q0 -27 -22.5 -72.5t-47.5 -48.5q-15 -2 -407 -41q-9 -1 -17 9t-8 18q0 26 24 72.5t36 48.5z" />
    <glyph glyph-name="registered" unicode="&#xae;" horiz-adv-x="495" 
d="M399 1032v107q0 21 -4 27.5t-16 11.5q-11 5 -13.5 9.5t1.5 7t10 3.5q61 6 100 6q43 0 68.5 -17t25.5 -46q0 -8 -2.5 -14.5t-6 -11t-8.5 -8t-8.5 -5.5t-8 -4t-5.5 -2q-4 -4 -2 -9q45 -80 66 -94q14 -7 14 -12q0 -10 -30 -10q-38 0 -56 30q-27 41 -39 62q-3 8 -18 8
q-10 0 -12 -1.5t-2 -6.5v-23q0 -24 4 -30t28 -15q7 -3 9 -7.5t-0.5 -7.5t-8.5 -3h-57h-51q-8 0 -10.5 6.5t6.5 9.5q15 8 20.5 15.5t5.5 23.5zM453 1169v-63q0 -6 2.5 -7t15.5 -1q23 0 32 9t9 28q0 18 -10.5 31.5t-28.5 13.5q-20 0 -20 -11zM473 1319q99 0 166.5 -67.5
t67.5 -166.5q0 -90 -65 -163.5t-173 -73.5q-98 0 -163.5 68.5t-65.5 168.5q0 94 67.5 164t165.5 70zM473 1280q-80 2 -134 -54t-54 -141q0 -83 54 -138.5t134 -55.5q82 0 134 55t52 139q0 83 -55 139t-131 56z" />
    <glyph glyph-name="macron" unicode="&#xaf;" 
d="M393 1161l408 10q8 0 14.5 -11.5t5.5 -33.5q-1 -30 -18 -57t-31 -27l-403 -4q-5 0 -11 12t-6 25q3 27 17 56.5t24 29.5z" />
    <glyph glyph-name="degree" unicode="&#xb0;" horiz-adv-x="614" 
d="M426 1303q99 0 168.5 -66t69.5 -178q0 -108 -73 -176t-173 -68q-102 0 -172 66.5t-70 177.5q0 104 75 174t175 70zM412 1223q-57 0 -96.5 -47t-39.5 -117q0 -74 44 -119t110 -45q55 0 93 45t38 119q0 71 -41.5 117.5t-107.5 46.5z" />
    <glyph glyph-name="plusminus" unicode="&#xb1;" horiz-adv-x="1277" 
d="M606 1116q0 11 41.5 21t67.5 10q21 0 25.5 -6.5t4.5 -34.5v-379q0 -17 4.5 -21t20.5 -4h389q19 0 25 -5t6 -19q0 -37 -10 -68.5t-19 -31.5h-391q-10 0 -17.5 -10.5t-7.5 -20.5v-377q0 -22 -39 -32.5t-75 -10.5q-12 0 -18.5 6t-6.5 25v385q0 24 -5.5 29.5t-25.5 5.5h-374
q-27 0 -34 4.5t-7 25.5q0 25 9 59.5t19 34.5h394q8 0 16 7t8 18v389zM1159 23q19 0 25 -5.5t6 -19.5q0 -37 -10 -68.5t-19 -31.5h-960q-27 0 -34 4.5t-7 25.5q0 25 9 60t19 35h971z" />
    <glyph glyph-name="two.superior" unicode="&#xb2;" horiz-adv-x="665" 
d="M623 1569q78 0 132 -51.5t54 -131.5q0 -62 -34.5 -113t-106.5 -104q-21 -16 -232 -159q-9 -8 -7 -11.5t11 -3.5q147 0 222 6q23 3 69 52q28 28 45 28q11 0 14 -16t-4 -31q-12 -20 -34 -60.5t-38 -68.5l-20 -35q-7 -12 -39 -12q-7 0 -133.5 2t-159.5 2l-112 -2
q-53 0 -53 29q0 6 12.5 20.5t21.5 20.5q176 121 244 180q158 129 158 238q0 53 -29 80.5t-74 27.5q-62 0 -135 -65q-23 -23 -39 -23q-6 0 -10 6.5t-4 11.5q0 24 31 60q13 16 28.5 31t47.5 39t77.5 38.5t96.5 14.5z" />
    <glyph glyph-name="three.superior" unicode="&#xb3;" horiz-adv-x="665" 
d="M621 1569q50 0 86.5 -15t54 -38t25.5 -44.5t8 -41.5q0 -26 -14.5 -49.5t-31 -38.5t-48.5 -32t-45 -22.5t-42 -17.5q-8 -2 -8.5 -8t8.5 -9q30 -9 52 -18.5t49.5 -27.5t42 -48t14.5 -69t-22 -76.5t-58.5 -65.5t-73.5 -48.5t-75 -35.5q-94 -35 -183 -35q-140 0 -129 136
q0 10 7.5 19t15.5 9t27 -16q3 -2 37.5 -30.5t61 -41t58.5 -12.5q55 0 99.5 49t44.5 115q0 58 -33.5 90.5t-75.5 32.5q-31 0 -59 -4q-27 -4 -27 14q0 7 11.5 20t31.5 21q22 12 51 25t51 24q93 52 93 137q0 32 -18 54t-56 22q-35 0 -69 -28.5t-58 -69.5q-6 -7 -15.5 -9
t-15.5 3q-7 7 -11.5 26t-4.5 29q0 21 20 41q37 32 97.5 58t126.5 26z" />
    <glyph glyph-name="acute" unicode="&#xb4;" 
d="M690 1282q23 33 53 33q20 0 40 -37t20 -61q-5 -32 -25 -54q-90 -103 -219 -219q-39 -39 -67 -37q-8 0 -12.5 8t-3 22t10.5 30q64 116 203 315z" />
    <glyph glyph-name="mu" unicode="&#xb5;" horiz-adv-x="972" 
d="M348 827q51 0 107 -45q7 -6 12 -32t2 -33q-6 -24 -47.5 -98.5t-77.5 -126.5q-18 -25 -42.5 -64.5t-49 -80.5t-27.5 -46q-23 -38 -18 -74q2 -23 17.5 -42t45.5 -19q60 0 154.5 84t148.5 162q18 26 37 73q69 206 111 297q8 20 33 38t37 18q85 0 124 -52q17 -24 -10 -96
q-29 -72 -111 -195.5t-137 -185.5q-33 -37 -30 -65q3 -51 31 -71.5t65 -20.5q102 0 195 106q9 9 18.5 1t9.5 -19q0 -32 -43 -111q-42 -71 -106.5 -120.5t-120.5 -49.5q-72 0 -97 60.5t-4 168.5q2 9 -3.5 12t-12.5 -3q-127 -133 -184 -177.5t-117 -44.5q-37 0 -68.5 50.5
t-39.5 85.5q-4 10 -11.5 5.5t-11.5 -12.5q-19 -45 -44 -142.5t-26 -164.5q-1 -35 12.5 -69t34.5 -59.5t34.5 -39t25.5 -22.5q6 -6 4.5 -21.5t-8.5 -25.5q-10 -15 -39.5 -43.5t-46.5 -38.5q-36 -23 -78 -23q-20 0 -43.5 25.5t-34.5 56.5q-9 32 3 114t42 179q25 84 121 356
q7 19 9.5 28.5t3.5 15t4.5 22t9.5 39.5q6 18 65 226t76 253q3 11 15 25t24 20q30 12 57 12z" />
    <glyph glyph-name="paragraph" unicode="&#xb6;" horiz-adv-x="1224" 
d="M203 682q0 80 20.5 153t55 128.5t71 95t76.5 69.5q165 124 453 138q296 14 426 14q24 0 34.5 -11t10.5 -24q0 -19 -17 -34t-39 -15q-5 0 -57.5 4t-71.5 4q-28 0 -42 -19.5t-29 -76.5q-280 -989 -324 -1149q-51 -173 -103.5 -269t-119.5 -149q-92 -73 -217 -73
q-116 0 -180 62t-64 151q0 94 57.5 153.5t128.5 59.5q57 0 86 -34.5t31 -80.5q2 -35 -26 -70t-62 -35q-9 0 -16.5 2t-11 3.5t-10.5 6t-9 5.5q-23 14 -31 14q-11 0 -24 -11.5t-13 -35.5q0 -46 49.5 -81.5t122.5 -35.5q53 0 98.5 26t75 62.5t55.5 88t39.5 90t27.5 81.5
q3 12 5 17q58 195 84 293q0 11 -4.5 18t-11.5 6q-14 -2 -76 -2q-109 0 -196.5 39.5t-141 105.5t-82 147t-28.5 169zM967 1200q-68 0 -129 -90q-61 -101 -127.5 -314.5t-73.5 -344.5q-4 -158 92 -158q20 0 31 8.5t18 32.5q10 28 55 190t100 365t75 272q4 16 -10 27.5
t-31 11.5z" />
    <glyph glyph-name="periodcentered" unicode="&#xb7;" horiz-adv-x="505" 
d="M260 543q63 0 96 -39t33 -107q0 -75 -48.5 -116t-107.5 -41t-95 39t-36 100q0 67 48 115.5t110 48.5z" />
    <glyph glyph-name="cedilla" unicode="&#xb8;" 
d="M397 35h64q-49 -43 -72 -66t-44 -55.5t-21 -60.5q0 -37 41 -103q24 -44 24 -94q0 -29 -31 -65.5t-75 -61.5q-62 -33 -107 -33q-49 0 -88 36t-39 81q0 18 7.5 31.5t15.5 13.5q15 0 41 -23q60 -57 108 -57q18 0 26.5 6.5t8.5 24.5q0 31 -53 110q-29 50 -29 78q0 8 1 15.5
t4 15t4.5 11.5t7 12t6.5 10t8 10.5t8 9.5q10 12 35.5 33.5t73 59.5t75.5 61z" />
    <glyph glyph-name="one.superior" unicode="&#xb9;" horiz-adv-x="665" 
d="M418 1481q0 9 14.5 17t32.5 11q195 27 274 60q7 4 15.5 -5.5t5.5 -17.5q-24 -57 -55 -153q-60 -178 -113 -373q-14 -52 -0.5 -72t59.5 -33q47 -11 47 -34q0 -11 -14.5 -18t-34.5 -7q-18 0 -91 3t-95 3q-46 0 -105 -3t-77 -3q-16 0 -33 7t-17 20q0 25 68 37
q41 7 59.5 22.5t36.5 52.5q30 54 101 275q37 109 49 160q3 16 -10 16q-60 6 -70 8q-17 2 -32 9t-15 18z" />
    <glyph glyph-name="ordmasculine" unicode="&#xba;" horiz-adv-x="649" 
d="M535 1114q46 0 82 -17.5t55 -45t28 -56t9 -55.5q0 -121 -72 -218.5t-162 -139.5q-73 -33 -143 -33q-72 0 -121 46.5t-49 121.5q0 90 50.5 181.5t121.5 143.5q45 33 90.5 52.5t110.5 19.5zM528 1061q-38 0 -82 -51q-46 -52 -90.5 -162t-44.5 -184q0 -58 39 -58q34 0 70 47
q43 50 94 166t51 187q0 55 -37 55z" />
    <glyph glyph-name="guillemotright" unicode="&#xbb;" horiz-adv-x="1427" 
d="M1253 406q0 -14 -26 -25q-142 -63 -306.5 -152.5t-289.5 -171.5q-24 -18 -47 -18q-9 0 -14 7t2 24t30 39q17 16 34.5 31.5t40.5 33t39 30.5t45 33.5t42 30t48 32.5t44 29.5t48 32.5t44 29q11 8 15 19t-3 20q-16 20 -58.5 70t-68 81.5t-53 69t-37.5 58.5q-8 13 -7 35.5
t16 23.5q22 0 40 -20q58 -58 184.5 -158t217.5 -160q20 -12 20 -24zM782 403q0 -11 -22 -22q-141 -61 -310 -153.5t-288 -170.5q-30 -18 -47 -18q-8 0 -13.5 6t0.5 22.5t29 38.5q24 23 56.5 50t56.5 45.5t71.5 51.5t64.5 45t74.5 50.5t65.5 44.5q29 18 15 35q-5 5 -27 30
t-30 34t-28.5 32.5t-30 35t-26.5 32t-26.5 33.5t-21 29.5t-19.5 29.5t-13 25q-7 13 -6 35.5t15 23.5q20 0 38 -20q57 -60 181 -156t225 -164q16 -12 16 -25z" />
    <glyph glyph-name="onequarter" unicode="&#xbc;" horiz-adv-x="1417" 
d="M330 1184q0 9 14.5 17t32.5 11q195 27 274 60q7 4 15.5 -5.5t5.5 -17.5q-29 -70 -56 -153q-55 -163 -112 -373q-14 -52 -0.5 -72t59.5 -33q47 -11 47 -34q0 -11 -14.5 -18t-34.5 -7q-18 0 -91 3t-95 3q-46 0 -105 -3t-77 -3q-16 0 -33 7t-17 20q0 25 68 37
q41 7 59.5 22.5t36.5 52.5q30 54 101 275q37 109 49 160q3 16 -11 16q-58 6 -69 8q-17 2 -32 9t-15 18zM1321 1303q12 0 23 -8t16 -17.5t2 -13.5q-454 -552 -1094 -1317q-13 -19 -28 -19q-14 0 -28.5 24.5t-4.5 37.5q571 679 1073 1288q22 25 41 25zM1311 707q6 0 12 -10.5
t2 -22.5q-1 -4 -21.5 -74.5t-47.5 -164t-35 -122.5q-6 -12 10 -12l98 6q4 0 7 -9t3 -15q-2 -16 -13.5 -34.5t-25.5 -21.5q-11 0 -92 -6q-14 0 -18 -12q-53 -186 -55 -191q-3 -10 -12.5 -19.5t-18.5 -12.5q-19 -6 -67.5 -12.5t-63.5 -6.5q-9 0 -17.5 9.5t-3.5 25.5
q1 3 11.5 38t24.5 77.5t26 75.5q2 5 1 11.5t-5 6.5t-130.5 -6t-140.5 -6q-15 0 -19 13t-1 21q6 9 49 52q21 19 344 301q42 36 43 37q2 1 14 10t20 14.5t22.5 15.5t26.5 16.5t25.5 13.5t25.5 10.5t22 3.5zM1049 301q6 15 32.5 92.5t46.5 130.5q1 3 0 5.5t-3 3t-3 -0.5
q-14 -13 -75.5 -66t-105.5 -93.5t-81 -79.5q-5 -6 -2 -10t8 -4l164 10q15 0 19 12z" />
    <glyph glyph-name="onehalf" unicode="&#xbd;" horiz-adv-x="1501" 
d="M330 1184q0 9 14.5 17t32.5 11q195 27 274 60q7 4 15.5 -5.5t5.5 -17.5q-29 -70 -56 -153q-55 -163 -112 -373q-14 -52 -0.5 -72t59.5 -33q47 -11 47 -34q0 -11 -14.5 -18t-34.5 -7q-18 0 -91 3t-95 3q-46 0 -105 -3t-77 -3q-16 0 -33 7t-17 20q0 25 68 37
q41 7 59.5 22.5t36.5 52.5q30 54 101 275q37 109 49 160q3 16 -11 16q-58 6 -69 8q-17 2 -32 9t-15 18zM1311 1303q12 0 23 -8t16 -17.5t2 -13.5q-454 -552 -1094 -1317q-13 -19 -29 -19q-14 0 -28 24.5t-4 37.5q571 679 1073 1288q22 25 41 25zM1200 707q78 0 132 -51.5
t54 -131.5q0 -62 -34.5 -113t-106.5 -104q-47 -35 -231 -160q-9 -7 -7 -10.5t11 -3.5q146 0 221 6q26 4 70 51q29 29 45 29q11 0 14 -16t-4 -31q-12 -20 -34 -60.5t-38 -68.5l-20 -35q-7 -12 -39 -12q-7 0 -133.5 2t-159.5 2l-113 -2q-53 0 -53 29q0 6 12.5 20.5t22.5 20.5
q176 121 244 180q157 128 157 237q0 53 -28.5 81t-73.5 28q-60 0 -135 -66q-22 -22 -39 -22q-6 0 -10 6.5t-4 11.5q0 26 30 60q13 16 28.5 31t47.5 39t77.5 38.5t96.5 14.5z" />
    <glyph glyph-name="threequarters" unicode="&#xbe;" horiz-adv-x="1406" 
d="M532 1272q50 0 86.5 -15t54.5 -38t26 -44.5t8 -41.5q0 -26 -14.5 -49.5t-31 -38.5t-48.5 -32t-45 -22.5t-42 -17.5q-8 -2 -8.5 -8t8.5 -9q30 -9 52 -18.5t49.5 -27.5t42 -48t14.5 -69t-22 -76.5t-58.5 -65.5t-73.5 -48.5t-75 -35.5q-94 -35 -183 -35q-140 0 -129 136
q0 10 7.5 19t15.5 9t27 -16q3 -2 37.5 -30.5t61 -41t58.5 -12.5q55 0 99.5 49t44.5 115q0 58 -33.5 90.5t-75.5 32.5q-31 0 -59 -4q-27 -4 -27 14q0 7 11.5 20t31.5 21q22 12 51 25t51 24q93 52 93 137q0 32 -18 54t-56 22q-35 0 -69 -28.5t-58 -69.5q-6 -7 -15.5 -9
t-15.5 3q-7 7 -11.5 26t-4.5 29q0 21 20 41q37 32 97 58t126 26zM1325 1303q12 0 23 -8t16 -17.5t2 -13.5q-454 -552 -1094 -1317q-13 -19 -28 -19q-14 0 -28.5 24.5t-4.5 37.5q571 679 1073 1288q22 25 41 25zM1300 707q6 0 12.5 -10.5t2.5 -22.5q-1 -3 -22 -75t-47 -162.5
t-36 -123.5q-2 -4 0.5 -8t10.5 -4l98 6q4 0 7 -9t3 -15q-2 -16 -13.5 -34.5t-25.5 -21.5q-11 0 -92 -6q-14 0 -18 -12q-50 -174 -56 -191q-3 -10 -12.5 -19.5t-17.5 -12.5q-19 -6 -67.5 -12.5t-63.5 -6.5q-9 0 -17.5 9.5t-3.5 25.5q1 3 11.5 38t24.5 77.5t26 75.5
q2 5 0.5 11.5t-5.5 6.5t-130 -6t-140 -6q-15 0 -19 13t-1 21q6 9 49 52q21 19 344 301q42 36 43 37t16.5 12.5t25 18t27.5 18t31 18t28.5 12t26.5 5.5zM1038 301q6 15 33 92.5t47 130.5q1 3 0 5.5t-3 3t-3 -0.5q-14 -13 -75.5 -66t-105.5 -93.5t-81 -79.5q-5 -6 -2 -10t8 -4
l164 10q14 0 18 12z" />
    <glyph glyph-name="questiondown" unicode="&#xbf;" horiz-adv-x="792" 
d="M254 -412q-52 0 -90 15.5t-96 58.5q-43 33 -76 98t-33 129q0 55 36 110.5t77 82.5q45 34 221 137q46 27 60 49t14 54q0 57 -50 133q-4 8 -3 16t11 12.5t31 -0.5q17 -3 44.5 -19t59.5 -44.5t54.5 -76.5t22.5 -103t-19.5 -89t-62.5 -71q-59 -51 -252 -154q-61 -30 -95 -66
t-34 -67q0 -46 23 -75t75 -29q40 0 70 23.5t47 54.5q22 33 39.5 43t44.5 10q36 0 63 -25.5t27 -68.5q0 -57 -63.5 -97.5t-145.5 -40.5zM467 582q-63 0 -96 38.5t-33 104.5q0 77 48.5 118.5t107.5 41.5q64 0 97.5 -38t33.5 -102q0 -66 -48.5 -114.5t-109.5 -48.5z" />
    <glyph glyph-name="Agrave" unicode="&#xc0;" horiz-adv-x="1341" 
d="M1286 1339q33 0 8 -75q-44 -130 -67 -226q-105 -490 -158 -794q-19 -107 -1 -143t95 -48q23 -3 38.5 -12.5t15.5 -22.5q0 -11 -20.5 -17.5t-45.5 -6.5q-34 0 -86.5 3t-91.5 3q-53 0 -164.5 -7t-151.5 -7q-58 0 -55 24q0 11 18 21t46 14q22 3 40.5 9t31 12.5t24 17.5
t18 18.5t13 20.5t8.5 18.5t6 18.5l4 12q43 140 78 320q7 28 -23 28q-33 0 -136 -6.5t-150 -13.5q-35 -6 -80 -54q-40 -42 -97 -113.5t-94 -129.5q-76 -123 62 -154q37 -11 37 -31q0 -11 -17 -18.5t-39 -7.5q-40 0 -110 4t-121 4q-46 0 -117 -5t-76 -5q-67 0 -67 30
q0 23 65 33q87 10 146 45t121 105q58 64 120 134.5t127.5 147.5t116.5 138t118.5 144t101 124t96 118.5t73.5 90.5q73 85 88 117q4 5 14.5 14.5t14.5 9.5q123 6 180 74q21 24 43 24zM637 580q21 0 115 5.5t137 10.5q4 0 13.5 10.5t12.5 18.5q16 41 84 360q10 60 8 63
q-1 1 -3 1q-11 0 -46 -35q-57 -57 -162 -191.5t-165 -218.5q-3 -6 -1 -15t7 -9zM1085 1686q25 6 74 -46q121 -127 166 -186q10 -13 16 -31.5t2 -27.5q-14 -27 -77 6q-194 109 -246 149q-35 28 -35 62q0 17 62 59q14 10 38 15z" />
    <glyph glyph-name="Aacute" unicode="&#xc1;" horiz-adv-x="1341" 
d="M1286 1339q33 0 8 -75q-44 -130 -67 -226q-105 -490 -158 -794q-19 -107 -1 -143t95 -48q23 -3 38.5 -12.5t15.5 -22.5q0 -11 -20.5 -17.5t-45.5 -6.5q-34 0 -86.5 3t-91.5 3q-53 0 -164.5 -7t-151.5 -7q-58 0 -55 24q0 11 18 21t46 14q22 3 40.5 9t31 12.5t24 17.5
t18 18.5t13 20.5t8.5 18.5t6 18.5l4 12q43 140 78 320q7 28 -23 28q-33 0 -136 -6.5t-150 -13.5q-35 -6 -80 -54q-40 -42 -97 -113.5t-94 -129.5q-76 -123 62 -154q37 -11 37 -31q0 -11 -17 -18.5t-39 -7.5q-40 0 -110 4t-121 4q-46 0 -117 -5t-76 -5q-67 0 -67 30
q0 23 65 33q87 10 146 45t121 105q58 64 120 134.5t127.5 147.5t116.5 138t118.5 144t101 124t96 118.5t73.5 90.5q73 85 88 117q4 5 14.5 14.5t14.5 9.5q123 6 180 74q21 24 43 24zM637 580q21 0 115 5.5t137 10.5q4 0 13.5 10.5t12.5 18.5q16 41 84 360q10 60 8 63
q-1 1 -3 1q-11 0 -46 -35q-57 -57 -162 -191.5t-165 -218.5q-3 -6 -1 -15t7 -9zM1565 1585q-3 -11 -17 -25t-32 -24q-53 -30 -159.5 -79t-166.5 -71q-60 -20 -76 -4q-8 4 0 25.5t29 40.5q138 120 289 217q14 8 31.5 11t25.5 -1q27 -6 54.5 -37.5t21.5 -52.5z" />
    <glyph glyph-name="Acircumflex" unicode="&#xc2;" horiz-adv-x="1341" 
d="M1286 1339q33 0 8 -75q-44 -130 -67 -226q-105 -490 -158 -794q-19 -107 -1 -143t95 -48q23 -3 38.5 -12.5t15.5 -22.5q0 -11 -20.5 -17.5t-45.5 -6.5q-34 0 -86.5 3t-91.5 3q-53 0 -164.5 -7t-151.5 -7q-58 0 -55 24q0 11 18 21t46 14q22 3 40.5 9t31 12.5t24 17.5
t18 18.5t13 20.5t8.5 18.5t6 18.5l4 12q43 140 78 320q7 28 -23 28q-33 0 -136 -6.5t-150 -13.5q-35 -6 -80 -54q-40 -42 -97 -113.5t-94 -129.5q-76 -123 62 -154q37 -11 37 -31q0 -11 -17 -18.5t-39 -7.5q-40 0 -110 4t-121 4q-46 0 -117 -5t-76 -5q-67 0 -67 30
q0 23 65 33q87 10 146 45t121 105q58 64 120 134.5t127.5 147.5t116.5 138t118.5 144t101 124t96 118.5t73.5 90.5q73 85 88 117q4 5 14.5 14.5t14.5 9.5q123 6 180 74q21 24 43 24zM637 580q21 0 115 5.5t137 10.5q4 0 13.5 10.5t12.5 18.5q16 41 84 360q10 60 8 63
q-1 1 -3 1q-11 0 -46 -35q-57 -57 -162 -191.5t-165 -218.5q-3 -6 -1 -15t7 -9zM1280 1618q22 0 49 -43q59 -95 127 -186q17 -26 12 -40t-22 -14q-21 0 -55 21q-102 63 -142 94q-5 6 -16 6t-16 -4q-45 -23 -228 -98q-51 -19 -67 -19q-27 0 -17 22q6 13 27 32
q20 15 121.5 85.5t144.5 102.5q55 41 82 41z" />
    <glyph glyph-name="Atilde" unicode="&#xc3;" horiz-adv-x="1341" 
d="M1286 1339q33 0 8 -75q-44 -130 -67 -226q-105 -490 -158 -794q-19 -107 -1 -143t95 -48q23 -3 38.5 -12.5t15.5 -22.5q0 -11 -20.5 -17.5t-45.5 -6.5q-34 0 -86.5 3t-91.5 3q-53 0 -164.5 -7t-151.5 -7q-58 0 -55 24q0 11 18 21t46 14q22 3 40.5 9t31 12.5t24 17.5
t18 18.5t13 20.5t8.5 18.5t6 18.5l4 12q43 140 78 320q7 28 -23 28q-33 0 -136 -6.5t-150 -13.5q-35 -6 -80 -54q-40 -42 -97 -113.5t-94 -129.5q-76 -123 62 -154q37 -11 37 -31q0 -11 -17 -18.5t-39 -7.5q-40 0 -110 4t-121 4q-46 0 -117 -5t-76 -5q-67 0 -67 30
q0 23 65 33q87 10 146 45t121 105q58 64 120 134.5t127.5 147.5t116.5 138t118.5 144t101 124t96 118.5t73.5 90.5q73 85 88 117q4 5 14.5 14.5t14.5 9.5q123 6 180 74q21 24 43 24zM637 580q21 0 115 5.5t137 10.5q4 0 13.5 10.5t12.5 18.5q16 41 84 360q10 60 8 63
q-1 1 -3 1q-11 0 -46 -35q-57 -57 -162 -191.5t-165 -218.5q-3 -6 -1 -15t7 -9zM967 1454q47 61 84 94q34 29 65 29q48 0 140 -8t116 -6q17 1 37.5 13.5t32.5 23.5t35 34q11 10 18 8q13 -3 25 -32q3 -16 -11 -37q-47 -56 -110 -115q-39 -31 -64 -31q-30 0 -139.5 10.5
t-126.5 8.5q-28 -3 -72 -64q-8 -14 -18 -14q-12 0 -23.5 13.5t-11.5 19.5q0 22 23 53z" />
    <glyph glyph-name="Adieresis" unicode="&#xc4;" horiz-adv-x="1341" 
d="M1286 1339q33 0 8 -75q-44 -130 -67 -226q-105 -490 -158 -794q-19 -107 -1 -143t95 -48q23 -3 38.5 -12.5t15.5 -22.5q0 -11 -20.5 -17.5t-45.5 -6.5q-34 0 -86.5 3t-91.5 3q-53 0 -164.5 -7t-151.5 -7q-58 0 -55 24q0 11 18 21t46 14q22 3 40.5 9t31 12.5t24 17.5
t18 18.5t13 20.5t8.5 18.5t6 18.5l4 12q43 140 78 320q7 28 -23 28q-33 0 -136 -6.5t-150 -13.5q-35 -6 -80 -54q-40 -42 -97 -113.5t-94 -129.5q-76 -123 62 -154q37 -11 37 -31q0 -11 -17 -18.5t-39 -7.5q-40 0 -110 4t-121 4q-46 0 -117 -5t-76 -5q-67 0 -67 30
q0 23 65 33q87 10 146 45t121 105q58 64 120 134.5t127.5 147.5t116.5 138t118.5 144t101 124t96 118.5t73.5 90.5q73 85 88 117q4 5 14.5 14.5t14.5 9.5q123 6 180 74q21 24 43 24zM637 580q21 0 115 5.5t137 10.5q4 0 13.5 10.5t12.5 18.5q16 41 84 360q10 60 8 63
q-1 1 -3 1q-11 0 -46 -35q-57 -57 -162 -191.5t-165 -218.5q-3 -6 -1 -15t7 -9zM1034 1599q41 0 64.5 -31.5t21.5 -72.5q-3 -48 -39 -81.5t-77 -33.5q-37 0 -63 26.5t-23 76.5q3 46 39 81t77 35zM1421 1599q41 0 64.5 -31.5t21.5 -72.5q-3 -51 -40 -83t-78 -32
q-36 0 -61.5 26.5t-24.5 76.5q3 48 39.5 82t78.5 34z" />
    <glyph glyph-name="Aring" unicode="&#xc5;" horiz-adv-x="1341" 
d="M1286 1339q33 0 8 -75q-44 -130 -67 -226q-105 -490 -158 -794q-19 -107 -1 -143t95 -48q23 -3 38.5 -12.5t15.5 -22.5q0 -11 -20.5 -17.5t-45.5 -6.5q-34 0 -86.5 3t-91.5 3q-53 0 -164.5 -7t-151.5 -7q-58 0 -55 24q0 11 18 21t46 14q22 3 40.5 9t31 12.5t24 17.5
t18 18.5t13 20.5t8.5 18.5t6 18.5l4 12q43 140 78 320q7 28 -23 28q-33 0 -136 -6.5t-150 -13.5q-35 -6 -80 -54q-40 -42 -97 -113.5t-94 -129.5q-76 -123 62 -154q37 -11 37 -31q0 -11 -17 -18.5t-39 -7.5q-40 0 -110 4t-121 4q-46 0 -117 -5t-76 -5q-67 0 -67 30
q0 23 65 33q87 10 146 45t121 105q58 64 120 134.5t127.5 147.5t116.5 138t118.5 144t101 124t96 118.5t73.5 90.5q73 85 88 117q4 5 14.5 14.5t14.5 9.5q123 6 180 74q21 24 43 24zM637 580q21 0 115 5.5t137 10.5q4 0 13.5 10.5t12.5 18.5q16 41 84 360q10 60 8 63
q-1 1 -3 1q-11 0 -46 -35q-57 -57 -162 -191.5t-165 -218.5q-3 -6 -1 -15t7 -9zM1247 1692q76 0 116 -52t30 -118q-8 -62 -58.5 -105t-126.5 -43q-75 0 -115.5 49.5t-31.5 116.5q8 65 57.5 108.5t128.5 43.5zM1237 1632q-34 0 -59 -26.5t-31 -67.5q-7 -45 13.5 -73.5
t53.5 -28.5q35 0 62.5 23.5t34.5 72.5q5 41 -17 70.5t-57 29.5z" />
    <glyph glyph-name="AE" unicode="&#xc6;" horiz-adv-x="1968" 
d="M1444 1296h125q315 0 370 23q9 3 16 -13t1 -28q-27 -49 -46.5 -120t-23.5 -109q-5 -39 -22 -39q-18 0 -30 15.5t-15 39.5q-8 77 -20.5 110t-43.5 42q-41 14 -221 14q-64 0 -96.5 -13t-46.5 -55q-69 -209 -142 -477q-7 -24 21 -24l219 8q31 1 54 3.5t41 9.5t28.5 10.5
t23 16.5t16.5 17.5t17 23.5t17 25q24 39 45 39q9 0 15 -8t5.5 -26.5t-12.5 -43.5q-21 -44 -49 -132.5t-41 -145.5q-5 -20 -16.5 -29.5t-20.5 -9.5q-10 0 -18.5 16t-8.5 39q0 58 -17.5 82.5t-58.5 24.5l-262 -4q-27 0 -37 -35q-18 -47 -52.5 -171.5t-39.5 -154.5
q-9 -31 -7.5 -67t15.5 -50q33 -39 265 -39q112 0 153.5 8t89.5 35q53 28 154 160q41 60 59 60q12 0 16.5 -15t-3.5 -47q-12 -41 -45 -116t-60 -113q-30 -41 -164 -41q-45 0 -344 4t-360 4q-69 0 -143.5 -3t-75.5 -3q-23 0 -36.5 8.5t-13.5 17.5q0 29 58 39q28 5 48.5 9.5
t38 12.5t29 13t23 19t17.5 22t15.5 29.5t15 35t16.5 44.5q61 174 94 293q2 7 -2.5 18.5t-16.5 11.5q-136 0 -321 -10q-22 -2 -58 -33q-88 -85 -167 -183t-113 -155q-31 -49 -17 -82.5t80 -50.5q45 -14 45 -35q0 -26 -57 -26q-28 0 -98.5 4t-128.5 4q-54 0 -123 -4t-76 -4
q-63 0 -63 26q0 25 65 37q160 27 268 150q779 881 861 975q26 37 -4 43q-8 2 -31.5 4.5t-56.5 6.5t-56 7q-15 2 -35 13t-20 22q0 16 15.5 20t49.5 4q4 0 102 -1t225.5 -2t203.5 -1zM1165 1169q4 16 -9 15q-13 -2 -32 -23q-89 -92 -232 -255t-200 -242q-6 -8 -4.5 -13t4 -7.5
t4.5 -2.5q14 0 141 6t144 6q11 0 21.5 10t13.5 23q1 8 72 233t77 250z" />
    <glyph glyph-name="Ccedilla" unicode="&#xc7;" horiz-adv-x="1345" 
d="M729 -33q-41 -41 -62.5 -71.5t-21.5 -61.5q0 -23 8.5 -43t32.5 -59q29 -50 29 -99q0 -28 -33 -64.5t-78 -62.5q-58 -32 -108 -32t-88.5 36.5t-38.5 83.5q0 16 6.5 28.5t13.5 12.5q21 0 45 -24q61 -55 109 -55q20 0 27.5 6t7.5 24q0 37 -54 115q-28 48 -28 78q0 9 2 18
t4 15t7.5 14.5t7.5 11.5t10.5 13t9.5 12q5 7 13 14.5t20.5 18.5t21.5 19t28 24t29 24h-12q-64 3 -123.5 16t-127 48.5t-116.5 90t-81.5 148t-32.5 213.5q0 167 74.5 332.5t203.5 288.5q119 112 282 171.5t326 59.5q166 0 283 -53q28 -12 44.5 -11.5t41.5 13.5q38 19 45 12
q19 -28 4 -49q-34 -52 -66 -129.5t-42 -116.5q-15 -57 -35 -57q-14 0 -23 17t-6 42q9 65 0 104t-39 77q-32 44 -88 70t-106 26q-201 0 -400 -197q-111 -113 -173 -287.5t-62 -334.5q0 -94 22.5 -170t57 -121.5t80 -76.5t87 -42.5t81.5 -11.5q62 0 132 35.5t117 74.5
q118 103 162 154q27 27 43 27q21 0 6 -56q-14 -50 -166 -278q-24 -32 -49 -10q-40 34 -98 22q-2 0 -62.5 -15.5t-103.5 -21.5z" />
    <glyph glyph-name="Egrave" unicode="&#xc8;" horiz-adv-x="1239" 
d="M594 686l192 6q64 2 100.5 14t56.5 31t54 66q30 37 47 37q13 0 14 -26t-11 -52q-50 -101 -89 -270q-4 -22 -15 -37t-19 -15q-10 0 -18.5 15.5t-8.5 46.5q-1 60 -22 82t-62 22l-227 -6q-13 0 -29 -9.5t-22 -23.5q-24 -65 -82 -303q-16 -64 -16.5 -96t16.5 -64
q11 -20 27 -27.5t50 -10.5q114 -13 230 -13q32 0 72.5 13.5t68.5 31.5q40 22 87.5 68.5t90.5 105.5q23 28 35 39t23 11q21 0 10 -54q-11 -48 -43.5 -120t-59.5 -107q-32 -35 -49 -41q-27 -12 -123 -12q-44 0 -306.5 6t-323.5 6q-64 0 -151 -5t-111 -5q-28 0 -46 8t-18 20
q0 10 16 20t45 13q57 6 93 17t58 34t33.5 46.5t24.5 68.5q81 252 267 868q25 85 0.5 116t-127.5 48q-50 10 -50 33q0 10 20.5 16.5t51.5 6.5q19 0 109 -4.5t149 -4.5h193q225 0 315.5 4.5t138.5 16.5q9 3 14 -13t1 -22q-27 -48 -50 -127.5t-30 -122.5q-3 -16 -19 -16
q-14 0 -30 18t-17 45q-3 66 -18 97.5t-47 42.5q-38 14 -203 14q-40 0 -63.5 -8t-33 -17.5t-24.5 -33.5q-47 -75 -153 -461q-3 -9 2.5 -18t11.5 -9zM729 1679q26 6 74 -45q121 -127 166 -186q10 -13 16 -31.5t2 -27.5q-14 -27 -78 6q-190 107 -245 149q-35 28 -35 62
q0 18 61 59q12 9 39 14z" />
    <glyph glyph-name="Eacute" unicode="&#xc9;" horiz-adv-x="1239" 
d="M594 686l192 6q64 2 100.5 14t56.5 31t54 66q30 37 47 37q13 0 14 -26t-11 -52q-50 -101 -89 -270q-4 -22 -15 -37t-19 -15q-10 0 -18.5 15.5t-8.5 46.5q-1 60 -22 82t-62 22l-227 -6q-13 0 -29 -9.5t-22 -23.5q-24 -65 -82 -303q-16 -64 -16.5 -96t16.5 -64
q11 -20 27 -27.5t50 -10.5q114 -13 230 -13q32 0 72.5 13.5t68.5 31.5q40 22 87.5 68.5t90.5 105.5q23 28 35 39t23 11q21 0 10 -54q-11 -48 -43.5 -120t-59.5 -107q-32 -35 -49 -41q-27 -12 -123 -12q-44 0 -306.5 6t-323.5 6q-64 0 -151 -5t-111 -5q-28 0 -46 8t-18 20
q0 10 16 20t45 13q57 6 93 17t58 34t33.5 46.5t24.5 68.5q81 252 267 868q25 85 0.5 116t-127.5 48q-50 10 -50 33q0 10 20.5 16.5t51.5 6.5q19 0 109 -4.5t149 -4.5h193q225 0 315.5 4.5t138.5 16.5q9 3 14 -13t1 -22q-27 -48 -50 -127.5t-30 -122.5q-3 -16 -19 -16
q-14 0 -30 18t-17 45q-3 66 -18 97.5t-47 42.5q-38 14 -203 14q-40 0 -63.5 -8t-33 -17.5t-24.5 -33.5q-47 -75 -153 -461q-3 -9 2.5 -18t11.5 -9zM1182 1604q-8 -27 -49 -50q-52 -30 -158.5 -78t-167.5 -71q-60 -20 -76 -4q-8 4 0 25t29 40q138 120 289 217q14 8 31.5 11.5
t25.5 -0.5q27 -6 54.5 -37.5t21.5 -52.5z" />
    <glyph glyph-name="Ecircumflex" unicode="&#xca;" horiz-adv-x="1239" 
d="M594 686l192 6q64 2 100.5 14t56.5 31t54 66q30 37 47 37q13 0 14 -26t-11 -52q-50 -101 -89 -270q-4 -22 -15 -37t-19 -15q-10 0 -18.5 15.5t-8.5 46.5q-1 60 -22 82t-62 22l-227 -6q-13 0 -29 -9.5t-22 -23.5q-24 -65 -82 -303q-16 -64 -16.5 -96t16.5 -64
q11 -20 27 -27.5t50 -10.5q114 -13 230 -13q32 0 72.5 13.5t68.5 31.5q40 22 87.5 68.5t90.5 105.5q23 28 35 39t23 11q21 0 10 -54q-11 -48 -43.5 -120t-59.5 -107q-32 -35 -49 -41q-27 -12 -123 -12q-44 0 -306.5 6t-323.5 6q-64 0 -151 -5t-111 -5q-28 0 -46 8t-18 20
q0 10 16 20t45 13q57 6 93 17t58 34t33.5 46.5t24.5 68.5q81 252 267 868q25 85 0.5 116t-127.5 48q-50 10 -50 33q0 10 20.5 16.5t51.5 6.5q19 0 109 -4.5t149 -4.5h193q225 0 315.5 4.5t138.5 16.5q9 3 14 -13t1 -22q-27 -48 -50 -127.5t-30 -122.5q-3 -16 -19 -16
q-14 0 -30 18t-17 45q-3 66 -18 97.5t-47 42.5q-38 14 -203 14q-40 0 -63.5 -8t-33 -17.5t-24.5 -33.5q-47 -75 -153 -461q-3 -9 2.5 -18t11.5 -9zM932 1677q22 0 49 -43q59 -95 127 -186q17 -26 12 -39.5t-22 -13.5q-24 0 -56 20q-97 60 -141 94q-5 5 -16.5 5t-16.5 -3
q-50 -25 -227 -98q-49 -18 -68 -18q-28 0 -15 23q8 14 26 30q20 15 121.5 85.5t144.5 102.5q55 41 82 41z" />
    <glyph glyph-name="Edieresis" unicode="&#xcb;" horiz-adv-x="1239" 
d="M594 686l192 6q64 2 100.5 14t56.5 31t54 66q30 37 47 37q13 0 14 -26t-11 -52q-50 -101 -89 -270q-4 -22 -15 -37t-19 -15q-10 0 -18.5 15.5t-8.5 46.5q-1 60 -22 82t-62 22l-227 -6q-13 0 -29 -9.5t-22 -23.5q-24 -65 -82 -303q-16 -64 -16.5 -96t16.5 -64
q11 -20 27 -27.5t50 -10.5q114 -13 230 -13q32 0 72.5 13.5t68.5 31.5q40 22 87.5 68.5t90.5 105.5q23 28 35 39t23 11q21 0 10 -54q-11 -48 -43.5 -120t-59.5 -107q-32 -35 -49 -41q-27 -12 -123 -12q-44 0 -306.5 6t-323.5 6q-64 0 -151 -5t-111 -5q-28 0 -46 8t-18 20
q0 10 16 20t45 13q57 6 93 17t58 34t33.5 46.5t24.5 68.5q81 252 267 868q25 85 0.5 116t-127.5 48q-50 10 -50 33q0 10 20.5 16.5t51.5 6.5q19 0 109 -4.5t149 -4.5h193q225 0 315.5 4.5t138.5 16.5q9 3 14 -13t1 -22q-27 -48 -50 -127.5t-30 -122.5q-3 -16 -19 -16
q-14 0 -30 18t-17 45q-3 66 -18 97.5t-47 42.5q-38 14 -203 14q-40 0 -63.5 -8t-33 -17.5t-24.5 -33.5q-47 -75 -153 -461q-3 -9 2.5 -18t11.5 -9zM682 1649q41 0 64.5 -32t21.5 -73q-3 -48 -39 -81t-78 -33q-38 0 -63.5 26t-22.5 76q3 46 39.5 81.5t77.5 35.5zM1069 1649
q41 0 64.5 -32t21.5 -73q-3 -50 -40.5 -82t-78.5 -32q-36 0 -61.5 26t-24.5 76q3 48 40 82.5t79 34.5z" />
    <glyph glyph-name="Igrave" unicode="&#xcc;" horiz-adv-x="737" 
d="M301 1274q0 9 14.5 16.5t42.5 7.5q30 0 86 -1t91 -1q62 0 178.5 5.5t138.5 5.5q24 0 39.5 -7.5t15.5 -15.5q0 -15 -14 -24t-49 -15q-27 -5 -45 -10t-33.5 -15t-23.5 -16.5t-19 -26t-16.5 -31.5t-18.5 -44q-36 -88 -129 -431.5t-117 -453.5q-20 -91 -5.5 -120t91.5 -44
q25 -4 39.5 -13t14.5 -17q0 -29 -60 -29q-35 0 -97 3t-83 3q-65 0 -180 -7t-158 -7q-27 0 -41 7.5t-14 16.5q0 12 16 22t39 13q47 6 75.5 15t50 35t29.5 43.5t29 71.5q2 4 2.5 6t2 5t2.5 6q29 73 119.5 396t119.5 448q23 100 9.5 128t-89.5 42q-50 9 -53 33zM479 1688
q25 6 74 -46q121 -127 166 -186q10 -13 16 -31.5t2 -27.5q-14 -27 -78 6q-190 107 -245 149q-35 28 -35 62q0 18 61 59q14 10 39 15z" />
    <glyph glyph-name="Iacute" unicode="&#xcd;" horiz-adv-x="737" 
d="M301 1274q0 9 14.5 16.5t42.5 7.5q30 0 86 -1t91 -1q62 0 178.5 5.5t138.5 5.5q24 0 39.5 -7.5t15.5 -15.5q0 -15 -14 -24t-49 -15q-27 -5 -45 -10t-33.5 -15t-23.5 -16.5t-19 -26t-16.5 -31.5t-18.5 -44q-36 -88 -129 -431.5t-117 -453.5q-20 -91 -5.5 -120t91.5 -44
q25 -4 39.5 -13t14.5 -17q0 -29 -60 -29q-35 0 -97 3t-83 3q-65 0 -180 -7t-158 -7q-27 0 -41 7.5t-14 16.5q0 12 16 22t39 13q47 6 75.5 15t50 35t29.5 43.5t29 71.5q2 4 2.5 6t2 5t2.5 6q29 73 119.5 396t119.5 448q23 100 9.5 128t-89.5 42q-50 9 -53 33zM983 1604
q-8 -27 -49 -50q-52 -30 -158.5 -78t-167.5 -71q-60 -20 -76 -4q-8 4 0 25t29 40q138 120 289 217q14 8 31.5 11.5t25.5 -0.5q27 -6 54.5 -37.5t21.5 -52.5z" />
    <glyph glyph-name="Icircumflex" unicode="&#xce;" horiz-adv-x="737" 
d="M301 1274q0 9 14.5 16.5t42.5 7.5q30 0 86 -1t91 -1q62 0 178.5 5.5t138.5 5.5q24 0 39.5 -7.5t15.5 -15.5q0 -15 -14 -24t-49 -15q-27 -5 -45 -10t-33.5 -15t-23.5 -16.5t-19 -26t-16.5 -31.5t-18.5 -44q-36 -88 -129 -431.5t-117 -453.5q-20 -91 -5.5 -120t91.5 -44
q25 -4 39.5 -13t14.5 -17q0 -29 -60 -29q-35 0 -97 3t-83 3q-65 0 -180 -7t-158 -7q-27 0 -41 7.5t-14 16.5q0 12 16 22t39 13q47 6 75.5 15t50 35t29.5 43.5t29 71.5q2 4 2.5 6t2 5t2.5 6q29 73 119.5 396t119.5 448q23 100 9.5 128t-89.5 42q-50 9 -53 33zM715 1663
q22 0 49 -43q59 -95 127 -186q17 -26 12 -40t-22 -14q-22 0 -56 21q-97 60 -141 94q-6 5 -17 5t-16 -3q-50 -25 -227 -98q-51 -19 -68 -19q-26 0 -16 22q7 14 27 32q20 15 121.5 85.5t144.5 102.5q55 41 82 41z" />
    <glyph glyph-name="Idieresis" unicode="&#xcf;" horiz-adv-x="737" 
d="M301 1274q0 9 14.5 16.5t42.5 7.5q30 0 86 -1t91 -1q62 0 178.5 5.5t138.5 5.5q24 0 39.5 -7.5t15.5 -15.5q0 -15 -14 -24t-49 -15q-27 -5 -45 -10t-33.5 -15t-23.5 -16.5t-19 -26t-16.5 -31.5t-18.5 -44q-36 -88 -129 -431.5t-117 -453.5q-20 -91 -5.5 -120t91.5 -44
q25 -4 39.5 -13t14.5 -17q0 -29 -60 -29q-35 0 -97 3t-83 3q-65 0 -180 -7t-158 -7q-27 0 -41 7.5t-14 16.5q0 12 16 22t39 13q47 6 75.5 15t50 35t29.5 43.5t29 71.5q2 4 2.5 6t2 5t2.5 6q29 73 119.5 396t119.5 448q23 100 9.5 128t-89.5 42q-50 9 -53 33zM473 1649
q41 0 64.5 -32t21.5 -73q-3 -48 -39 -81t-78 -33q-38 0 -63.5 26t-22.5 76q3 46 39.5 81.5t77.5 35.5zM860 1649q41 0 64.5 -32t21.5 -73q-3 -50 -40.5 -82t-78.5 -32q-36 0 -61.5 26t-24.5 76q3 48 40 82.5t79 34.5z" />
    <glyph glyph-name="Eth" unicode="&#xd0;" horiz-adv-x="1509" 
d="M840 1309q265 0 428 -129q100 -79 150 -193.5t50 -243.5q0 -103 -30.5 -202.5t-80.5 -177.5t-109 -138t-122 -98q-126 -74 -261.5 -106.5t-307.5 -32.5q-84 0 -186.5 6t-137.5 6q-46 0 -133 -4t-102 -4q-74 0 -74 26q0 28 68 37q45 4 71.5 11.5t53 28.5t45 58.5
t37.5 100.5q61 192 110 360q3 6 -1.5 13.5t-10.5 7.5l-150 -4q-19 19 -14 37q3 15 14.5 29t20.5 14l156 2q15 0 20 16q68 240 115 383q32 110 -37 123q-86 9 -107 10q-57 4 -57 25q0 30 68 30q19 0 86 -2t96 -2q22 0 145 6.5t187 6.5zM831 1249q-45 0 -61.5 -10t-32.5 -41
q-29 -56 -60 -149t-99 -316q-6 -18 8 -18l297 2q6 0 11.5 -6.5t4.5 -18.5q-2 -16 -12.5 -32.5t-26.5 -16.5l-297 -6q-7 0 -12.5 -8.5t-5.5 -16.5q-86 -291 -99 -424q-5 -39 3 -62t34 -38q25 -18 57 -30.5t52 -12.5q143 0 313 113q132 89 215.5 255t83.5 369q0 120 -37 225
t-102 156q-111 86 -234 86z" />
    <glyph glyph-name="Ntilde" unicode="&#xd1;" horiz-adv-x="1505" 
d="M252 1280q0 10 15.5 17.5t45.5 7.5q27 0 119 -4.5t139 -4.5q7 0 62 2t63 2q20 3 43 -67q41 -114 190 -490t179 -440q3 -8 12.5 -10t12.5 6q62 181 131.5 418.5t93.5 347.5q21 92 -1.5 128.5t-119.5 53.5q-24 3 -41.5 12t-17.5 21q0 23 57 23q31 0 85 -3.5t81 -3.5
q48 0 141 4.5t109 4.5q28 1 41.5 -6.5t13.5 -18.5q3 -20 -61 -33q-73 -12 -111.5 -51.5t-79.5 -148.5q-107 -284 -260 -797q-16 -62 -16 -80q0 -44 17 -69t71 -52q26 -12 26 -31q0 -7 -17 -16.5t-28 -9.5q-108 8 -139 8q-79 0 -115 -6q-35 0 -45 33q-19 72 -65 188
q-102 293 -262 705q-42 116 -62 147q-18 28 -33 -12q-41 -99 -120.5 -382t-98.5 -384q-12 -70 -13.5 -111t10.5 -67.5t34.5 -38.5t64.5 -21q66 -12 66 -35q0 -26 -66 -26q-22 0 -89 5t-109 5q-43 0 -120 -6t-103 -6q-68 0 -68 26q0 23 57 33q95 14 136 43.5t71 114.5
q62 179 159 480.5t118 379.5q18 72 10 104q-10 49 -62 62q-16 5 -100 18q-21 3 -36 12.5t-15 18.5zM803 1483q47 61 84 94q34 29 65 29q48 0 140 -8.5t116 -6.5q17 1 38 14t31.5 23t35.5 35q11 11 18 8q12 -3 25 -33q3 -16 -10 -36q-44 -53 -111 -115q-39 -31 -64 -31
q-30 0 -139.5 10.5t-126.5 8.5q-27 -3 -71 -64q-8 -14 -19 -14q-12 0 -23.5 13.5t-11.5 19.5q0 22 23 53z" />
    <glyph glyph-name="Ograve" unicode="&#xd2;" horiz-adv-x="1427" 
d="M956 1335q199 0 325 -140t126 -364q0 -139 -51.5 -287.5t-149.5 -279t-221 -203.5q-80 -49 -176.5 -75.5t-185.5 -26.5q-96 0 -185.5 30t-152.5 93q-57 55 -98.5 146.5t-41.5 222.5q0 116 41.5 249.5t128 267.5t201.5 222q81 65 200.5 105t239.5 40zM956 1278
q-125 0 -254 -129q-137 -134 -222 -371t-85 -454q0 -62 12.5 -114.5t39 -96t72 -68.5t106.5 -25q121 0 245 130q103 106 197 340.5t94 443.5q0 153 -51 248.5t-154 95.5zM885 1706q25 6 73 -45q121 -127 166 -186q10 -13 16.5 -32.5t2.5 -27.5q-14 -27 -78 6
q-189 106 -246 150q-35 28 -35 61q0 18 62 60q12 9 39 14z" />
    <glyph glyph-name="Oacute" unicode="&#xd3;" horiz-adv-x="1427" 
d="M956 1335q199 0 325 -140t126 -364q0 -139 -51.5 -287.5t-149.5 -279t-221 -203.5q-80 -49 -176.5 -75.5t-185.5 -26.5q-96 0 -185.5 30t-152.5 93q-57 55 -98.5 146.5t-41.5 222.5q0 116 41.5 249.5t128 267.5t201.5 222q81 65 200.5 105t239.5 40zM956 1278
q-125 0 -254 -129q-137 -134 -222 -371t-85 -454q0 -62 12.5 -114.5t39 -96t72 -68.5t106.5 -25q121 0 245 130q103 106 197 340.5t94 443.5q0 153 -51 248.5t-154 95.5zM1298 1620q-3 -11 -17 -25t-32 -24q-53 -30 -159 -79t-166 -71q-60 -20 -76 -4q-8 4 0 25.5t29 40.5
q141 122 288 217q14 8 32 11t26 -1q27 -6 54 -37.5t21 -52.5z" />
    <glyph glyph-name="Ocircumflex" unicode="&#xd4;" horiz-adv-x="1427" 
d="M956 1335q199 0 325 -140t126 -364q0 -139 -51.5 -287.5t-149.5 -279t-221 -203.5q-80 -49 -176.5 -75.5t-185.5 -26.5q-96 0 -185.5 30t-152.5 93q-57 55 -98.5 146.5t-41.5 222.5q0 116 41.5 249.5t128 267.5t201.5 222q81 65 200.5 105t239.5 40zM956 1278
q-125 0 -254 -129q-137 -134 -222 -371t-85 -454q0 -62 12.5 -114.5t39 -96t72 -68.5t106.5 -25q121 0 245 130q103 106 197 340.5t94 443.5q0 153 -51 248.5t-154 95.5zM1079 1681q22 0 49 -43q59 -95 127 -186q17 -26 12 -39.5t-22 -13.5q-23 0 -55 20q-97 60 -141 94
q-6 6 -17.5 6t-15.5 -3q-57 -28 -228 -99q-49 -18 -67 -18q-27 0 -16 22q6 13 26 31q20 15 121.5 85.5t144.5 102.5q55 41 82 41z" />
    <glyph glyph-name="Otilde" unicode="&#xd5;" horiz-adv-x="1427" 
d="M956 1335q199 0 325 -140t126 -364q0 -139 -51.5 -287.5t-149.5 -279t-221 -203.5q-80 -49 -176.5 -75.5t-185.5 -26.5q-96 0 -185.5 30t-152.5 93q-57 55 -98.5 146.5t-41.5 222.5q0 116 41.5 249.5t128 267.5t201.5 222q81 65 200.5 105t239.5 40zM956 1278
q-125 0 -254 -129q-137 -134 -222 -371t-85 -454q0 -62 12.5 -114.5t39 -96t72 -68.5t106.5 -25q121 0 245 130q103 106 197 340.5t94 443.5q0 153 -51 248.5t-154 95.5zM760 1501q47 61 84 94q34 29 65 29q48 0 140 -8t116 -6q17 1 37.5 13.5t32.5 23.5t35 34q11 11 18 9
q12 -3 25 -33q3 -17 -10 -37q-44 -53 -111 -115q-38 -30 -64 -30q-30 0 -139.5 10t-126.5 8q-28 -3 -71 -63q-9 -15 -19 -15q-12 0 -23.5 13.5t-11.5 19.5q0 22 23 53z" />
    <glyph glyph-name="Odieresis" unicode="&#xd6;" horiz-adv-x="1427" 
d="M956 1335q199 0 325 -140t126 -364q0 -139 -51.5 -287.5t-149.5 -279t-221 -203.5q-80 -49 -176.5 -75.5t-185.5 -26.5q-96 0 -185.5 30t-152.5 93q-57 55 -98.5 146.5t-41.5 222.5q0 116 41.5 249.5t128 267.5t201.5 222q81 65 200.5 105t239.5 40zM956 1278
q-125 0 -254 -129q-137 -134 -222 -371t-85 -454q0 -62 12.5 -114.5t39 -96t72 -68.5t106.5 -25q121 0 245 130q103 106 197 340.5t94 443.5q0 153 -51 248.5t-154 95.5zM842 1653q41 0 64.5 -32t21.5 -73q-3 -48 -39 -81t-78 -33q-38 0 -63.5 26t-22.5 76q3 46 39.5 81.5
t77.5 35.5zM1229 1653q41 0 64.5 -32t21.5 -73q-3 -50 -40.5 -82t-78.5 -32q-36 0 -61.5 26t-24.5 76q3 48 40 82.5t79 34.5z" />
    <glyph glyph-name="multiply" unicode="&#xd7;" horiz-adv-x="1277" 
d="M238 881q-15 12 49 86q12 15 23 14t32 -23l340 -337q20 -20 35 -5l342 355q13 13 22 13.5t17 -9.5q18 -18 29.5 -37t13 -30t-1.5 -17l-346 -356q-7 -8 -5 -20t9 -19l348 -349q17 -17 1.5 -47t-40.5 -53q-18 -17 -39 4l-362 361q-14 15 -22.5 14.5t-20.5 -14.5l-332 -332
q-20 -22 -29.5 -24t-24.5 12q-18 18 -29.5 45.5t-4.5 36.5l344 346q15 19 0 34z" />
    <glyph glyph-name="Oslash" unicode="&#xd8;" horiz-adv-x="1427" 
d="M954 1335q121 0 226 -57q8 -4 20 8l57 74q23 29 37 29q22 0 35.5 -19.5t7.5 -28.5l-77 -104q-10 -14 6 -27q67 -67 104 -166t37 -217q0 -231 -115 -445.5t-299 -324.5q-80 -48 -179 -73t-191 -25q-135 0 -238 53q-14 5 -23 -4q-39 -53 -81 -110q-3 -2 -19 -1.5t-20 3.5
q-36 28 -21 49q12 18 37 51t37 51q7 14 -2 23q-69 74 -108.5 163.5t-39.5 221.5q0 192 98.5 395t272.5 336q82 65 200 105t238 40zM453 109q66 -89 170 -89q128 0 254 132q48 51 97 130.5t94 179t73 219.5t28 232q0 84 -16 150q-2 7 -8 7t-12 -9l-678 -928q-9 -14 -2 -24z
M958 1278q-128 0 -258 -127q-151 -143 -231 -363t-80 -446q0 -44 17 -115q2 -9 7 -11.5t11 5.5l676 922q17 25 8 37q-20 32 -35.5 49.5t-46 33t-68.5 15.5z" />
    <glyph glyph-name="Ugrave" unicode="&#xd9;" horiz-adv-x="1476" 
d="M258 1278q0 25 61 25q35 0 136 -3.5t129 -3.5q22 0 110.5 4.5t120.5 4.5q51 0 51 -23q0 -20 -57 -35q-61 -13 -85 -31t-46 -77q-45 -118 -174 -588q-71 -260 -15 -352q31 -51 106.5 -86t154.5 -35q150 0 236.5 66t135.5 192q46 110 125.5 361t98.5 343q10 45 14 73.5
t1 51t-9 34t-25 21t-38 13.5t-56 10q-55 10 -55 33q0 11 15 17.5t38 6.5q29 0 109 -2t110 -2q40 0 103 4.5t83 4.5q56 0 56 -25q2 -9 -15 -19t-45 -16q-75 -15 -106 -51.5t-82 -163.5q-84 -223 -217 -614q-77 -220 -150 -293q-90 -95 -192.5 -127.5t-235.5 -32.5
q-47 0 -96 8.5t-103 28t-101.5 58.5t-76.5 92q-64 117 -36 260q46 217 165 624q35 115 19.5 156.5t-103.5 54.5q-59 11 -59 33zM909 1688q25 6 74 -46q121 -127 166 -186q10 -13 16 -31.5t2 -27.5q-14 -27 -77 6q-194 109 -246 149q-35 28 -35 62q0 18 61 59q14 10 39 15z
" />
    <glyph glyph-name="Uacute" unicode="&#xda;" horiz-adv-x="1476" 
d="M258 1278q0 25 61 25q35 0 136 -3.5t129 -3.5q22 0 110.5 4.5t120.5 4.5q51 0 51 -23q0 -20 -57 -35q-61 -13 -85 -31t-46 -77q-45 -118 -174 -588q-71 -260 -15 -352q31 -51 106.5 -86t154.5 -35q150 0 236.5 66t135.5 192q46 110 125.5 361t98.5 343q10 45 14 73.5
t1 51t-9 34t-25 21t-38 13.5t-56 10q-55 10 -55 33q0 11 15 17.5t38 6.5q29 0 109 -2t110 -2q40 0 103 4.5t83 4.5q56 0 56 -25q2 -9 -15 -19t-45 -16q-75 -15 -106 -51.5t-82 -163.5q-84 -223 -217 -614q-77 -220 -150 -293q-90 -95 -192.5 -127.5t-235.5 -32.5
q-47 0 -96 8.5t-103 28t-101.5 58.5t-76.5 92q-64 117 -36 260q46 217 165 624q35 115 19.5 156.5t-103.5 54.5q-59 11 -59 33zM1380 1604q-8 -27 -49 -50q-52 -30 -158 -78t-167 -71q-60 -20 -76 -4q-8 4 -0.5 25t28.5 40q138 120 289 217q14 8 32 11.5t26 -0.5
q27 -6 54 -37.5t21 -52.5z" />
    <glyph glyph-name="Ucircumflex" unicode="&#xdb;" horiz-adv-x="1476" 
d="M258 1278q0 25 61 25q35 0 136 -3.5t129 -3.5q22 0 110.5 4.5t120.5 4.5q51 0 51 -23q0 -20 -57 -35q-61 -13 -85 -31t-46 -77q-45 -118 -174 -588q-71 -260 -15 -352q31 -51 106.5 -86t154.5 -35q150 0 236.5 66t135.5 192q46 110 125.5 361t98.5 343q10 45 14 73.5
t1 51t-9 34t-25 21t-38 13.5t-56 10q-55 10 -55 33q0 11 15 17.5t38 6.5q29 0 109 -2t110 -2q40 0 103 4.5t83 4.5q56 0 56 -25q2 -9 -15 -19t-45 -16q-75 -15 -106 -51.5t-82 -163.5q-84 -223 -217 -614q-77 -220 -150 -293q-90 -95 -192.5 -127.5t-235.5 -32.5
q-47 0 -96 8.5t-103 28t-101.5 58.5t-76.5 92q-64 117 -36 260q46 217 165 624q35 115 19.5 156.5t-103.5 54.5q-59 11 -59 33zM1130 1681q23 0 50 -43q59 -95 127 -186q16 -26 11 -39.5t-22 -13.5q-23 0 -55 20q-97 60 -141 94q-6 6 -17.5 6t-15.5 -3q-61 -31 -227 -99
q-49 -18 -68 -18q-27 0 -16 22q6 13 26 31q20 15 121.5 85.5t145.5 102.5q55 41 81 41z" />
    <glyph glyph-name="Udieresis" unicode="&#xdc;" horiz-adv-x="1476" 
d="M258 1278q0 25 61 25q35 0 136 -3.5t129 -3.5q22 0 110.5 4.5t120.5 4.5q51 0 51 -23q0 -20 -57 -35q-61 -13 -85 -31t-46 -77q-45 -118 -174 -588q-71 -260 -15 -352q31 -51 106.5 -86t154.5 -35q150 0 236.5 66t135.5 192q46 110 125.5 361t98.5 343q10 45 14 73.5
t1 51t-9 34t-25 21t-38 13.5t-56 10q-55 10 -55 33q0 11 15 17.5t38 6.5q29 0 109 -2t110 -2q40 0 103 4.5t83 4.5q56 0 56 -25q2 -9 -15 -19t-45 -16q-75 -15 -106 -51.5t-82 -163.5q-84 -223 -217 -614q-77 -220 -150 -293q-90 -95 -192.5 -127.5t-235.5 -32.5
q-47 0 -96 8.5t-103 28t-101.5 58.5t-76.5 92q-64 117 -36 260q46 217 165 624q35 115 19.5 156.5t-103.5 54.5q-59 11 -59 33zM872 1651q41 0 64.5 -32t21.5 -73q-3 -48 -38.5 -81t-77.5 -33q-38 0 -63.5 26t-22.5 76q3 46 39 81.5t77 35.5zM1260 1651q41 0 64.5 -32
t21.5 -73q-3 -50 -40.5 -82t-78.5 -32q-36 0 -61.5 26t-24.5 76q3 48 40 82.5t79 34.5z" />
    <glyph glyph-name="Yacute" unicode="&#xdd;" horiz-adv-x="1263" 
d="M219 1278q4 25 70 25q21 0 108 -3.5t127 -3.5q56 0 131.5 4.5t87.5 4.5q23 0 39.5 -7.5t16.5 -15.5q0 -25 -56 -35q-48 -10 -69 -25t-21 -34t4 -45q12 -73 49 -226.5t56 -195.5q9 -12 16 -2q66 69 184 213t156 205q17 28 20.5 48.5t-7 32.5t-27.5 19t-45 12q-37 9 -37 31
q0 10 19 16.5t46 6.5q9 0 69 -3.5t101 -3.5q27 0 106.5 4.5t92.5 4.5q55 0 55 -25q0 -20 -67 -35q-51 -9 -90.5 -29t-65.5 -41.5t-83 -75.5q-11 -10 -17 -16q-75 -70 -191 -201.5t-192 -226.5q-10 -13 -28 -46.5t-27 -67.5q-6 -19 -28 -93t-33.5 -115.5t-25.5 -93.5t-18 -77
q-10 -95 107 -111q24 -3 41.5 -12t17.5 -21t-20.5 -20t-49.5 -8q-17 0 -104.5 5t-138.5 5q-73 0 -168 -6t-127 -6q-28 0 -45 8t-17 18q0 21 60 33q100 14 145 49t78 135l82 246q41 123 33 191q-16 123 -101 391q-36 112 -67.5 145t-106.5 45q-45 7 -45 29zM1280 1610
q-3 -11 -17 -25t-32 -24q-53 -30 -159.5 -79t-166.5 -71q-60 -20 -76 -4q-8 4 0 25.5t29 40.5q138 120 289 217q14 8 31.5 11t25.5 -1q27 -6 54.5 -37.5t21.5 -52.5z" />
    <glyph glyph-name="Thorn" unicode="&#xde;" horiz-adv-x="1169" 
d="M328 1280q0 20 53 20q11 0 105.5 -2t119.5 -2q52 0 141.5 3.5t104.5 3.5q16 0 30.5 -8.5t14.5 -16.5q2 -10 -12.5 -18.5t-44.5 -12.5q-51 -7 -78 -25t-47.5 -59t-44.5 -129q-2 -6 3.5 -12t12.5 -6q8 0 26.5 1t30.5 1q91 0 168 -20.5t117 -49.5q66 -47 97.5 -112
t31.5 -134q0 -66 -20 -123.5t-48 -95.5t-67 -71t-67.5 -49.5t-59.5 -30.5q-118 -53 -274 -53q-29 0 -47.5 10.5t-18.5 25.5q0 10 10 14t43 11q132 25 214.5 126t82.5 239q0 124 -57 186.5t-150 62.5q-53 0 -65 -30q-9 -27 -93.5 -325t-101.5 -363q-11 -44 -12.5 -74
t3.5 -49.5t22 -31.5t36.5 -18.5t55.5 -13.5q49 -9 49 -33q0 -26 -62 -26q-18 0 -100 5t-147 5q-44 0 -150 -5t-137 -5q-57 0 -57 24q0 25 63 37q82 14 115 41t63 111q192 611 273 884q27 71 15 109t-79 49q-56 8 -61 35z" />
    <glyph glyph-name="germandbls" unicode="&#xdf;" horiz-adv-x="1034" 
d="M991 1444q62 0 110.5 -14t77 -35.5t47 -49.5t25 -52.5t6.5 -47.5q-2 -94 -104 -168q-19 -13 -79.5 -51.5t-86.5 -56.5q-111 -73 -148.5 -128.5t-39.5 -121.5q0 -29 71 -182q38 -84 51.5 -127.5t12.5 -92.5q-2 -54 -46 -121t-116 -118q-59 -45 -133.5 -78t-114.5 -33
q-56 0 -96.5 27t-40.5 76q0 25 22 54t54 50q11 5 23.5 2t17.5 -10q39 -38 84 -59t69 -21q45 0 73 28t28 66q1 15 -2 33.5t-6.5 32.5t-14 39t-15.5 36.5t-20 43t-20 41.5q-35 70 -46.5 96t-25 68.5t-12.5 74.5q3 83 58.5 146t219.5 167q91 57 145.5 124t55.5 135
q0 58 -42.5 103.5t-129.5 45.5q-143 0 -251.5 -128t-202.5 -419q-92 -289 -187 -762q-23 -115 -54 -201t-71 -145t-80 -98t-94 -74q-64 -43 -133 -70.5t-96 -27.5q-66 0 -115 28t-49 82q0 20 20.5 55t42.5 46q10 5 27.5 7.5t22.5 -1.5q37 -33 89 -64.5t83 -31.5q46 0 72 35
t50 139q4 16 19 78.5t43.5 182t58.5 249.5q74 323 154 541t197 362q114 139 255.5 217t286.5 78z" />
    <glyph glyph-name="agrave" unicode="&#xe0;" horiz-adv-x="958" 
d="M684 1354q26 0 39 -86q5 -37 9.5 -87.5t8.5 -113.5t7 -94q1 -23 -8.5 -42.5t-20.5 -19.5t-23.5 13.5t-15.5 25.5q-52 121 -88 258q-11 40 -6 62q11 28 42 56t56 28zM612 803q4 0 18.5 -4.5t35.5 -15t34 -23.5q3 -3 11.5 -0.5t9.5 8.5q30 50 35 59q3 6 17 12.5t22 6.5
q42 0 110 -37q3 -2 4.5 -15t-2.5 -24q-3 -8 -59 -150.5t-96.5 -250.5t-63.5 -181q-8 -26 4 -38.5t29 -12.5q30 0 78.5 34.5t89.5 80.5q12 12 21.5 8.5t9.5 -16.5q0 -25 -19 -56q-45 -76 -109 -128.5t-118.5 -72.5t-100.5 -20q-42 0 -70 23t-30 57q0 20 72 201q8 15 -3 23
q-6 4 -12 -3q-123 -136 -242 -218.5t-196 -82.5q-32 0 -70 26.5t-38 61.5q0 76 82 215q89 148 229 293.5t242 208.5q50 31 75 31zM578 670q-120 0 -209 -119q-56 -70 -100 -170.5t-44 -175.5q0 -34 13 -54t30 -20q25 0 70 32.5t100 96.5q50 55 110.5 150t94.5 172
q17 35 6 51q-16 16 -37.5 26.5t-33.5 10.5z" />
    <glyph glyph-name="aacute" unicode="&#xe1;" horiz-adv-x="958" 
d="M829 1282q23 33 54 33q20 0 39.5 -37t19.5 -61q-6 -33 -24 -54q-86 -99 -220 -219q-39 -39 -67 -37q-8 0 -12 8t-2.5 22t10.5 30q68 123 202 315zM612 803q4 0 18.5 -4.5t35.5 -15t34 -23.5q3 -3 11.5 -0.5t9.5 8.5q30 50 35 59q3 6 17 12.5t22 6.5q42 0 110 -37
q3 -2 4.5 -15t-2.5 -24q-3 -8 -59 -150.5t-96.5 -250.5t-63.5 -181q-8 -26 4 -38.5t29 -12.5q30 0 78.5 34.5t89.5 80.5q12 12 21.5 8.5t9.5 -16.5q0 -25 -19 -56q-45 -76 -109 -128.5t-118.5 -72.5t-100.5 -20q-42 0 -70 23t-30 57q0 20 72 201q8 15 -3 23q-6 4 -12 -3
q-123 -136 -242 -218.5t-196 -82.5q-32 0 -70 26.5t-38 61.5q0 76 82 215q89 148 229 293.5t242 208.5q50 31 75 31zM578 670q-120 0 -209 -119q-56 -70 -100 -170.5t-44 -175.5q0 -34 13 -54t30 -20q25 0 70 32.5t100 96.5q50 55 110.5 150t94.5 172q17 35 6 51
q-16 16 -37.5 26.5t-33.5 10.5z" />
    <glyph glyph-name="acircumflex" unicode="&#xe2;" horiz-adv-x="958" 
d="M815 1309q12 0 21.5 -19t11.5 -39q26 -218 33 -282q2 -21 -5.5 -40.5t-23.5 -19.5t-35 43q-42 123 -57 162q-5 14 -19 2q-7 -7 -38 -37t-50.5 -48.5t-47.5 -43.5t-48 -41q-31 -31 -68 -31q-10 0 -12.5 9t1.5 22.5t14 24.5q110 118 251 286q48 52 72 52zM612 803
q4 0 18.5 -4.5t35.5 -15t34 -23.5q3 -3 11.5 -0.5t9.5 8.5q30 50 35 59q3 6 17 12.5t22 6.5q42 0 110 -37q3 -2 4.5 -15t-2.5 -24q-3 -8 -59 -150.5t-96.5 -250.5t-63.5 -181q-8 -26 4 -38.5t29 -12.5q30 0 78.5 34.5t89.5 80.5q12 12 21.5 8.5t9.5 -16.5q0 -25 -19 -56
q-45 -76 -109 -128.5t-118.5 -72.5t-100.5 -20q-42 0 -70 23t-30 57q0 20 72 201q8 15 -3 23q-6 4 -12 -3q-123 -136 -242 -218.5t-196 -82.5q-32 0 -70 26.5t-38 61.5q0 76 82 215q89 148 229 293.5t242 208.5q50 31 75 31zM578 670q-120 0 -209 -119q-56 -70 -100 -170.5
t-44 -175.5q0 -34 13 -54t30 -20q25 0 70 32.5t100 96.5q50 55 110.5 150t94.5 172q17 35 6 51q-16 16 -37.5 26.5t-33.5 10.5z" />
    <glyph glyph-name="atilde" unicode="&#xe3;" horiz-adv-x="958" 
d="M602 1051q-22 0 -61 -50q-12 -12 -23 -12q-5 0 -21 16.5t-16 20.5q0 3 19.5 29t56.5 63.5t74 61.5q18 12 35 8q96 -23 153 -23q54 0 74 15q9 6 19 16t16.5 17.5t15 18t10.5 13.5q3 4 14 -2.5t21 -16.5t10 -16q0 -10 -8 -18q-17 -16 -75.5 -80t-63.5 -68q-16 -16 -31 -16
q-10 0 -88 11.5t-131 11.5zM612 803q4 0 18.5 -4.5t35.5 -15t34 -23.5q3 -3 11.5 -0.5t9.5 8.5q30 50 35 59q3 6 17 12.5t22 6.5q42 0 110 -37q3 -2 4.5 -15t-2.5 -24q-3 -8 -59 -150.5t-96.5 -250.5t-63.5 -181q-8 -26 4 -38.5t29 -12.5q30 0 78.5 34.5t89.5 80.5
q12 12 21.5 8.5t9.5 -16.5q0 -25 -19 -56q-45 -76 -109 -128.5t-118.5 -72.5t-100.5 -20q-42 0 -70 23t-30 57q0 20 72 201q8 15 -3 23q-6 4 -12 -3q-123 -136 -242 -218.5t-196 -82.5q-32 0 -70 26.5t-38 61.5q0 76 82 215q89 148 229 293.5t242 208.5q50 31 75 31z
M578 670q-120 0 -209 -119q-56 -70 -100 -170.5t-44 -175.5q0 -34 13 -54t30 -20q25 0 70 32.5t100 96.5q50 55 110.5 150t94.5 172q17 35 6 51q-16 16 -37.5 26.5t-33.5 10.5z" />
    <glyph glyph-name="adieresis" unicode="&#xe4;" horiz-adv-x="958" 
d="M580 1243q40 0 63 -28.5t23 -65.5q0 -46 -33.5 -83.5t-81.5 -37.5q-33 0 -56.5 28.5t-23.5 67.5q0 50 33.5 84.5t75.5 34.5zM922 1243q40 0 63 -28.5t23 -65.5q0 -44 -33 -82.5t-80 -38.5q-35 0 -58.5 28.5t-23.5 67.5q0 48 34.5 83.5t74.5 35.5zM612 803q4 0 18.5 -4.5
t35.5 -15t34 -23.5q3 -3 11.5 -0.5t9.5 8.5q30 50 35 59q3 6 17 12.5t22 6.5q42 0 110 -37q3 -2 4.5 -15t-2.5 -24q-3 -8 -59 -150.5t-96.5 -250.5t-63.5 -181q-8 -26 4 -38.5t29 -12.5q30 0 78.5 34.5t89.5 80.5q12 12 21.5 8.5t9.5 -16.5q0 -25 -19 -56
q-45 -76 -109 -128.5t-118.5 -72.5t-100.5 -20q-42 0 -70 23t-30 57q0 20 72 201q8 15 -3 23q-6 4 -12 -3q-123 -136 -242 -218.5t-196 -82.5q-32 0 -70 26.5t-38 61.5q0 76 82 215q89 148 229 293.5t242 208.5q50 31 75 31zM578 670q-120 0 -209 -119q-56 -70 -100 -170.5
t-44 -175.5q0 -34 13 -54t30 -20q25 0 70 32.5t100 96.5q50 55 110.5 150t94.5 172q17 35 6 51q-16 16 -37.5 26.5t-33.5 10.5z" />
    <glyph glyph-name="aring" unicode="&#xe5;" horiz-adv-x="958" 
d="M768 1284q72 0 112 -54t27 -120q-12 -66 -63 -111t-121 -45q-73 0 -113 52.5t-28 119.5q12 66 64 112t122 46zM760 1225q-35 0 -64 -30t-37 -73q-9 -46 13.5 -77t58.5 -31q83 0 103 106q8 40 -13.5 72.5t-60.5 32.5zM612 803q4 0 18.5 -4.5t35.5 -15t34 -23.5
q3 -3 11.5 -0.5t9.5 8.5q30 50 35 59q3 6 17 12.5t22 6.5q42 0 110 -37q3 -2 4.5 -15t-2.5 -24q-3 -8 -59 -150.5t-96.5 -250.5t-63.5 -181q-8 -26 4 -38.5t29 -12.5q30 0 78.5 34.5t89.5 80.5q12 12 21.5 8.5t9.5 -16.5q0 -25 -19 -56q-45 -76 -109 -128.5t-118.5 -72.5
t-100.5 -20q-42 0 -70 23t-30 57q0 20 72 201q8 15 -3 23q-6 4 -12 -3q-123 -136 -242 -218.5t-196 -82.5q-32 0 -70 26.5t-38 61.5q0 76 82 215q89 148 229 293.5t242 208.5q50 31 75 31zM578 670q-120 0 -209 -119q-56 -70 -100 -170.5t-44 -175.5q0 -34 13 -54t30 -20
q25 0 70 32.5t100 96.5q50 55 110.5 150t94.5 172q17 35 6 51q-16 16 -37.5 26.5t-33.5 10.5z" />
    <glyph glyph-name="ae" unicode="&#xe6;" horiz-adv-x="1013" 
d="M831 834q70 0 113 -44t43 -90q0 -50 -21 -94.5t-55.5 -78.5t-82 -65t-97.5 -57t-103 -52q-14 -6 -20 -9q-7 -3 -12 -25q-5 -31 -0.5 -69t14 -70t36 -54t65.5 -22q55 0 145 76q23 17 31 17q12 0 10 -23q0 -35 -52.5 -84t-130.5 -86t-141 -37q-36 0 -70.5 17.5t-65 62
t-38.5 107.5q0 6 -5.5 7.5t-8.5 -1.5q-74 -72 -168 -132.5t-160 -60.5q-31 0 -60.5 26.5t-29.5 74.5q0 68 47.5 151.5t123.5 162t159.5 147t167.5 122.5q32 18 110 74q144 109 256 109zM240 123q26 0 66 30.5t69 77.5q6 9 13 32t7 34q18 133 72 260q8 21 -2 24q-3 1 -8 -3
q-44 -32 -103 -95t-111.5 -149t-52.5 -148q0 -37 12.5 -50t37.5 -13zM791 772q-51 0 -113 -107.5t-76 -244.5q0 -8 3 -11.5t7 -0.5q78 35 151 128.5t73 159.5q0 76 -45 76z" />
    <glyph glyph-name="ccedilla" unicode="&#xe7;" horiz-adv-x="702" 
d="M362 119q102 0 211 104q8 8 17 10.5t15.5 -0.5t6.5 -10q0 -30 -26 -65q-48 -57 -113 -111q-88 -68 -127 -112t-39 -82q0 -35 39 -103q27 -49 27 -94q0 -28 -32 -64.5t-75 -62.5q-62 -33 -106 -33q-49 0 -88 36t-39 81q0 18 7 31.5t15 13.5q15 0 41 -23q60 -57 109 -57
q18 0 26.5 6.5t8.5 24.5q0 30 -54 110q-28 48 -28 78q0 8 1 15.5t4 15t4.5 11.5t7 12t6.5 10t8 10.5t8 9.5q11 12 137 109q-40 -13 -90 -13q-51 0 -89.5 22.5t-59 58t-30.5 72t-10 71.5q0 65 25.5 158t62.5 159q58 108 124.5 176.5t158.5 106.5q33 15 88 25t82 10
q54 0 94 -21q14 -5 25.5 -18t11.5 -29q0 -52 -32 -95.5t-56 -43.5q-23 0 -37 22q-3 6 -11 22.5t-11 22.5t-10.5 19t-11.5 18.5t-11.5 14t-13.5 11.5t-15 6t-18 3q-56 0 -127 -141q-43 -80 -73 -182.5t-30 -182.5q0 -46 8.5 -77t24 -44t29 -17.5t30.5 -4.5z" />
    <glyph glyph-name="egrave" unicode="&#xe8;" horiz-adv-x="768" 
d="M604 1348q26 0 39 -86q5 -37 9.5 -87.5t8.5 -113.5t7 -94q1 -23 -8.5 -42.5t-20.5 -19.5t-23.5 13.5t-15.5 25.5q-52 121 -88 258q-11 40 -6 62q11 28 42 56t56 28zM590 834q89 0 131.5 -44t42.5 -98q0 -129 -184 -217q-94 -46 -265 -86q-19 -5 -28 -33q-19 -59 -19 -123
q0 -57 28.5 -88.5t68.5 -31.5q98 0 217 102q3 3 12.5 10.5t14 10.5t11 6.5t11.5 3.5q6 0 10 -5t4 -10q0 -10 -9 -30t-18 -31q-68 -85 -169.5 -142t-208.5 -57q-59 0 -124 68t-65 170q0 105 61.5 238t147.5 223q76 76 166.5 120t163.5 44zM565 776q-65 0 -140.5 -98
t-107.5 -211q-2 -9 1.5 -16.5t11.5 -4.5q124 42 198 125.5t74 147.5q0 28 -10.5 42.5t-26.5 14.5z" />
    <glyph glyph-name="eacute" unicode="&#xe9;" horiz-adv-x="768" 
d="M729 1282q23 33 53 33q20 0 40 -37t20 -61q-5 -32 -25 -54q-90 -103 -219 -219q-39 -39 -68 -37q-8 0 -12 8t-2.5 22t10.5 30q64 116 203 315zM590 834q89 0 131.5 -44t42.5 -98q0 -129 -184 -217q-94 -46 -265 -86q-19 -5 -28 -33q-19 -59 -19 -123q0 -57 28.5 -88.5
t68.5 -31.5q98 0 217 102q3 3 12.5 10.5t14 10.5t11 6.5t11.5 3.5q6 0 10 -5t4 -10q0 -10 -9 -30t-18 -31q-68 -85 -169.5 -142t-208.5 -57q-59 0 -124 68t-65 170q0 105 61.5 238t147.5 223q76 76 166.5 120t163.5 44zM565 776q-65 0 -140.5 -98t-107.5 -211
q-2 -9 1.5 -16.5t11.5 -4.5q124 42 198 125.5t74 147.5q0 28 -10.5 42.5t-26.5 14.5z" />
    <glyph glyph-name="ecircumflex" unicode="&#xea;" horiz-adv-x="768" 
d="M700 1309q12 0 21.5 -19t11.5 -39q26 -218 33 -282q2 -21 -5.5 -40.5t-23.5 -19.5t-35 43q-42 123 -57 162q-4 13 -18 2q-144 -138 -185 -170q-31 -31 -67 -31q-10 0 -13 9t1 22.5t14 24.5q39 41 131.5 146.5t120.5 139.5q48 52 71 52zM590 834q89 0 131.5 -44t42.5 -98
q0 -129 -184 -217q-94 -46 -265 -86q-19 -5 -28 -33q-19 -59 -19 -123q0 -57 28.5 -88.5t68.5 -31.5q98 0 217 102q3 3 12.5 10.5t14 10.5t11 6.5t11.5 3.5q6 0 10 -5t4 -10q0 -10 -9 -30t-18 -31q-68 -85 -169.5 -142t-208.5 -57q-59 0 -124 68t-65 170q0 105 61.5 238
t147.5 223q76 76 166.5 120t163.5 44zM565 776q-65 0 -140.5 -98t-107.5 -211q-2 -9 1.5 -16.5t11.5 -4.5q124 42 198 125.5t74 147.5q0 28 -10.5 42.5t-26.5 14.5z" />
    <glyph glyph-name="edieresis" unicode="&#xeb;" horiz-adv-x="768" 
d="M442 1243q40 0 63 -28.5t23 -65.5q0 -46 -33 -83.5t-81 -37.5q-33 0 -56.5 28.5t-23.5 67.5q0 51 33 85t75 34zM784 1243q40 0 63 -28.5t23 -65.5q0 -44 -32.5 -82.5t-79.5 -38.5q-35 0 -58.5 28.5t-23.5 67.5q0 48 34 83.5t74 35.5zM590 834q89 0 131.5 -44t42.5 -98
q0 -129 -184 -217q-94 -46 -265 -86q-19 -5 -28 -33q-19 -59 -19 -123q0 -57 28.5 -88.5t68.5 -31.5q98 0 217 102q3 3 12.5 10.5t14 10.5t11 6.5t11.5 3.5q6 0 10 -5t4 -10q0 -10 -9 -30t-18 -31q-68 -85 -169.5 -142t-208.5 -57q-59 0 -124 68t-65 170q0 105 61.5 238
t147.5 223q76 76 166.5 120t163.5 44zM565 776q-65 0 -140.5 -98t-107.5 -211q-2 -9 1.5 -16.5t11.5 -4.5q124 42 198 125.5t74 147.5q0 28 -10.5 42.5t-26.5 14.5z" />
    <glyph glyph-name="igrave" unicode="&#xec;" horiz-adv-x="573" 
d="M430 1348q26 0 39 -86q5 -37 9.5 -87.5t8.5 -113.5t7 -94q1 -23 -8.5 -42.5t-20.5 -19.5t-23.5 13.5t-15.5 25.5q-52 121 -88 258q-11 40 -6 62q11 28 42 56t56 28zM461 829q14 0 31.5 -22.5t17.5 -36.5q0 -20 -23 -72q-49 -120 -111 -280.5t-95 -239.5q-4 -13 3 -22
t19 -9q18 0 67 33.5t97 79.5q32 25 43 25q4 0 9 -5t5 -10q0 -33 -37 -73q-68 -86 -190.5 -160t-187.5 -74q-24 0 -52 20t-28 40q0 14 8 34q15 36 97 232.5t134 326.5q5 14 0.5 25t-16.5 10q-58 -8 -135 -67q-7 -7 -18 -1.5t-11 13.5q0 19 25 51q44 48 159 115t189 67z" />
    <glyph glyph-name="iacute" unicode="&#xed;" horiz-adv-x="573" 
d="M586 1282q23 33 53 33q20 0 39.5 -37t19.5 -61q-6 -33 -24 -54q-90 -103 -219 -219q-39 -39 -68 -37q-8 0 -12 8t-2.5 22t10.5 30q64 116 203 315zM461 829q14 0 31.5 -22.5t17.5 -36.5q0 -20 -23 -72q-49 -120 -111 -280.5t-95 -239.5q-4 -13 3 -22t19 -9q18 0 67 33.5
t97 79.5q32 25 43 25q4 0 9 -5t5 -10q0 -33 -37 -73q-68 -86 -190.5 -160t-187.5 -74q-24 0 -52 20t-28 40q0 14 8 34q15 36 97 232.5t134 326.5q5 14 0.5 25t-16.5 10q-58 -8 -135 -67q-7 -7 -18 -1.5t-11 13.5q0 19 25 51q44 48 159 115t189 67z" />
    <glyph glyph-name="icircumflex" unicode="&#xee;" horiz-adv-x="573" 
d="M530 1309q12 0 21.5 -19t11.5 -39q26 -218 33 -282q2 -21 -5.5 -40.5t-23.5 -19.5t-35 43q-42 123 -57 162q-4 13 -18 2q-144 -138 -185 -170q-31 -31 -67 -31q-10 0 -13 9t1 22.5t14 24.5q39 41 131.5 146.5t120.5 139.5q48 52 71 52zM461 829q14 0 31.5 -22.5
t17.5 -36.5q0 -20 -23 -72q-49 -120 -111 -280.5t-95 -239.5q-4 -13 3 -22t19 -9q18 0 67 33.5t97 79.5q32 25 43 25q4 0 9 -5t5 -10q0 -33 -37 -73q-68 -86 -190.5 -160t-187.5 -74q-24 0 -52 20t-28 40q0 14 8 34q15 36 97 232.5t134 326.5q5 14 0.5 25t-16.5 10
q-58 -8 -135 -67q-7 -7 -18 -1.5t-11 13.5q0 19 25 51q44 48 159 115t189 67z" />
    <glyph glyph-name="idieresis" unicode="&#xef;" horiz-adv-x="573" 
d="M293 1243q40 0 63 -28.5t23 -65.5q0 -46 -33.5 -83.5t-81.5 -37.5q-33 0 -56.5 28.5t-23.5 67.5q0 50 33.5 84.5t75.5 34.5zM635 1243q40 0 63 -28.5t23 -65.5q0 -44 -33 -82.5t-80 -38.5q-35 0 -58.5 28.5t-23.5 67.5q0 48 34.5 83.5t74.5 35.5zM461 829
q14 0 31.5 -22.5t17.5 -36.5q0 -20 -23 -72q-49 -120 -111 -280.5t-95 -239.5q-4 -13 3 -22t19 -9q18 0 67 33.5t97 79.5q32 25 43 25q4 0 9 -5t5 -10q0 -33 -37 -73q-68 -86 -190.5 -160t-187.5 -74q-24 0 -52 20t-28 40q0 14 8 34q15 36 97 232.5t134 326.5q5 14 0.5 25
t-16.5 10q-58 -8 -135 -67q-7 -7 -18 -1.5t-11 13.5q0 19 25 51q44 48 159 115t189 67z" />
    <glyph glyph-name="eth" unicode="&#xf0;" horiz-adv-x="901" 
d="M588 838q31 0 47 -4q7 -1 10.5 3.5t3.5 12.5q0 19 -3.5 56t-10 79.5t-18 71t-25.5 22.5q-88 -37 -180 -78q-6 -6 -20 9.5t-17 23.5q0 25 28 37q9 4 35.5 15t48.5 20.5t45.5 20.5t36.5 19.5t11 12.5q-30 58 -63.5 106t-58.5 74.5t-46 45.5t-31 29t-8 16q0 9 12.5 16.5
t20.5 7.5q51 0 141 -72.5t149 -160.5q13 -17 19 -11q15 6 192 82q18 9 25 -6q16 -42 10 -49q0 -4 -4 -8t-8 -6l-4 -2q-8 -4 -34.5 -15.5t-47.5 -21t-44 -21t-34 -20t-8 -13.5q40 -90 65 -202.5t25 -214.5q0 -124 -33 -240t-87 -204.5t-121 -154.5t-138 -100
q-80 -42 -180 -45q-16 -2 -51 2q-77 13 -130 76t-53 160q0 69 25 156t88.5 190t153.5 174q140 111 266 111zM598 780q-21 0 -52.5 -19.5t-53.5 -41.5q-92 -94 -162 -260.5t-70 -341.5q0 -40 18 -63t44 -23q23 0 55.5 24.5t58.5 53.5q80 89 148.5 283t68.5 313q0 31 -16 53
t-39 22z" />
    <glyph glyph-name="ntilde" unicode="&#xf1;" horiz-adv-x="1071" 
d="M567 1044q-23 0 -61 -49q-12 -12 -23 -12q-5 0 -21 16.5t-16 20.5q0 3 19.5 29t56.5 63.5t74 61.5q18 12 35 8q96 -23 153 -23q54 0 74 15q9 6 19 16t16.5 17t16 19t10.5 13q3 4 14 -2.5t21 -16.5t10 -16q0 -9 -9 -18q-17 -16 -75.5 -80t-63.5 -68q-16 -16 -31 -16
q-10 0 -88 11t-131 11zM836 831q64 0 100.5 -39.5t36.5 -91.5q0 -59 -29 -131q-30 -81 -86 -206.5t-74 -157.5q-12 -28 -9 -41.5t18 -13.5q24 0 77.5 34t94.5 72q12 12 20.5 14.5t12 -3t3.5 -15.5q0 -28 -30 -68q-61 -83 -176.5 -151t-200.5 -68q-17 0 -40 13.5t-36 33.5
q-18 29 -2 62q27 52 139 286.5t127 276.5q29 90 -32 90q-35 0 -93.5 -51.5t-115.5 -132.5q-53 -75 -160.5 -252t-124.5 -203q-76 -125 -109 -125q-40 0 -70 27t-30 53q-2 37 47 147q19 42 62 134.5t80 175.5t63 151q16 33 -10 33q-11 0 -22.5 -3t-20.5 -6t-22 -11.5
t-20 -12.5t-21 -16t-18 -16t-19 -17.5t-17 -15.5q-15 -15 -29 -15q-4 -1 -9 7.5t-5 15.5q0 76 93 156.5t222 80.5q19 0 44 -14t32 -39q9 -23 -8 -65q-5 -13 -111 -254q-10 -23 2 -30q10 -5 21 15q44 67 122 159t124 130q122 98 209 98z" />
    <glyph glyph-name="ograve" unicode="&#xf2;" horiz-adv-x="907" 
d="M629 1348q26 0 39 -86q7 -50 15 -166t9 -129q1 -23 -8 -42.5t-20 -19.5t-23.5 13.5t-15.5 25.5q-52 121 -88 258q-12 42 -7 62q11 28 42.5 56t56.5 28zM598 834q74 0 130.5 -41.5t82 -98.5t25.5 -116q0 -96 -31 -188t-82.5 -164.5t-116 -128.5t-133.5 -87
q-95 -43 -190 -43q-88 0 -159 65.5t-71 184.5q0 102 67 250.5t177 243.5q64 56 143 89.5t158 33.5zM578 774q-47 0 -109 -74q-82 -99 -145.5 -268t-63.5 -319q0 -36 19.5 -61t48.5 -25q20 0 37 12t49 45q70 73 149.5 275t79.5 331q0 36 -16.5 60t-48.5 24z" />
    <glyph glyph-name="oacute" unicode="&#xf3;" horiz-adv-x="907" 
d="M756 1282q23 33 53 33q20 0 39.5 -37t19.5 -61q-6 -33 -24 -54q-90 -103 -219 -219q-39 -39 -68 -37q-8 0 -12 8t-2.5 22t10.5 30q64 116 203 315zM598 834q74 0 130.5 -41.5t82 -98.5t25.5 -116q0 -96 -31 -188t-82.5 -164.5t-116 -128.5t-133.5 -87q-95 -43 -190 -43
q-88 0 -159 65.5t-71 184.5q0 102 67 250.5t177 243.5q64 56 143 89.5t158 33.5zM578 774q-47 0 -109 -74q-82 -99 -145.5 -268t-63.5 -319q0 -36 19.5 -61t48.5 -25q20 0 37 12t49 45q70 73 149.5 275t79.5 331q0 36 -16.5 60t-48.5 24z" />
    <glyph glyph-name="ocircumflex" unicode="&#xf4;" horiz-adv-x="907" 
d="M731 1309q12 0 21.5 -19t11.5 -39q26 -218 33 -282q2 -21 -5.5 -40.5t-23.5 -19.5t-35 43q-42 123 -57 162q-5 14 -19 2q-7 -7 -38 -37t-50.5 -48.5t-47.5 -43.5t-48 -41q-31 -31 -67 -31q-10 0 -13 9t1 22.5t14 24.5q110 118 251 286q48 52 72 52zM598 834
q74 0 130.5 -41.5t82 -98.5t25.5 -116q0 -96 -31 -188t-82.5 -164.5t-116 -128.5t-133.5 -87q-95 -43 -190 -43q-88 0 -159 65.5t-71 184.5q0 102 67 250.5t177 243.5q64 56 143 89.5t158 33.5zM578 774q-47 0 -109 -74q-82 -99 -145.5 -268t-63.5 -319q0 -36 19.5 -61
t48.5 -25q20 0 37 12t49 45q70 73 149.5 275t79.5 331q0 36 -16.5 60t-48.5 24z" />
    <glyph glyph-name="otilde" unicode="&#xf5;" horiz-adv-x="907" 
d="M506 1051q-23 0 -62 -50q-12 -12 -22 -12q-5 0 -21 16.5t-16 20.5q0 3 19.5 29t56.5 63.5t74 61.5q18 12 34 8q96 -23 154 -23q54 0 74 15q9 6 19 16t16.5 17.5t15 18t10.5 13.5q3 4 14 -2.5t21 -16.5t10 -16q0 -10 -8 -18q-17 -16 -75.5 -80t-63.5 -68q-16 -16 -31 -16
q-10 0 -88 11.5t-131 11.5zM598 834q74 0 130.5 -41.5t82 -98.5t25.5 -116q0 -96 -31 -188t-82.5 -164.5t-116 -128.5t-133.5 -87q-95 -43 -190 -43q-88 0 -159 65.5t-71 184.5q0 102 67 250.5t177 243.5q64 56 143 89.5t158 33.5zM578 774q-47 0 -109 -74
q-82 -99 -145.5 -268t-63.5 -319q0 -36 19.5 -61t48.5 -25q20 0 37 12t49 45q70 73 149.5 275t79.5 331q0 36 -16.5 60t-48.5 24z" />
    <glyph glyph-name="odieresis" unicode="&#xf6;" horiz-adv-x="907" 
d="M504 1243q40 0 63 -28.5t23 -65.5q0 -46 -33.5 -83.5t-81.5 -37.5q-33 0 -56.5 28.5t-23.5 67.5q0 50 33.5 84.5t75.5 34.5zM846 1243q40 0 63 -28.5t23 -65.5q0 -44 -33 -82.5t-80 -38.5q-35 0 -58.5 28.5t-23.5 67.5q0 48 34.5 83.5t74.5 35.5zM598 834
q74 0 130.5 -41.5t82 -98.5t25.5 -116q0 -96 -31 -188t-82.5 -164.5t-116 -128.5t-133.5 -87q-95 -43 -190 -43q-88 0 -159 65.5t-71 184.5q0 102 67 250.5t177 243.5q64 56 143 89.5t158 33.5zM578 774q-47 0 -109 -74q-82 -99 -145.5 -268t-63.5 -319q0 -36 19.5 -61
t48.5 -25q20 0 37 12t49 45q70 73 149.5 275t79.5 331q0 36 -16.5 60t-48.5 24z" />
    <glyph glyph-name="divide" unicode="&#xf7;" horiz-adv-x="1277" 
d="M676 299q49 0 82 -34.5t33 -78.5q0 -53 -32.5 -89t-82.5 -36t-82.5 36t-32.5 89q0 44 33 78.5t82 34.5zM676 733q-44 0 -77.5 34t-33.5 83q0 47 34 83t77 36q52 0 85.5 -35t33.5 -84q0 -50 -33 -83.5t-86 -33.5zM1163 582q19 0 25 -5.5t6 -19.5q0 -37 -9.5 -67.5
t-19.5 -30.5h-960q-27 0 -34 4.5t-7 25.5q0 23 9.5 58t19.5 35h970z" />
    <glyph glyph-name="oslash" unicode="&#xf8;" horiz-adv-x="917" 
d="M657 645q-145 -209 -387 -549q-12 -16 -4 -26q7 -14 26.5 -25.5t31.5 -11.5q34 0 59 12.5t57 46.5q80 85 149 248t79 293q2 17 -5 17q-3 0 -6 -5zM586 772q-59 0 -133 -78q-83 -100 -141.5 -230t-65.5 -274q-2 -7 1 -9.5t9 5.5q59 82 121 171t143 206.5t117 169.5
q5 5 5.5 11.5t-5.5 9.5q-21 18 -51 18zM602 836q39 0 86 -15q10 -3 19 6l28 41q20 23 41 23q13 0 22.5 -5t12 -11t0.5 -9l-49 -78q-11 -11 2 -20q82 -79 82 -188q0 -191 -107.5 -346t-255.5 -222q-95 -43 -194 -43q-37 0 -84 19q-9 5 -19 -8q-37 -53 -43 -60q-6 -9 -16 -6
q-20 10 -27.5 28.5t0.5 26.5q12 16 33 43q5 9 -4 23q-72 72 -72 194q0 104 64 246.5t174 237.5q143 123 307 123z" />
    <glyph glyph-name="ugrave" unicode="&#xf9;" horiz-adv-x="1038" 
d="M645 1348q26 0 39 -86q5 -37 9.5 -87.5t8.5 -113.5t7 -94q1 -23 -8.5 -42.5t-20.5 -19.5t-23.5 13.5t-15.5 25.5q-52 121 -88 258q-11 40 -6 62q11 28 42 56t56 28zM446 834q10 0 27.5 -15t26.5 -33q9 -22 -6 -53q-35 -72 -113 -267t-92 -245q-10 -41 -1.5 -60.5
t25.5 -19.5q49 0 141.5 96.5t178.5 239.5q54 90 166 295q11 21 32 41.5t39 20.5q34 0 65.5 -24t31.5 -40q0 -34 -19 -78q-148 -352 -190 -485q-4 -17 0.5 -29t15.5 -12q22 0 74.5 32.5t118.5 98.5q8 8 19.5 8.5t12.5 -10.5q0 -23 -12 -47q-29 -61 -100.5 -127t-153 -110
t-137.5 -44q-21 0 -42.5 25.5t-21.5 40.5q0 9 7 33q4 14 47 117t49 124q10 31 -1 32t-30 -22q-79 -97 -170.5 -175.5t-165.5 -125.5q-33 -21 -73.5 -35t-67.5 -14q-48 0 -72 31q-10 12 -12.5 39t8.5 61q16 45 87 219.5t124 298.5q18 43 -2 43q-14 0 -131 -75
q-10 -7 -21.5 -10.5t-19.5 -2t-8 8.5q0 11 16 38q29 52 150 134t200 82z" />
    <glyph glyph-name="uacute" unicode="&#xfa;" horiz-adv-x="1038" 
d="M811 1282q23 33 53 33q20 0 40 -37t20 -61q-5 -32 -25 -54q-90 -103 -219 -219q-39 -39 -68 -37q-8 0 -12 8t-2.5 22t10.5 30q64 116 203 315zM446 834q10 0 27.5 -15t26.5 -33q9 -22 -6 -53q-35 -72 -113 -267t-92 -245q-10 -41 -1.5 -60.5t25.5 -19.5q49 0 141.5 96.5
t178.5 239.5q54 90 166 295q11 21 32 41.5t39 20.5q34 0 65.5 -24t31.5 -40q0 -34 -19 -78q-148 -352 -190 -485q-4 -17 0.5 -29t15.5 -12q22 0 74.5 32.5t118.5 98.5q8 8 19.5 8.5t12.5 -10.5q0 -23 -12 -47q-29 -61 -100.5 -127t-153 -110t-137.5 -44q-21 0 -42.5 25.5
t-21.5 40.5q0 9 7 33q4 14 47 117t49 124q10 31 -1 32t-30 -22q-79 -97 -170.5 -175.5t-165.5 -125.5q-33 -21 -73.5 -35t-67.5 -14q-48 0 -72 31q-10 12 -12.5 39t8.5 61q16 45 87 219.5t124 298.5q18 43 -2 43q-14 0 -131 -75q-10 -7 -21.5 -10.5t-19.5 -2t-8 8.5
q0 11 16 38q29 52 150 134t200 82z" />
    <glyph glyph-name="ucircumflex" unicode="&#xfb;" horiz-adv-x="1038" 
d="M791 1309q12 0 21 -19t11 -39q26 -218 33 -282q2 -21 -5.5 -40.5t-23.5 -19.5q-15 0 -34 43q-35 103 -58 162q-4 13 -18 2q-144 -138 -185 -170q-31 -31 -67 -31q-10 0 -13 9t1 22.5t14 24.5q39 41 131.5 146.5t120.5 139.5q48 52 72 52zM446 834q10 0 27.5 -15t26.5 -33
q9 -22 -6 -53q-35 -72 -113 -267t-92 -245q-10 -41 -1.5 -60.5t25.5 -19.5q49 0 141.5 96.5t178.5 239.5q54 90 166 295q11 21 32 41.5t39 20.5q34 0 65.5 -24t31.5 -40q0 -34 -19 -78q-148 -352 -190 -485q-4 -17 0.5 -29t15.5 -12q22 0 74.5 32.5t118.5 98.5q8 8 19.5 8.5
t12.5 -10.5q0 -23 -12 -47q-29 -61 -100.5 -127t-153 -110t-137.5 -44q-21 0 -42.5 25.5t-21.5 40.5q0 9 7 33q4 14 47 117t49 124q10 31 -1 32t-30 -22q-79 -97 -170.5 -175.5t-165.5 -125.5q-33 -21 -73.5 -35t-67.5 -14q-48 0 -72 31q-10 12 -12.5 39t8.5 61
q16 45 87 219.5t124 298.5q18 43 -2 43q-14 0 -131 -75q-10 -7 -21.5 -10.5t-19.5 -2t-8 8.5q0 11 16 38q29 52 150 134t200 82z" />
    <glyph glyph-name="udieresis" unicode="&#xfc;" horiz-adv-x="1038" 
d="M528 1243q40 0 63 -28.5t23 -65.5q0 -46 -33 -83.5t-81 -37.5q-33 0 -56.5 28.5t-23.5 67.5q0 51 33 85t75 34zM870 1243q40 0 63 -28.5t23 -65.5q0 -44 -32.5 -82.5t-79.5 -38.5q-35 0 -58.5 28.5t-23.5 67.5q0 48 34 83.5t74 35.5zM446 834q10 0 27.5 -15t26.5 -33
q9 -22 -6 -53q-35 -72 -113 -267t-92 -245q-10 -41 -1.5 -60.5t25.5 -19.5q49 0 141.5 96.5t178.5 239.5q54 90 166 295q11 21 32 41.5t39 20.5q34 0 65.5 -24t31.5 -40q0 -34 -19 -78q-148 -352 -190 -485q-4 -17 0.5 -29t15.5 -12q22 0 74.5 32.5t118.5 98.5q8 8 19.5 8.5
t12.5 -10.5q0 -23 -12 -47q-29 -61 -100.5 -127t-153 -110t-137.5 -44q-21 0 -42.5 25.5t-21.5 40.5q0 9 7 33q4 14 47 117t49 124q10 31 -1 32t-30 -22q-79 -97 -170.5 -175.5t-165.5 -125.5q-33 -21 -73.5 -35t-67.5 -14q-48 0 -72 31q-10 12 -12.5 39t8.5 61
q16 45 87 219.5t124 298.5q18 43 -2 43q-14 0 -131 -75q-10 -7 -21.5 -10.5t-19.5 -2t-8 8.5q0 11 16 38q29 52 150 134t200 82z" />
    <glyph glyph-name="yacute" unicode="&#xfd;" horiz-adv-x="817" 
d="M678 1282q23 33 53 33q20 0 40 -37t20 -61q-5 -32 -25 -54q-90 -103 -219 -219q-39 -39 -68 -37q-8 0 -12 8t-2.5 22t10.5 30q64 116 203 315zM324 834q41 0 77.5 -59.5t44.5 -131.5q35 -289 13 -502q0 -12 7 -11q10 0 23 22q76 133 124.5 303t52.5 348q0 14 14.5 26.5
t24.5 12.5q28 0 59 -39t31 -60q0 -114 -76 -289.5t-160 -314.5q-96 -156 -225 -329q-137 -182 -250 -271q-118 -88 -227 -88q-38 0 -72.5 24.5t-34.5 65.5q0 45 37.5 87t62.5 42q24 0 29 -8q5 -4 31 -26.5t45 -33t37 -10.5q43 0 80.5 20t81.5 75q57 72 94 235t37 330
q0 278 -23 369q-18 71 -43 71q-33 0 -115 -145q-24 -43 -41 -43q-18 0 -22 43q-1 35 21.5 83.5t59 94t91 77.5t111.5 32z" />
    <glyph glyph-name="thorn" unicode="&#xfe;" horiz-adv-x="989" 
d="M150 438q79 254 249 787q9 27 11 43.5t-7 30t-17.5 20t-33.5 22.5q-10 5 -17 14t-7 13q0 10 15 22t34 17q20 5 141.5 22t149.5 17q7 0 13 -12.5t3 -18.5q-35 -70 -150 -379.5t-167 -470.5q-2 -4 1 -7t7 -3t6 4q91 121 197.5 198t199.5 77q73 0 121 -48q47 -54 47 -133
q0 -157 -120.5 -336t-274.5 -270q-67 -41 -138 -60.5t-114 -19.5q-38 0 -82 23q-5 1 -12.5 -6t-7.5 -9q-12 -39 -31 -97.5t-28.5 -89t-19.5 -68t-16 -66.5q-9 -49 12 -71t85 -34q29 -7 40 -14.5t11 -19.5q1 -12 -16.5 -20.5t-43.5 -8.5q-30 0 -83 1t-82 1q-62 0 -153 -7
t-108 -7q-55 0 -55 22q0 24 58 37q58 16 81.5 41t42.5 80q7 24 58 177l113 339t88 268zM684 735q-34 0 -71.5 -22.5t-74.5 -64t-67 -82.5t-65 -95q-68 -107 -106 -206t-38 -140q0 -36 20.5 -63t47.5 -27q20 0 56 21t71 55q95 97 188.5 283t93.5 280q0 24 -15 42.5t-40 18.5z
" />
    <glyph glyph-name="ydieresis" unicode="&#xff;" horiz-adv-x="817" 
d="M365 1243q40 0 63 -28.5t23 -65.5q0 -46 -33.5 -83.5t-81.5 -37.5q-33 0 -56.5 28.5t-23.5 67.5q0 50 33.5 84.5t75.5 34.5zM707 1243q40 0 63 -28.5t23 -65.5q0 -44 -33 -82.5t-80 -38.5q-35 0 -58.5 28.5t-23.5 67.5q0 48 34.5 83.5t74.5 35.5zM324 834
q41 0 77.5 -59.5t44.5 -131.5q35 -289 13 -502q0 -12 7 -11q10 0 23 22q76 133 124.5 303t52.5 348q0 14 14.5 26.5t24.5 12.5q28 0 59 -39t31 -60q0 -114 -76 -289.5t-160 -314.5q-96 -156 -225 -329q-137 -182 -250 -271q-118 -88 -227 -88q-38 0 -72.5 24.5t-34.5 65.5
q0 45 37.5 87t62.5 42q24 0 29 -8q5 -4 31 -26.5t45 -33t37 -10.5q43 0 80.5 20t81.5 75q57 72 94 235t37 330q0 278 -23 369q-18 71 -43 71q-33 0 -115 -145q-24 -43 -41 -43q-18 0 -22 43q-1 35 21.5 83.5t59 94t91 77.5t111.5 32z" />
    <glyph glyph-name="Amacron" unicode="&#x100;" horiz-adv-x="1341" 
d="M1286 1339q33 0 8 -75q-44 -130 -67 -226q-105 -490 -158 -794q-19 -107 -1 -143t95 -48q23 -3 38.5 -12.5t15.5 -22.5q0 -11 -20.5 -17.5t-45.5 -6.5q-34 0 -86.5 3t-91.5 3q-53 0 -164.5 -7t-151.5 -7q-58 0 -55 24q0 11 18 21t46 14q22 3 40.5 9t31 12.5t24 17.5
t18 18.5t13 20.5t8.5 18.5t6 18.5l4 12q43 140 78 320q7 28 -23 28q-33 0 -136 -6.5t-150 -13.5q-35 -6 -80 -54q-40 -42 -97 -113.5t-94 -129.5q-76 -123 62 -154q37 -11 37 -31q0 -11 -17 -18.5t-39 -7.5q-40 0 -110 4t-121 4q-46 0 -117 -5t-76 -5q-67 0 -67 30
q0 23 65 33q87 10 146 45t121 105q58 64 120 134.5t127.5 147.5t116.5 138t118.5 144t101 124t96 118.5t73.5 90.5q73 85 88 117q4 5 14.5 14.5t14.5 9.5q123 6 180 74q21 24 43 24zM637 580q21 0 115 5.5t137 10.5q4 0 13.5 10.5t12.5 18.5q16 41 84 360q10 60 8 63
q-1 1 -3 1q-11 0 -46 -35q-57 -57 -162 -191.5t-165 -218.5q-3 -6 -1 -15t7 -9zM1020 1542l444 10q7 0 12.5 -15.5t2.5 -31.5q-4 -29 -25 -63q-15 -21 -31 -21l-438 -4q-3 0 -10.5 10.5t-7.5 16.5q6 44 30 80q11 18 23 18z" />
    <glyph glyph-name="amacron" unicode="&#x101;" horiz-adv-x="958" 
d="M543 1161l407 10q8 0 15 -11.5t6 -33.5q-1 -30 -18 -57t-31 -27l-404 -4q-5 0 -10.5 12t-5.5 25q3 27 17 56.5t24 29.5zM612 803q4 0 18.5 -4.5t35.5 -15t34 -23.5q3 -3 11.5 -0.5t9.5 8.5q30 50 35 59q3 6 17 12.5t22 6.5q42 0 110 -37q3 -2 4.5 -15t-2.5 -24
q-3 -8 -59 -150.5t-96.5 -250.5t-63.5 -181q-8 -26 4 -38.5t29 -12.5q30 0 78.5 34.5t89.5 80.5q12 12 21.5 8.5t9.5 -16.5q0 -25 -19 -56q-45 -76 -109 -128.5t-118.5 -72.5t-100.5 -20q-42 0 -70 23t-30 57q0 20 72 201q8 15 -3 23q-6 4 -12 -3q-123 -136 -242 -218.5
t-196 -82.5q-32 0 -70 26.5t-38 61.5q0 76 82 215q89 148 229 293.5t242 208.5q50 31 75 31zM578 670q-120 0 -209 -119q-56 -70 -100 -170.5t-44 -175.5q0 -34 13 -54t30 -20q25 0 70 32.5t100 96.5q50 55 110.5 150t94.5 172q17 35 6 51q-16 16 -37.5 26.5t-33.5 10.5z
" />
    <glyph glyph-name="Abreve" unicode="&#x102;" horiz-adv-x="1341" 
d="M1286 1339q33 0 8 -75q-44 -130 -67 -226q-105 -490 -158 -794q-19 -107 -1 -143t95 -48q23 -3 38.5 -12.5t15.5 -22.5q0 -11 -20.5 -17.5t-45.5 -6.5q-34 0 -86.5 3t-91.5 3q-53 0 -164.5 -7t-151.5 -7q-58 0 -55 24q0 11 18 21t46 14q22 3 40.5 9t31 12.5t24 17.5
t18 18.5t13 20.5t8.5 18.5t6 18.5l4 12q43 140 78 320q7 28 -23 28q-33 0 -136 -6.5t-150 -13.5q-35 -6 -80 -54q-40 -42 -97 -113.5t-94 -129.5q-76 -123 62 -154q37 -11 37 -31q0 -11 -17 -18.5t-39 -7.5q-40 0 -110 4t-121 4q-46 0 -117 -5t-76 -5q-67 0 -67 30
q0 23 65 33q87 10 146 45t121 105q58 64 120 134.5t127.5 147.5t116.5 138t118.5 144t101 124t96 118.5t73.5 90.5q73 85 88 117q4 5 14.5 14.5t14.5 9.5q123 6 180 74q21 24 43 24zM637 580q21 0 115 5.5t137 10.5q4 0 13.5 10.5t12.5 18.5q16 41 84 360q10 60 8 63
q-1 1 -3 1q-11 0 -46 -35q-57 -57 -162 -191.5t-165 -218.5q-3 -6 -1 -15t7 -9zM1202 1403q-99 0 -148.5 63.5t-31.5 157.5q3 16 13.5 26.5t21.5 10.5q12 0 28 -49q13 -41 53 -63.5t97 -22.5q117 0 213 96q29 35 51 35q10 0 13 -15t-3 -32q-13 -34 -36.5 -67.5t-59.5 -66.5
t-91 -53t-120 -20z" />
    <glyph glyph-name="abreve" unicode="&#x103;" horiz-adv-x="958" 
d="M688 971q-84 0 -128.5 65t-14.5 181q6 21 16.5 32t20.5 11q22 0 26 -46q5 -58 32.5 -85t86.5 -27q41 0 91 28.5t91 86.5q30 43 52 43q12 0 13 -20.5t-5 -35.5q-12 -37 -34.5 -75t-56.5 -75t-83.5 -60t-106.5 -23zM612 803q4 0 18.5 -4.5t35.5 -15t34 -23.5
q3 -3 11.5 -0.5t9.5 8.5q30 50 35 59q3 6 17 12.5t22 6.5q42 0 110 -37q3 -2 4.5 -15t-2.5 -24q-3 -8 -59 -150.5t-96.5 -250.5t-63.5 -181q-8 -26 4 -38.5t29 -12.5q30 0 78.5 34.5t89.5 80.5q12 12 21.5 8.5t9.5 -16.5q0 -25 -19 -56q-45 -76 -109 -128.5t-118.5 -72.5
t-100.5 -20q-42 0 -70 23t-30 57q0 20 72 201q8 15 -3 23q-6 4 -12 -3q-123 -136 -242 -218.5t-196 -82.5q-32 0 -70 26.5t-38 61.5q0 76 82 215q89 148 229 293.5t242 208.5q50 31 75 31zM578 670q-120 0 -209 -119q-56 -70 -100 -170.5t-44 -175.5q0 -34 13 -54t30 -20
q25 0 70 32.5t100 96.5q50 55 110.5 150t94.5 172q17 35 6 51q-16 16 -37.5 26.5t-33.5 10.5z" />
    <glyph glyph-name="Aogonek" unicode="&#x104;" horiz-adv-x="1341" 
d="M1290 1339q29 0 4 -75q-45 -132 -65 -226q-83 -371 -160 -794q-19 -107 -0.5 -143t96.5 -48q23 -3 37.5 -12.5t14.5 -22.5q0 -11 -32 -17.5t-61 -6.5q-30 0 -78 3t-79 3q-226 -179 -226 -299q0 -37 22.5 -60.5t57.5 -23.5q53 0 127 43q11 7 16.5 2t2.5 -22
q-3 -12 -13 -31t-14 -23q-34 -46 -95.5 -77t-131.5 -31q-77 0 -115.5 44.5t-38.5 104.5q0 51 31.5 106.5t84.5 104.5t105 87.5t109 72.5q-43 -1 -120.5 -6.5t-111.5 -5.5q-58 0 -55 24q0 11 18 21t46 14q22 3 40.5 9t31 12.5t24 17.5t18 18.5t13 20.5t8.5 18.5t6 18.5l4 12
q43 140 78 320q7 28 -23 28t-132.5 -6t-151.5 -12q-35 -5 -90 -60q-93 -97 -183 -239q-76 -123 62 -154q37 -11 37 -31q0 -11 -17 -18.5t-39 -7.5q-40 0 -110 4t-121 4q-46 0 -117 -5t-76 -5q-67 0 -67 30q0 23 65 33q87 10 146 45t121 105q58 64 120 134.5t127.5 147.5
t116.5 138t118.5 144t101 124t96 118.5t73.5 90.5q73 85 88 117q4 5 14.5 14.5t14.5 9.5q129 6 184 74q21 24 43 24zM631 580q94 0 248 14q5 0 19 12t17 19q15 37 47 165.5t39 186.5q7 40 8.5 56t-3.5 22q-12 0 -43 -35q-60 -57 -169.5 -195t-168.5 -221q-3 -6 -1 -15t7 -9z
" />
    <glyph glyph-name="aogonek" unicode="&#x105;" horiz-adv-x="958" 
d="M719 12q-96 -74 -161.5 -158.5t-65.5 -152.5q0 -36 22 -59t57 -23q60 0 127 43q11 6 16.5 2t2.5 -20q-3 -12 -13 -32t-14 -24q-35 -45 -96.5 -76.5t-132.5 -31.5q-76 0 -114 44.5t-38 104.5q0 58 43 123.5t101.5 117.5t130.5 99q-8 -2 -25 -2q-36 0 -60 22t-24 52
q0 37 72 209q7 21 -1.5 23.5t-23.5 -13.5q-275 -293 -432 -293q-32 0 -67 27t-35 65q0 78 78 213q88 154 219.5 290t255.5 214q43 29 71 29q15 0 42 -10t42 -27q3 -5 12 -3t13 9q45 76 67 76q68 0 109 -33q19 -16 4 -53q-6 -16 -53.5 -137t-89.5 -232.5t-66 -183.5
q-25 -82 19 -82q32 0 81.5 34t86.5 73q7 8 15.5 11.5t14.5 -1t6 -17.5q0 -25 -18 -51q-67 -105 -178 -166zM569 672q-52 0 -106.5 -33t-97.5 -90q-53 -67 -96.5 -171.5t-43.5 -174.5t41 -70q49 0 170 127q53 52 110.5 140.5t94.5 174.5q19 45 10 64q-9 13 -35 23t-47 10z
" />
    <glyph glyph-name="Cacute" unicode="&#x106;" horiz-adv-x="1345" 
d="M156 479q0 164 74.5 331t203.5 290q119 112 282 171.5t324 59.5q87 0 165.5 -16t125.5 -37q28 -12 42.5 -11t39.5 15q22 11 30 12.5t13 -4.5q5 -5 9 -19t-3 -30q-70 -102 -116 -264q-12 -39 -27 -39q-14 0 -24 19t-7 40q10 70 1.5 107.5t-40.5 75.5q-35 45 -92.5 70.5
t-99.5 25.5q-83 0 -187 -43.5t-213 -153.5q-113 -113 -175 -287.5t-62 -334.5q0 -179 69 -277q103 -143 259 -143q43 0 116 30.5t125 67.5q2 2 21.5 18t26 22t25 21.5t28.5 25.5t25.5 24.5t28 28.5t23.5 28q25 25 35 25q20 0 6 -66q-8 -25 -50.5 -93.5t-73 -113.5t-44.5 -65
q-5 -7 -18.5 -13t-17.5 -2q-52 41 -109 29q-7 -1 -56 -13t-97 -20t-89 -8q-62 0 -123.5 13t-127.5 42t-121 85.5t-86 134.5q-39 89 -39 241zM1384 1632q-3 -11 -17 -25t-32 -24q-52 -30 -158 -78t-167 -71q-60 -20 -76 -4q-8 4 0 25t29 40q141 122 288 217q14 8 32 11t26 -1
q27 -6 54 -37.5t21 -52.5z" />
    <glyph glyph-name="cacute" unicode="&#x107;" horiz-adv-x="702" 
d="M713 1282q23 33 53 33q20 0 39.5 -37t19.5 -61q-6 -33 -24 -54q-90 -103 -219 -219q-39 -39 -68 -37q-8 0 -12 8t-2.5 22t10.5 30q64 116 203 315zM596 836q54 0 94 -21q14 -5 25.5 -18t11.5 -29q0 -52 -32 -95.5t-56 -43.5q-23 0 -37 22q-3 6 -11 22.5t-11 22.5
t-10.5 19t-11.5 18.5t-11.5 14t-13.5 11.5t-15 6t-18 3q-56 0 -127 -141q-43 -80 -73 -182.5t-30 -182.5q0 -46 8.5 -77t24 -44t29 -17.5t30.5 -4.5q102 0 211 104q8 8 17 10.5t15.5 -0.5t6.5 -10q0 -30 -26 -65q-147 -181 -342 -181q-51 0 -89.5 22.5t-59 58t-30.5 72
t-10 71.5q0 65 25.5 158t62.5 159q58 108 124.5 176.5t158.5 106.5q33 15 88 25t82 10z" />
    <glyph glyph-name="Ccircumflex" unicode="&#x108;" horiz-adv-x="1345" 
d="M156 479q0 164 74.5 331t203.5 290q119 112 282 171.5t324 59.5q87 0 165.5 -16t125.5 -37q28 -12 42.5 -11t39.5 15q22 11 30 12.5t13 -4.5q5 -5 9 -19t-3 -30q-70 -102 -116 -264q-12 -39 -27 -39q-14 0 -24 19t-7 40q10 70 1.5 107.5t-40.5 75.5q-35 45 -92.5 70.5
t-99.5 25.5q-83 0 -187 -43.5t-213 -153.5q-113 -113 -175 -287.5t-62 -334.5q0 -179 69 -277q103 -143 259 -143q43 0 116 30.5t125 67.5q2 2 21.5 18t26 22t25 21.5t28.5 25.5t25.5 24.5t28 28.5t23.5 28q25 25 35 25q20 0 6 -66q-8 -25 -50.5 -93.5t-73 -113.5t-44.5 -65
q-5 -7 -18.5 -13t-17.5 -2q-52 41 -109 29q-7 -1 -56 -13t-97 -20t-89 -8q-62 0 -123.5 13t-127.5 42t-121 85.5t-86 134.5q-39 89 -39 241zM1137 1688q22 0 49 -43q63 -101 127 -187q17 -26 12 -39.5t-22 -13.5q-24 0 -56 20q-91 56 -141 95q-6 6 -17 6t-16 -4
q-61 -31 -227 -99q-49 -18 -68 -18q-27 0 -16 22q6 13 26 31q20 15 122 86t145 103q55 41 82 41z" />
    <glyph glyph-name="ccircumflex" unicode="&#x109;" horiz-adv-x="702" 
d="M676 1309q12 0 21.5 -19t11.5 -39q16 -131 32 -282q2 -21 -5 -40.5t-23 -19.5t-35 43q-42 123 -57 162q-5 14 -19 2q-7 -7 -38 -37t-50.5 -48.5t-47.5 -43.5t-48 -41q-31 -31 -68 -31q-10 0 -13 9t1 22.5t14 24.5q39 41 131.5 146.5t120.5 139.5q48 52 72 52zM596 836
q54 0 94 -21q14 -5 25.5 -18t11.5 -29q0 -52 -32 -95.5t-56 -43.5q-23 0 -37 22q-3 6 -11 22.5t-11 22.5t-10.5 19t-11.5 18.5t-11.5 14t-13.5 11.5t-15 6t-18 3q-56 0 -127 -141q-43 -80 -73 -182.5t-30 -182.5q0 -46 8.5 -77t24 -44t29 -17.5t30.5 -4.5q102 0 211 104
q8 8 17 10.5t15.5 -0.5t6.5 -10q0 -30 -26 -65q-147 -181 -342 -181q-51 0 -89.5 22.5t-59 58t-30.5 72t-10 71.5q0 65 25.5 158t62.5 159q58 108 124.5 176.5t158.5 106.5q33 15 88 25t82 10z" />
    <glyph glyph-name="Cdotaccent" unicode="&#x10a;" horiz-adv-x="1345" 
d="M156 479q0 164 74.5 331t203.5 290q119 112 282 171.5t324 59.5q87 0 165.5 -16t125.5 -37q28 -12 42.5 -11t39.5 15q22 11 30 12.5t13 -4.5q5 -5 9 -19t-3 -30q-70 -102 -116 -264q-12 -39 -27 -39q-14 0 -24 19t-7 40q10 70 1.5 107.5t-40.5 75.5q-35 45 -92.5 70.5
t-99.5 25.5q-83 0 -187 -43.5t-213 -153.5q-113 -113 -175 -287.5t-62 -334.5q0 -179 69 -277q103 -143 259 -143q43 0 116 30.5t125 67.5q2 2 21.5 18t26 22t25 21.5t28.5 25.5t25.5 24.5t28 28.5t23.5 28q25 25 35 25q20 0 6 -66q-8 -25 -50.5 -93.5t-73 -113.5t-44.5 -65
q-5 -7 -18.5 -13t-17.5 -2q-52 41 -109 29q-7 -1 -56 -13t-97 -20t-89 -8q-62 0 -123.5 13t-127.5 42t-121 85.5t-86 134.5q-39 89 -39 241zM1118 1671q43 0 68.5 -35t23.5 -80q-3 -54 -43.5 -87t-85.5 -33q-44 0 -71.5 27t-26.5 83q3 50 45 87.5t90 37.5z" />
    <glyph glyph-name="cdotaccent" unicode="&#x10b;" horiz-adv-x="702" 
d="M610 1257q50 0 76.5 -31.5t26.5 -76.5q0 -52 -37.5 -93.5t-91.5 -41.5q-41 0 -68 32t-27 78q0 53 39 93t82 40zM596 836q54 0 94 -21q14 -5 25.5 -18t11.5 -29q0 -52 -32 -95.5t-56 -43.5q-23 0 -37 22q-3 6 -11 22.5t-11 22.5t-10.5 19t-11.5 18.5t-11.5 14t-13.5 11.5
t-15 6t-18 3q-56 0 -127 -141q-43 -80 -73 -182.5t-30 -182.5q0 -46 8.5 -77t24 -44t29 -17.5t30.5 -4.5q102 0 211 104q8 8 17 10.5t15.5 -0.5t6.5 -10q0 -30 -26 -65q-147 -181 -342 -181q-51 0 -89.5 22.5t-59 58t-30.5 72t-10 71.5q0 65 25.5 158t62.5 159
q58 108 124.5 176.5t158.5 106.5q33 15 88 25t82 10z" />
    <glyph glyph-name="Ccaron" unicode="&#x10c;" horiz-adv-x="1345" 
d="M156 479q0 164 74.5 331t203.5 290q119 112 282 171.5t324 59.5q87 0 165.5 -16t125.5 -37q28 -12 42.5 -11t39.5 15q22 11 30 12.5t13 -4.5q5 -5 9 -19t-3 -30q-70 -102 -116 -264q-12 -39 -27 -39q-14 0 -24 19t-7 40q10 70 1.5 107.5t-40.5 75.5q-35 45 -92.5 70.5
t-99.5 25.5q-83 0 -187 -43.5t-213 -153.5q-113 -113 -175 -287.5t-62 -334.5q0 -179 69 -277q103 -143 259 -143q43 0 116 30.5t125 67.5q2 2 21.5 18t26 22t25 21.5t28.5 25.5t25.5 24.5t28 28.5t23.5 28q25 25 35 25q20 0 6 -66q-8 -25 -50.5 -93.5t-73 -113.5t-44.5 -65
q-5 -7 -18.5 -13t-17.5 -2q-52 41 -109 29q-7 -1 -56 -13t-97 -20t-89 -8q-62 0 -123.5 13t-127.5 42t-121 85.5t-86 134.5q-39 89 -39 241zM1051 1407q-9 0 -25 16t-25 31q-11 21 -31 50t-48.5 67.5t-44.5 62.5q-17 26 -13 39t21 13q31 0 61 -19q110 -74 137 -92
q6 -4 17.5 -4.5t15.5 2.5q30 16 227 98q34 15 64 15q16 0 15 -14q0 -15 -27 -38q-14 -11 -112 -78.5t-144 -105.5q-65 -43 -88 -43z" />
    <glyph glyph-name="ccaron" unicode="&#x10d;" horiz-adv-x="702" 
d="M516 905q-22 0 -33 56q-30 208 -39 294q-2 20 6.5 38t24.5 18q7 0 18 -15.5t19 -35.5q10 -26 29.5 -81.5t29.5 -80.5q5 -15 21 -2q12 11 82 78t102 94q42 37 74 37q8 0 9 -10.5t-4 -26t-15 -27.5q-32 -36 -138 -156.5t-114 -128.5q-46 -51 -72 -51zM596 836q54 0 94 -21
q14 -5 25.5 -18t11.5 -29q0 -52 -32 -95.5t-56 -43.5q-23 0 -37 22q-3 6 -11 22.5t-11 22.5t-10.5 19t-11.5 18.5t-11.5 14t-13.5 11.5t-15 6t-18 3q-56 0 -127 -141q-43 -80 -73 -182.5t-30 -182.5q0 -46 8.5 -77t24 -44t29 -17.5t30.5 -4.5q102 0 211 104q8 8 17 10.5
t15.5 -0.5t6.5 -10q0 -30 -26 -65q-147 -181 -342 -181q-51 0 -89.5 22.5t-59 58t-30.5 72t-10 71.5q0 65 25.5 158t62.5 159q58 108 124.5 176.5t158.5 106.5q33 15 88 25t82 10z" />
    <glyph glyph-name="Dcaron" unicode="&#x10e;" horiz-adv-x="1509" 
d="M842 1309q261 0 426 -129q100 -79 150 -193.5t50 -243.5q0 -105 -30.5 -205t-81 -177t-110 -136.5t-124.5 -97.5q-123 -75 -259 -107t-310 -32q-84 0 -184.5 6t-135.5 6q-47 0 -135.5 -4t-103.5 -4q-69 0 -72 28q0 26 64 33q37 4 57.5 8.5t46 16.5t42 31.5t33.5 54
t32 84.5q43 137 141.5 468t118.5 396q35 113 -37 123q-70 8 -107 10q-22 0 -39.5 7.5t-17.5 17.5q0 13 17 21.5t49 8.5q19 0 88 -2t98 -2q22 0 146 6.5t188 6.5zM827 1249q-35 0 -59 -12q-9 -3 -21 -14t-16 -21q-23 -43 -58 -153t-112 -377q-108 -366 -115 -490
q-2 -31 5 -58t20 -34q25 -14 64.5 -28.5t50.5 -14.5q157 0 325 115q129 87 212 256.5t83 363.5q0 118 -40.5 225.5t-106.5 159.5q-101 82 -232 82zM901 1391q-9 0 -24 16t-25 31q-11 21 -31.5 50t-48.5 67.5t-45 62.5q-17 26 -13 38.5t21 12.5q33 0 62 -18q110 -74 137 -92
q6 -4 17.5 -5t15.5 2q41 21 227 99q31 14 63 14q16 0 15 -14q-1 -15 -27 -37q-14 -11 -112 -78.5t-144 -105.5q-65 -43 -88 -43z" />
    <glyph glyph-name="dcaron" unicode="&#x10f;" horiz-adv-x="1038" 
d="M25 125q0 57 27.5 143t77.5 182t135 189t186 147q85 50 165 50q27 0 64 -18t59 -40q4 -1 10.5 2t8.5 8q5 19 30 98.5t53 174.5t48 170q11 50 7.5 66.5t-26.5 27.5q-69 34 -69 45q0 10 10.5 20.5t19.5 14.5q29 9 143.5 25t149.5 16t6 -103q-13 -43 -76 -236.5t-118 -369.5
q-22 -74 -81.5 -268.5t-80.5 -269.5q-6 -24 4 -39t29 -15q27 0 72.5 36t85.5 85q15 18 22 8q7 -7 4 -32q-4 -35 -39.5 -83t-85 -91t-111 -73t-112.5 -30q-29 0 -55.5 32t-26.5 58q0 33 70 254q3 8 -5 12.5t-14 -4.5q-123 -180 -234 -264t-228 -84q-51 0 -89 33
q-17 19 -26.5 55.5t-9.5 67.5zM244 168q0 -29 11 -46.5t28 -17.5q45 0 117 58.5t145 152.5q89 126 143 279q27 73 12 117q-26 53 -53 53q-61 0 -182 -137q-85 -100 -153 -239.5t-68 -219.5zM1409 1440q10 0 17 -15t1 -39q-13 -55 -61 -145.5t-106 -163.5q-9 -12 -32.5 -28.5
t-35.5 -16.5q-11 0 -16.5 14t-1.5 23q21 62 46.5 160.5t30.5 132.5q0 5 7 14t16 15q27 17 67.5 33t67.5 16z" />
    <glyph glyph-name="Dcroat" unicode="&#x110;" horiz-adv-x="1509" 
d="M840 1309q265 0 428 -129q100 -79 150 -193.5t50 -243.5q0 -103 -30.5 -202.5t-80.5 -177.5t-109 -138t-122 -98q-126 -74 -261.5 -106.5t-307.5 -32.5q-84 0 -186.5 6t-137.5 6q-46 0 -133 -4t-102 -4q-74 0 -74 26q0 28 68 37q45 4 71.5 11.5t53 28.5t45 58.5
t37.5 100.5q61 192 110 360q3 6 -1.5 13.5t-10.5 7.5l-150 -4q-19 19 -14 37q3 15 14.5 29t20.5 14l156 2q15 0 20 16q68 240 115 383q32 110 -37 123q-86 9 -107 10q-57 4 -57 25q0 30 68 30q19 0 86 -2t96 -2q22 0 145 6.5t187 6.5zM831 1249q-45 0 -61.5 -10t-32.5 -41
q-29 -56 -60 -149t-99 -316q-6 -18 8 -18l297 2q6 0 11.5 -6.5t4.5 -18.5q-2 -16 -12.5 -32.5t-26.5 -16.5l-297 -6q-7 0 -12.5 -8.5t-5.5 -16.5q-86 -291 -99 -424q-5 -39 3 -62t34 -38q25 -18 57 -30.5t52 -12.5q143 0 313 113q132 89 215.5 255t83.5 369q0 120 -37 225
t-102 156q-111 86 -234 86z" />
    <glyph glyph-name="dcroat" unicode="&#x111;" horiz-adv-x="1038" 
d="M27 125q0 56 25 139t72.5 178.5t133.5 190t193 153.5q85 50 165 50q22 0 61.5 -19t59.5 -39q4 -3 12.5 2.5t8.5 10.5q60 189 76 247q4 9 1.5 16.5t-10.5 6.5h-182q-16 0 -16 14q0 13 13 33t26 20l186 7q3 0 9 7t7 13q3 11 10.5 35.5t10.5 38.5q12 50 8.5 65.5t-25.5 28.5
q-55 30 -55 45q0 11 10 21t19 14q30 9 131 25t135 16q39 0 10 -103q-15 -54 -53 -180q-8 -20 8 -20l117 2q12 0 12 -25q0 -19 -12 -35t-29 -16l-114 -4q-13 0 -21 -21q-34 -101 -94 -305q-152 -512 -158 -532q-9 -29 0 -45.5t29 -16.5q27 0 73 37t81 82q16 24 26 10
q4 -4 4 -30q-7 -46 -62.5 -111.5t-137 -115.5t-148.5 -50q-30 0 -55 30.5t-25 61.5t70 252q5 12 -4 13q-9 2 -17 -9q-129 -182 -237.5 -263t-224.5 -81q-56 0 -90.5 46.5t-32.5 109.5zM246 168q0 -62 39 -62q47 0 119 55.5t143 147.5q37 51 77.5 131.5t65.5 153.5
q25 74 8 123q-22 45 -51 45q-65 0 -184 -135q-85 -100 -151 -238.5t-66 -220.5z" />
    <glyph glyph-name="Emacron" unicode="&#x112;" horiz-adv-x="1239" 
d="M594 686l192 6q64 2 100.5 14t56.5 31t54 66q30 37 47 37q13 0 14 -26t-11 -52q-50 -101 -89 -270q-4 -22 -15 -37t-19 -15q-10 0 -18.5 15.5t-8.5 46.5q-1 60 -22 82t-62 22l-227 -6q-13 0 -29 -9.5t-22 -23.5q-24 -65 -82 -303q-16 -64 -16.5 -96t16.5 -64
q11 -20 27 -27.5t50 -10.5q114 -13 230 -13q32 0 72.5 13.5t68.5 31.5q40 22 87.5 68.5t90.5 105.5q23 28 35 39t23 11q21 0 10 -54q-11 -48 -43.5 -120t-59.5 -107q-32 -35 -49 -41q-27 -12 -123 -12q-44 0 -306.5 6t-323.5 6q-64 0 -151 -5t-111 -5q-28 0 -46 8t-18 20
q0 10 16 20t45 13q57 6 93 17t58 34t33.5 46.5t24.5 68.5q81 252 267 868q25 85 0.5 116t-127.5 48q-50 10 -50 33q0 10 20.5 16.5t51.5 6.5q19 0 109 -4.5t149 -4.5h193q225 0 315.5 4.5t138.5 16.5q9 3 14 -13t1 -22q-27 -48 -50 -127.5t-30 -122.5q-3 -16 -19 -16
q-14 0 -30 18t-17 45q-3 66 -18 97.5t-47 42.5q-38 14 -203 14q-40 0 -63.5 -8t-33 -17.5t-24.5 -33.5q-47 -75 -153 -461q-3 -9 2.5 -18t11.5 -9zM662 1563l444 10q6 0 11.5 -15.5t2.5 -31.5q-4 -32 -24 -64q-14 -20 -31 -20l-438 -4q-3 0 -11 10t-8 16q6 42 31 80
q11 19 23 19z" />
    <glyph glyph-name="emacron" unicode="&#x113;" horiz-adv-x="768" 
d="M416 1161l407 10q8 0 15 -11.5t6 -33.5q-1 -30 -18 -57t-31 -27l-404 -4q-5 0 -10.5 12t-5.5 25q3 27 17 56.5t24 29.5zM590 834q89 0 131.5 -44t42.5 -98q0 -129 -184 -217q-94 -46 -265 -86q-19 -5 -28 -33q-19 -59 -19 -123q0 -57 28.5 -88.5t68.5 -31.5q98 0 217 102
q3 3 12.5 10.5t14 10.5t11 6.5t11.5 3.5q6 0 10 -5t4 -10q0 -10 -9 -30t-18 -31q-68 -85 -169.5 -142t-208.5 -57q-59 0 -124 68t-65 170q0 105 61.5 238t147.5 223q76 76 166.5 120t163.5 44zM565 776q-65 0 -140.5 -98t-107.5 -211q-2 -9 1.5 -16.5t11.5 -4.5
q124 42 198 125.5t74 147.5q0 28 -10.5 42.5t-26.5 14.5z" />
    <glyph glyph-name="Ebreve" unicode="&#x114;" horiz-adv-x="1239" 
d="M594 686l192 6q64 2 100.5 14t56.5 31t54 66q30 37 47 37q13 0 14 -26t-11 -52q-50 -101 -89 -270q-4 -22 -15 -37t-19 -15q-10 0 -18.5 15.5t-8.5 46.5q-1 60 -22 82t-62 22l-227 -6q-13 0 -29 -9.5t-22 -23.5q-24 -65 -82 -303q-16 -64 -16.5 -96t16.5 -64
q11 -20 27 -27.5t50 -10.5q114 -13 230 -13q32 0 72.5 13.5t68.5 31.5q40 22 87.5 68.5t90.5 105.5q23 28 35 39t23 11q21 0 10 -54q-11 -48 -43.5 -120t-59.5 -107q-32 -35 -49 -41q-27 -12 -123 -12q-44 0 -306.5 6t-323.5 6q-64 0 -151 -5t-111 -5q-28 0 -46 8t-18 20
q0 10 16 20t45 13q57 6 93 17t58 34t33.5 46.5t24.5 68.5q81 252 267 868q25 85 0.5 116t-127.5 48q-50 10 -50 33q0 10 20.5 16.5t51.5 6.5q19 0 109 -4.5t149 -4.5h193q225 0 315.5 4.5t138.5 16.5q9 3 14 -13t1 -22q-27 -48 -50 -127.5t-30 -122.5q-3 -16 -19 -16
q-14 0 -30 18t-17 45q-3 66 -18 97.5t-47 42.5q-38 14 -203 14q-40 0 -63.5 -8t-33 -17.5t-24.5 -33.5q-47 -75 -153 -461q-3 -9 2.5 -18t11.5 -9zM825 1397q-99 0 -148.5 63.5t-31.5 157.5q3 16 13.5 26.5t21.5 10.5q13 0 29 -49q13 -41 52.5 -63.5t96.5 -22.5
q117 0 213 96q29 35 51 35q10 0 13.5 -15t-2.5 -32q-13 -34 -36.5 -67.5t-60 -66.5t-91.5 -53t-120 -20z" />
    <glyph glyph-name="ebreve" unicode="&#x115;" horiz-adv-x="768" 
d="M575 971q-84 0 -128.5 65t-14.5 181q6 21 16.5 32t20.5 11q23 0 27 -46q5 -58 32 -85t86 -27q41 0 91.5 28.5t91.5 86.5q30 43 51 43q12 0 13 -20.5t-5 -35.5q-12 -37 -34.5 -75t-56.5 -75t-83.5 -60t-106.5 -23zM590 834q89 0 131.5 -44t42.5 -98q0 -129 -184 -217
q-94 -46 -265 -86q-19 -5 -28 -33q-19 -59 -19 -123q0 -57 28.5 -88.5t68.5 -31.5q98 0 217 102q3 3 12.5 10.5t14 10.5t11 6.5t11.5 3.5q6 0 10 -5t4 -10q0 -10 -9 -30t-18 -31q-68 -85 -169.5 -142t-208.5 -57q-59 0 -124 68t-65 170q0 105 61.5 238t147.5 223
q76 76 166.5 120t163.5 44zM565 776q-65 0 -140.5 -98t-107.5 -211q-2 -9 1.5 -16.5t11.5 -4.5q124 42 198 125.5t74 147.5q0 28 -10.5 42.5t-26.5 14.5z" />
    <glyph glyph-name="Edotaccent" unicode="&#x116;" horiz-adv-x="1239" 
d="M594 686l192 6q64 2 100.5 14t56.5 31t54 66q30 37 47 37q13 0 14 -26t-11 -52q-50 -101 -89 -270q-4 -22 -15 -37t-19 -15q-10 0 -18.5 15.5t-8.5 46.5q-1 60 -22 82t-62 22l-227 -6q-13 0 -29 -9.5t-22 -23.5q-24 -65 -82 -303q-16 -64 -16.5 -96t16.5 -64
q11 -20 27 -27.5t50 -10.5q114 -13 230 -13q32 0 72.5 13.5t68.5 31.5q40 22 87.5 68.5t90.5 105.5q23 28 35 39t23 11q21 0 10 -54q-11 -48 -43.5 -120t-59.5 -107q-32 -35 -49 -41q-27 -12 -123 -12q-44 0 -306.5 6t-323.5 6q-64 0 -151 -5t-111 -5q-28 0 -46 8t-18 20
q0 10 16 20t45 13q57 6 93 17t58 34t33.5 46.5t24.5 68.5q81 252 267 868q25 85 0.5 116t-127.5 48q-50 10 -50 33q0 10 20.5 16.5t51.5 6.5q19 0 109 -4.5t149 -4.5h193q225 0 315.5 4.5t138.5 16.5q9 3 14 -13t1 -22q-27 -48 -50 -127.5t-30 -122.5q-3 -16 -19 -16
q-14 0 -30 18t-17 45q-3 66 -18 97.5t-47 42.5q-38 14 -203 14q-40 0 -63.5 -8t-33 -17.5t-24.5 -33.5q-47 -75 -153 -461q-3 -9 2.5 -18t11.5 -9zM885 1640q43 0 68.5 -35t23.5 -79q-3 -54 -43.5 -87.5t-85.5 -33.5q-44 0 -71.5 27.5t-26.5 83.5q3 50 45 87t90 37z" />
    <glyph glyph-name="edotaccent" unicode="&#x117;" horiz-adv-x="768" 
d="M637 1257q49 0 75.5 -31.5t26.5 -76.5q0 -52 -37.5 -93.5t-91.5 -41.5q-41 0 -67.5 32t-26.5 78q0 53 39 93t82 40zM590 834q89 0 131.5 -44t42.5 -98q0 -129 -184 -217q-94 -46 -265 -86q-19 -5 -28 -33q-19 -59 -19 -123q0 -57 28.5 -88.5t68.5 -31.5q98 0 217 102
q3 3 12.5 10.5t14 10.5t11 6.5t11.5 3.5q6 0 10 -5t4 -10q0 -10 -9 -30t-18 -31q-68 -85 -169.5 -142t-208.5 -57q-59 0 -124 68t-65 170q0 105 61.5 238t147.5 223q76 76 166.5 120t163.5 44zM565 776q-65 0 -140.5 -98t-107.5 -211q-2 -9 1.5 -16.5t11.5 -4.5
q124 42 198 125.5t74 147.5q0 28 -10.5 42.5t-26.5 14.5z" />
    <glyph glyph-name="Eogonek" unicode="&#x118;" horiz-adv-x="1239" 
d="M598 686l188 6q64 2 100.5 14t56.5 31t54 66q30 37 47 37q13 0 14 -26t-11 -52q-50 -101 -89 -270q-4 -22 -15 -37t-19 -15q-10 0 -18.5 15.5t-8.5 46.5q-1 60 -22 82t-62 22l-227 -6q-13 0 -29 -9.5t-22 -23.5q-24 -65 -82 -303q-16 -64 -16.5 -96t16.5 -64
q13 -21 28.5 -28t48.5 -10q114 -13 230 -13q32 0 72.5 13.5t68.5 31.5q40 22 87.5 68.5t90.5 105.5q23 28 35 39t23 11q21 0 10 -54q-11 -48 -43.5 -120t-59.5 -107q-32 -35 -49 -41q-27 -12 -118 -12q-89 -72 -149 -148.5t-60 -138.5q0 -37 22 -60.5t58 -23.5q52 0 126 43
q11 7 16.5 2t2.5 -22q-3 -12 -13 -31t-14 -23q-35 -46 -96 -77t-133 -31q-74 0 -113 45t-39 104q0 49 29.5 102t79 101t100 86t107.5 74q-66 1 -286 5.5t-273 4.5q-64 0 -151 -5t-111 -5q-28 0 -46 8t-18 20q0 10 16 20t45 13q57 6 93 17t58 34t33.5 46.5t24.5 68.5
q81 252 267 868q25 85 0.5 116t-127.5 48q-50 10 -50 33q0 10 20.5 16.5t51.5 6.5q19 0 109 -4.5t149 -4.5h193q225 0 315.5 4.5t138.5 16.5q9 3 14 -13t1 -22q-27 -48 -50 -127.5t-30 -122.5q-3 -16 -19 -16q-14 0 -30 18t-17 45q-3 66 -18 97.5t-47 42.5q-38 14 -203 14
q-40 0 -63.5 -8t-33 -17.5t-24.5 -33.5q-27 -43 -75.5 -198.5t-75.5 -262.5q-3 -8 4.5 -17.5t11.5 -9.5z" />
    <glyph glyph-name="eogonek" unicode="&#x119;" horiz-adv-x="768" 
d="M590 834q90 0 132 -40.5t42 -97.5q0 -59 -49.5 -115.5t-126.5 -97.5q-73 -40 -271 -94q-29 -10 -36 -33q-25 -62 -25 -143q0 -60 24.5 -86.5t77.5 -26.5q51 0 111 29.5t96 65.5q34 30 51 30q6 0 10.5 -6.5t4.5 -11.5q0 -25 -27 -57q-58 -72 -174 -130
q-102 -77 -173 -163.5t-71 -155.5q0 -36 23 -59t59 -23q63 0 125 43q11 6 16.5 2t2.5 -20q-3 -12 -12 -32t-13 -24q-35 -45 -97.5 -76.5t-133.5 -31.5q-74 0 -113 45t-39 104q0 45 25.5 94.5t70 94.5t92.5 83.5t103 73.5q-40 -4 -62 -4q-29 0 -61 13.5t-62.5 40.5t-50.5 75
t-20 109q0 118 60 238.5t151 216.5q77 77 172 123.5t168 46.5zM575 770q-48 0 -104 -54t-96 -122t-58 -125q-4 -15 1 -18.5t20 2.5q137 41 204.5 115.5t67.5 150.5q0 21 -9.5 36t-25.5 15z" />
    <glyph glyph-name="Ecaron" unicode="&#x11a;" horiz-adv-x="1239" 
d="M594 686l192 6q64 2 100.5 14t56.5 31t54 66q30 37 47 37q13 0 14 -26t-11 -52q-50 -101 -89 -270q-4 -22 -15 -37t-19 -15q-10 0 -18.5 15.5t-8.5 46.5q-1 60 -22 82t-62 22l-227 -6q-13 0 -29 -9.5t-22 -23.5q-24 -65 -82 -303q-16 -64 -16.5 -96t16.5 -64
q11 -20 27 -27.5t50 -10.5q114 -13 230 -13q32 0 72.5 13.5t68.5 31.5q40 22 87.5 68.5t90.5 105.5q23 28 35 39t23 11q21 0 10 -54q-11 -48 -43.5 -120t-59.5 -107q-32 -35 -49 -41q-27 -12 -123 -12q-44 0 -306.5 6t-323.5 6q-64 0 -151 -5t-111 -5q-28 0 -46 8t-18 20
q0 10 16 20t45 13q57 6 93 17t58 34t33.5 46.5t24.5 68.5q81 252 267 868q25 85 0.5 116t-127.5 48q-50 10 -50 33q0 10 20.5 16.5t51.5 6.5q19 0 109 -4.5t149 -4.5h193q225 0 315.5 4.5t138.5 16.5q9 3 14 -13t1 -22q-27 -48 -50 -127.5t-30 -122.5q-3 -16 -19 -16
q-14 0 -30 18t-17 45q-3 66 -18 97.5t-47 42.5q-38 14 -203 14q-40 0 -63.5 -8t-33 -17.5t-24.5 -33.5q-47 -75 -153 -461q-3 -9 2.5 -18t11.5 -9zM836 1380q-9 0 -25 16t-25 31q-11 21 -31 50t-48.5 68.5t-44.5 62.5q-17 26 -13 38.5t21 12.5q31 0 61 -19q110 -74 137 -92
q6 -4 17.5 -4.5t15.5 2.5q41 21 227 99q32 14 64 14q16 0 15 -14q-1 -15 -27 -37q-14 -11 -112 -79t-144 -106q-64 -43 -88 -43z" />
    <glyph glyph-name="ecaron" unicode="&#x11b;" horiz-adv-x="768" 
d="M553 905q-22 0 -33 56q-30 208 -39 294q-2 20 6.5 38t24.5 18q7 0 18 -15.5t19 -35.5q10 -26 29.5 -81.5t29.5 -80.5q5 -15 21 -2q12 11 82 78t102 94q42 37 74 37q8 0 9 -10.5t-4 -26t-15 -27.5q-32 -36 -138 -156.5t-114 -128.5q-46 -51 -72 -51zM590 834
q89 0 131.5 -44t42.5 -98q0 -129 -184 -217q-94 -46 -265 -86q-19 -5 -28 -33q-19 -59 -19 -123q0 -57 28.5 -88.5t68.5 -31.5q98 0 217 102q3 3 12.5 10.5t14 10.5t11 6.5t11.5 3.5q6 0 10 -5t4 -10q0 -10 -9 -30t-18 -31q-68 -85 -169.5 -142t-208.5 -57q-59 0 -124 68
t-65 170q0 105 61.5 238t147.5 223q76 76 166.5 120t163.5 44zM565 776q-65 0 -140.5 -98t-107.5 -211q-2 -9 1.5 -16.5t11.5 -4.5q124 42 198 125.5t74 147.5q0 28 -10.5 42.5t-26.5 14.5z" />
    <glyph glyph-name="Gcircumflex" unicode="&#x11c;" horiz-adv-x="1447" 
d="M1085 1333q133 0 263 -33q9 -2 17.5 -2.5t19 1t16.5 2.5t19.5 5t17.5 5q40 8 43 8q7 0 13 -17.5t-1 -29.5q-42 -47 -80 -130.5t-49 -142.5q-10 -51 -25 -51t-27 16.5t-12 47.5q0 19 1.5 46.5t2 43t-2.5 35t-11 34.5q-24 45 -82 74t-129 29q-113 0 -211 -51.5t-200 -157.5
q-113 -117 -178.5 -283.5t-65.5 -326.5q0 -67 10.5 -127.5t35.5 -116.5t63 -96.5t96.5 -65t132.5 -24.5q35 0 76 26q26 14 43 45q37 53 116 312q7 32 6 56.5t-32 41.5t-97 24q-59 8 -59 35q0 10 20.5 18.5t45.5 8.5q39 0 111 -4t122 -4q60 0 141 10t107 10q55 0 55 -26
q-3 -20 -53 -33q-25 -7 -43 -15.5t-27.5 -14t-21.5 -22.5t-14.5 -22t-16.5 -31q-28 -64 -61 -178q-33 -126 -37 -176q0 -6 -24.5 -26t-43.5 -25q-14 -3 -88.5 -25t-143 -35.5t-134.5 -13.5q-143 0 -250.5 38.5t-172.5 108.5t-96.5 162.5t-31.5 206.5q0 142 65 303t183 283
q126 130 300 200t379 70zM1167 1690q23 0 50 -43q68 -109 126 -187q17 -26 12 -39.5t-22 -13.5q-23 0 -55 20q-91 56 -141 95q-5 6 -16.5 6t-16.5 -4q-61 -31 -227 -99q-49 -18 -68 -18q-27 0 -16 22q6 13 26 31q20 15 121.5 86t144.5 103q55 41 82 41z" />
    <glyph glyph-name="gcircumflex" unicode="&#x11d;" horiz-adv-x="847" 
d="M698 1309q12 0 21.5 -19t11.5 -39q26 -218 33 -282q2 -21 -5.5 -40.5t-23.5 -19.5t-35 43q-42 123 -57 162q-4 13 -18 2q-144 -138 -185 -170q-31 -31 -67 -31q-10 0 -13 9t1 22.5t14 24.5q39 41 131.5 146.5t120.5 139.5q48 52 71 52zM557 840q71 0 141 -41
q14 -7 27.5 -7t44.5 7q8 2 37 8.5t52.5 11t39.5 4.5q62 0 62 -63q-1 -41 -17.5 -55.5t-44.5 -14.5q-31 0 -69 12.5t-56 12.5q-12 0 -16 -9t-2 -16q8 -39 8 -63q-1 -124 -90 -248t-189 -172q-73 -38 -198 -43q-5 0 -13 -8q-6 -12 -6 -29q0 -39 66 -80q30 -19 132.5 -79.5
t129.5 -80.5q115 -85 115 -174q0 -38 -32.5 -82t-78.5 -75q-172 -111 -395 -111q-162 0 -271 66q-54 30 -84 71.5t-30 81.5q0 47 33 82t86 68q22 15 52.5 31t49 24t57 23.5t43.5 17.5q4 3 6 7.5t0 6.5q-4 6 -16.5 23.5t-19.5 32.5t-7 32q0 33 25 62q14 14 45.5 41.5
t42.5 40.5q3 3 2.5 7t-2 7.5t-2.5 3.5q-62 23 -98.5 74t-36.5 108q1 85 40.5 169.5t89 140.5t105.5 96q107 78 242 78zM541 780q-34 0 -76 -39q-80 -74 -150.5 -223t-70.5 -223q0 -31 15.5 -53.5t43.5 -22.5q24 0 70 41q65 56 139.5 200.5t77.5 244.5q0 32 -13.5 53.5
t-35.5 21.5zM322 -479q80 0 139 33.5t59 80.5q0 46 -49 84q-71 57 -250 148q-6 3 -24.5 4t-26.5 -2q-56 -21 -111 -74.5t-55 -101.5q0 -54 47 -92q51 -39 125.5 -59.5t145.5 -20.5z" />
    <glyph glyph-name="Gbreve" unicode="&#x11e;" horiz-adv-x="1447" 
d="M1085 1333q133 0 263 -33q9 -2 17.5 -2.5t19 1t16.5 2.5t19.5 5t17.5 5q40 8 43 8q7 0 13 -17.5t-1 -29.5q-42 -47 -80 -130.5t-49 -142.5q-10 -51 -25 -51t-27 16.5t-12 47.5q0 19 1.5 46.5t2 43t-2.5 35t-11 34.5q-24 45 -82 74t-129 29q-113 0 -211 -51.5t-200 -157.5
q-113 -117 -178.5 -283.5t-65.5 -326.5q0 -67 10.5 -127.5t35.5 -116.5t63 -96.5t96.5 -65t132.5 -24.5q35 0 76 26q26 14 43 45q37 53 116 312q7 32 6 56.5t-32 41.5t-97 24q-59 8 -59 35q0 10 20.5 18.5t45.5 8.5q39 0 111 -4t122 -4q60 0 141 10t107 10q55 0 55 -26
q-3 -20 -53 -33q-25 -7 -43 -15.5t-27.5 -14t-21.5 -22.5t-14.5 -22t-16.5 -31q-28 -64 -61 -178q-33 -126 -37 -176q0 -6 -24.5 -26t-43.5 -25q-14 -3 -88.5 -25t-143 -35.5t-134.5 -13.5q-143 0 -250.5 38.5t-172.5 108.5t-96.5 162.5t-31.5 206.5q0 142 65 303t183 283
q126 130 300 200t379 70zM1055 1421q-99 0 -149 63.5t-32 157.5q3 16 13.5 26.5t21.5 10.5q13 0 29 -49q13 -41 52.5 -63.5t96.5 -22.5q117 0 213 96q29 35 52 35q10 0 13 -15t-3 -32q-13 -34 -36.5 -67.5t-59.5 -66.5t-91 -53t-120 -20z" />
    </font>
</defs>
</svg>
