<?xml version="1.0" standalone="no"?>
<!DOCTYPE svg PUBLIC "-//W3C//DTD SVG 1.1//EN" "http://www.w3.org/Graphics/SVG/1.1/DTD/svg11.dtd" >
<svg xmlns="http://www.w3.org/2000/svg" xmlns:xlink="http://www.w3.org/1999/xlink" version="1.1">
<metadata>
Created by FontForge 20170731 at Tue Mar 19 23:20:47 2019
 By Aleksey,,,
Copyright (c) 2018 by Aerotype Corporation. All rights reserved.
</metadata>
<defs>
<font id="TurbinadoPro" horiz-adv-x="222" >
  <font-face 
    font-family="Turbinado Pro"
    font-weight="400"
    font-stretch="normal"
    units-per-em="1000"
    panose-1="0 0 0 0 0 0 0 0 0 0"
    ascent="766"
    descent="-234"
    x-height="410"
    cap-height="682"
    bbox="-386 -354 959 892"
    underline-thickness="50"
    underline-position="-200"
    unicode-range="U+000D-FB02"
  />
<missing-glyph horiz-adv-x="373" 
d="M30 110v511h313v-511h-313zM46 607v-482h283v482h-283z" />
    <glyph glyph-name="mu" unicode="&#x3c;&#x33;" horiz-adv-x="338" 
d="M208 259q-1 -1 -3.5 -4.5t-5 -5.5t-5.5 -2l-1 -1h-2q-1 -1 -4 -1h-20q-1 0 -3 -1h-2q-14 0 -14 30q0 36 3 52q2 29 11 74v26l-10 -5q-24 -22 -34 -52l-12 -43q-2 -12 -4 -30q0 -2 -0.5 -7t-0.5 -8q0 -7 2 -23q1 -21 6 -42l1 -2v-2q12 -47 20 -61q2 -6 21 -35l1 -1l2 -2
t2 -4t2 -4l5 13q9 17 16 27q18 32 46 65l44 52q42 55 44 82v12q-3 14 -15 14q-20 0 -40 -23l-11 -14l3 6l1 2q0 1 1 1q-2 0 -2 -3q-2 -3 -6 -8.5t-5 -7.5q1 0 0 -2l-2.5 -5t-2.5 -4l-16 -32q-6 -9 -10 -21zM301 258l-17 -21q0 -1 3 2t6 7.5t4 5.5t1 3l1 1q2 1 2 2zM347 327
v4q-4 -5 -4 -8q0 -5 -6 -14l-2 -8q-4 -3 -10 -12q0 -3 -7.5 -12t-8.5 -11q1 6 4 7l2 5l-4 -5l-12 -9l1 -1l1 -2q-3 -1 -3 -2q4 0 9 5l1 2l1 1l-1 -1v-2l-16 -20q-2 -3 -10.5 -14.5t-12.5 -17.5l9 8q0 6 11 13q-5 -9 -6 -10q-2 -2 -4 -5t-3 -4q2 0 3 1t2 1q-8 -6 -9 -10
q-2 -5 -7 -11.5t-6 -8.5q-2 -2 -4.5 -6.5t-5 -8t-5.5 -6.5l-23 -34q-2 -2 -5 -7t-5 -8q0 -1 -1 -2.5t-1 -2.5q-1 -1 -2 -3q-3 -4 -4 -5q-2 -1 -2 -3l1 -2v-3h-5l-11 4q-2 0 -2 -3q2 0 2 -2h-1q-1 1 -2 1h-4q-3 0 -3 -1q-1 -1 -5 -1q0 -7 2 -17q0 -2 0.5 -5t0.5 -5
q-5 -14 -20 -14q-9 0 -29 10q-5 4 -8 9q-33 36 -51 91t-18 108q0 84 45 144q25 41 61 41q10 0 15 -2l18 -2q21 -4 24 -26q2 -10 2 -16q0 -10 -2 -24t-8 -52q16 20 23 27q34 28 58 31q4 1 13 1q10 0 19 -3q7 -1 25 -11q1 0 1 -3l3 -2q8 -8 11 -24q0 -2 -1 -4q0 1 -1 2l-1 1
l-1 2v-2q0 -3 0.5 -7t0.5 -6q-1 1 -2 3l-1 2v-4q0 -5 -3 -9z" />
    <glyph glyph-name="t_t" unicode="tt" horiz-adv-x="386" 
d="M222 199q2 8 7 11l21 29l2 8q-3 0 -3 -2q0 -1 1 -3q-1 0 -2.5 -2t-3 -4.5t-2.5 -3.5t-4 -6t-5 -5q-1 1 -1 -0.5v-2.5q-5 0 -5 -5l-8 -8q0 -1 -2.5 -4t-3.5 -5q0 -2 -3 -3l-2 -1q0 -3 -2 -3q-2 -7 -4 -7l-2 -1q-4 -2 -4 -4q-1 0 -4 -4q-1 0 -4 -4t-3 -5l-4 -5
q-2 -2 -6.5 -8t-7.5 -9q2 1 5.5 5.5t6.5 4.5l3 3q2 3 3 4q7 7 9 11q0 1 2.5 3t5.5 3l2 2q2 2 4 9q6 3 6 4l1 3l6 9q1 -2 1 -4zM256 233q2 0 5 15l-6 -8l-4 -18l-2 -8q-7 -22 -9 -47l4 13q1 4 9 39q0 3 2 5q0 1 -0.5 3.5t-0.5 3.5q0 2 2 2zM230 97l1 -5q2 0 2 2q-1 1 -1 8
q2 9 4 26.5t3 26.5v5q0 2 -2 2q-1 -4 -1 -10q-4 -36 -4 -41v-4l-2 -6v-4zM245 103v6q-2 -1 -5 -6q2 -6 6 -6l2 8zM272 67l4 -3v5q0 4 -4 6q-1 -1 -1 -4l-4 -2l3 -1q2 0 2 -1zM263 257q3 4 3 9q-1 -1 -3 -2v-5l-5 -5q0 -2 2 -2l2 2zM250 85h4l1 6q-1 0 -3 1h-1zM280 40
q0 1 1 3.5t1 5.5q-3 0 -3 -6l-3 -6q1 0 2 1.5t2 1.5zM232 87l-1 -4q5 3 5 4l3 3q0 2 -3 -1q-3 -2 -4 -2zM318 268v-4l4 3l-1 3q-3 0 -3 -2zM276 94q0 2 -1 4q-2 -2 -2 -4v-4q3 3 3 4zM312 265l1 -3l1 2l2 2l-1 3q-3 0 -3 -4zM306 233l-4 -1v-4q3 0 3 2zM267 100l-2 -11
q2 0 2 4v7zM243 80l1 -4h1q1 1 2 1zM243 65v-6l2 3q0 1 -2 3zM262 221q-2 -1 -3 -2h-1l3 -1l1 1v2zM243 58l2 -4q0 3 -2 4zM226 103l2 12v8q0 8 2 16l2 4v6l2 4q-1 2 -1 4v5q0 4 1 5l6 20q-1 3 -1 8l4 17q2 5 6 21l-13 -18q-59 -77 -76 -85q-4 -7 -17 -18l-3 -3
q-4 -3 -12 -8.5t-10 -6.5q-3 -1 -7 -4t-9 -4l-6 -2q-6 -3 -10 -3q-14 0 -19 5q-9 0 -12 3q-7 4 -8 5q-6 3 -11 8q-2 1 -3.5 4t-2.5 3l-4 9q-1 1 -1 4q-2 12 -2 15v6q0 1 -1 4t-1 5t1 3q-1 3 -1 4q1 5 2 6v5q0 4 1 6q-3 3 -3 4q0 2 1.5 5.5t1.5 5.5l1 13l-1 1v2t1 4
q0 13 5 23q2 4 4 5l-2 4q0 5 2 11q3 4 3 14v5q1 3 3 8t3 8q17 72 76 221q-23 -2 -57 -2h-38q-46 0 -57 14t-11 25q-1 2 -1 7q0 8 9 8q6 0 9 -2q12 -2 59 -4h15q57 0 92 2q14 35 33 85l7 15q3 3 6 3q14 0 19.5 -6.5t6.5 -21.5q0 -2 1.5 -4t3.5 -4l1 -2v-5q-4 -30 -10 -42
q-2 -5 -4 -15q14 1 72 3t85 3q16 46 34 104l13 42q4 9 12 9q17 -4 23 -11q7 -7 7 -23v-10q0 -16 -2 -24q-9 -45 -21 -86q94 -5 121 -18q3 0 3 -4h-6q-4 -4 -6 -4q0 -3 2 -3q0 -2 -2 -2q2 0 2 -2q0 -5 -6 -5h-2q-3 1 -4 1h-44q-1 0 -3.5 -2.5t-4.5 -2.5h-17l-28 2h-17
q-9 -30 -48.5 -144t-58 -191t-24.5 -159l6 -10q-4 1 -11.5 2.5t-12 2.5t-10.5 3.5t-11 6.5v-1l1 -2l-5 7v0q-1 2 -2 3t-2 2.5t-1 3.5q0 6 -3 7q-4 2 -4 10v4q1 2 4 2t3 1t-2 3q-2 0 -4 -0.5t-3 -0.5v6q1 1 4 1l1 4l-3 -3q-1 2 -1 6v4q-1 0 -1 7zM130 357q2 15 8 23l3 4v9
q1 0 3 1l3 2q-61 -169 -63 -265q0 -9 5 -9q3 0 5 1q44 24 184 206q0 1 1 2q1 12 8 24q2 4 5.5 18.5t7.5 20.5q2 2 2 6l43 125q-31 -1 -157 -11q-19 -59 -40 -111l-1 4l27 72q-3 -5 -18 -42t-35.5 -99.5t-30.5 -112.5t-10 -64l-1 -21l4 34q6 43 22.5 103.5t24.5 79.5z" />
    <glyph glyph-name="A_t" unicode="At" horiz-adv-x="687" 
d="M400 209q-6 -14 -6 -25l-1 -2l-1 -2q3 0 3 2q2 4 2 7l20 71q-8 -16 -8 -21q-3 -3 -3 -8q-2 -2 -2 -5q0 -1 -4 -17zM372 85q2 15 4 22q0 3 1.5 9t1.5 11q-12 -43 -14 -47q5 5 7 5zM314 6l8 16q0 1 -3 1q-1 0 -6 -6.5t-5 -8.5l-1 -3q2 0 3 4l3 4q0 -3 1 -7zM390 151
q0 4 1 5q-2 0 -3 1l2 7q2 7 3 11l-3 -4v-1l-4 -15q0 -1 -1 -5t-1 -6l1 -3q0 5 5 10zM320 7q-4 0 -7 -5q0 -5 4 -5q2 0 2 2q3 1 3 5q0 1 -2 3zM423 326q-1 -8 -4 -12q4 -1 9 21l-3 -4q-2 -4 -2 -5zM320 31l4 -3v5q0 4 -4 6q-1 -1 -1 -4l-4 -2l3 -1q2 0 2 -1zM353 148l-2 -10
l-1 -1v-2v-4q0 -3 1 -3l4 20q0 2 -1 5q0 -4 -1 -5zM426 288l-3 -3q-1 -3 -2 -6.5t-1 -4.5l1 -3q1 0 5 17zM302 7q0 -9 -4 -13q0 -2 2 -4l3 11q0 4 -1 6zM344 41v-8q0 -5 1 -6q0 2 0.5 4t0.5 3v9q0 -2 -2 -2zM324 58q0 2 -1 4q-2 -2 -2 -4v-4q3 3 3 4zM397 164q-4 0 -4 -4
l-2 -5q5 7 6 9zM440 354q-1 0 -2 -2l-1 -3q0 -1 1 -2v-1q2 2 2 8zM315 64l-2 -11q2 0 2 4v7zM390 226q0 -3 -2 -9q3 3 3 6q0 1 -1 3zM387 136q0 -4 1 -4l2 6zM384 361l4 17q-84 -18 -128 -29l-44 -12q-72 -188 -105 -308q-10 -31 -29 -31q-20 -10 -24 -10q-2 0 -6.5 4
t-11.5 4q-13 0 -13 12q0 3 1.5 9t1.5 8l6 14q18 66 71 206l24 65q-68 -23 -86 -37q-3 0 -8 -5q-5 -4 -17 -6q-3 -3 -7 -3q-5 0 -5 4l3 1q-18 7 -27 20l-2 2q-1 2 -2 3q0 2 -0.5 6t-0.5 6q0 1 1 3.5t1 4.5q3 10 45.5 26.5t75.5 26.5t56 16q86 213 188 316q19 19 46 35.5
t47 16.5t33 -20q0 -5 9 -9q13 -9 17 -29q2 -28 2 -43q0 -73 -29 -203q30 5 93 11q12 32 38 96t37 94l7 15q3 3 6 3q14 0 19.5 -6.5t6.5 -21.5q0 -2 1.5 -4t2.5 -4l2 -2v-5q-4 -30 -10 -42q-14 -49 -38 -117l38 2h13q45 0 54 -17q7 -13 7 -15q-1 -8 -13 -8q-3 0 -8 0.5
t-7 0.5q-92 -8 -101 -9l-4 -10l-1 4l2 6h-3q-42 -112 -56 -188q-10 -50 -10 -64l-1 -21l4 34q6 43 22.5 103.5t24.5 79.5q2 15 8 23l3 4v9q1 0 4 1l2 2q-61 -169 -63 -265q0 -9 5 -9q3 0 5 1q44 24 184 206l11 14q2 2 3.5 5t2.5 4l4 4q3 0 6.5 -8t3.5 -14v-5q-3 -5 -6 -6
v-12q-2 -4 -5 -6.5t-6 -8.5l-5 -5q-1 -3 -11 -13q-6 -6 -8 -11q-6 -2 -9 -5q2 0 3 1l1 1v-5l-3 -3q-7 0 -7 -4l4 -1q0 -4 -5 -4q-3 0 -3 -2v-1l1 -2q-1 0 -2.5 -2t-3 -4.5t-2.5 -3.5t-4 -6t-5 -5q-1 1 -1 -0.5v-2.5q-5 0 -5 -5l-8 -8q0 -1 -2.5 -4t-3.5 -5q0 -2 -2 -3l-3 -1
q0 -3 -2 -3q-2 -7 -4 -7l-2 -1l-4 -4q-1 0 -4 -4q-1 0 -4 -4t-3 -5l-4 -5q-2 -2 -6.5 -8t-7.5 -9q2 1 5.5 5.5t6.5 4.5l2 3l4 4q7 7 9 11q0 1 2.5 3t4.5 3l3 2q1 2 4 9q6 3 6 4l1 3l6 9q1 -2 1 -4q2 8 7 11l31 42l1 2q2 3 4 5.5t4 2.5q0 5 4 9q2 1 2.5 3t1.5 3q0 1 10 7
l-51 -69q-59 -77 -76 -85q-4 -7 -17 -18l-3 -3q-4 -3 -12 -8.5t-10 -6.5q-3 -1 -7 -4t-9 -4l-6 -2q-6 -3 -10 -3q-14 0 -19 5q-9 0 -12 3q-7 4 -8 5q-6 3 -11 8q-2 1 -3.5 4t-2.5 3l-4 9q-1 1 -1 4q-2 12 -2 15v6q0 1 -1 4t-1 5t1 3q-1 3 -1 4q1 5 2 6v5q0 4 1 6q-3 3 -3 4
q0 2 1.5 5.5t1.5 5.5l1 13v1q-1 1 -1 2t1 4q0 13 5 23q2 4 4 5l-2 4q0 5 2 11q3 4 3 14v5q0 2 3 7.5t3 8.5q13 56 35 115q-53 -7 -86 -13l-5 -22q-9 -37 -29 -107t-29 -104l-3 -15q-5 -21 -7 -28q-6 -12 -6 -17q-4 -10 -4 -15q-6 -9 -8 -25q-2 -8 -7 -20.5t-6 -18.5l-6 -10
q-2 0 -2 7q1 5 3 11.5t2 7.5l1 3l8 22l6 11q0 1 -6 -3l-2 -3l-18 -60l-7 -11l-5 12l-2 -4l-3 -1q0 -1 -1.5 -4l-2.5 -5l-1 -2h4q2 0 2 -3q-2 -2 -2 -4t-2 -2q0 3 -5 3l-6 -2l-2 -2l-2 -1q0 -2 2 -3q0 -2 -3 -2l-2 -4q0 -2 -6 -2q-11 0 -11 7l-5 14q0 7 1 10q7 24 45 158.5
t57 203.5zM241 399q84 19 161 32q38 150 43 246l1 17q-1 3 -5 5q-95 -59 -200 -300z" />
    <glyph glyph-name="A_t_t" unicode="Att" horiz-adv-x="861" 
d="M282 -1q7 24 45 158.5t57 203.5l5 19q-100 -21 -173 -43q-73 -191 -105 -308q-10 -31 -29 -31q-20 -10 -24 -10q-2 0 -6.5 4t-11.5 4q-13 0 -13 12q0 3 1.5 9t1.5 8l6 14q18 66 71 206l24 65q-62 -22 -85 -35q-1 0 -3.5 -2t-4.5 -3q-7 -6 -17 -6q-1 -4 -6 -4q-3 0 -3 5
q-19 7 -27 18l-1 2l-3 3q0 2 -0.5 6.5t-0.5 6.5q0 1 2 7q3 14 46 28q56 22 130 42q129 314 263 365q9 3 18 3q20 0 33 -20q0 -5 9 -9q13 -9 17 -29q2 -28 2 -43q0 -77 -28 -199l94 13q8 20 34.5 85.5t38.5 98.5l7 15q3 3 6 3q14 0 19.5 -6.5t6.5 -21.5q0 -2 1.5 -4t2.5 -4
l2 -2v-5q-4 -30 -10 -42q-16 -55 -35 -110q68 7 155 10q40 111 66 195l13 42q4 9 12 9q17 -4 23 -11q7 -7 7 -23v-10q0 -52 -52 -202q81 0 90 -23q6 -14 6 -20q-1 -6 -9 -6q-4 0 -10.5 1.5t-8.5 1.5q-38 2 -56 2h-27q-32 -92 -45 -132.5t-31 -119t-23 -146.5l6 -10
q-4 1 -11.5 2.5t-12 2.5t-10.5 3.5t-11 6.5v-1l1 -2l-5 7v0q-1 2 -2 3t-2 2.5t-1 3.5q0 6 -3 7q-4 2 -4 10v4q1 2 4 2t3 1t-2 3q-2 0 -4 -0.5t-3 -0.5v6q1 1 4 1l1 4l-3 -3q-1 2 -1 6v4q-1 0 -1 7l2 12v8q0 8 2 16l2 4v6l2 4q-1 2 -1 4v5q0 4 1 5l6 20q-1 3 -1 8l4 17l6 19
l-12 -16q-59 -77 -76 -85q-4 -7 -17 -18l-3 -3q-4 -3 -12 -8.5t-10 -6.5q-3 -1 -7 -4t-9 -4l-6 -2q-6 -3 -10 -3q-14 0 -19 5q-9 0 -12 3q-7 4 -8 5q-6 3 -11 8q-2 1 -3.5 4t-2.5 3l-4 9q-1 1 -1 4q-2 12 -2 15v6q0 1 -1 4t-1 5t1 3q-1 3 -1 4q1 5 2 6v5q0 4 1 6q-3 3 -3 4
q0 2 1.5 5.5t1.5 5.5l1 13v1q-1 1 -1 2t1 4q0 23 9 28l-2 4q0 5 2 11q3 4 3 14v5q0 2 3 7.5t3 8.5q12 53 37 119q-34 -5 -87 -14l-6 -25q-9 -37 -29 -107t-29 -104l-3 -15q-5 -21 -7 -28q-6 -12 -6 -17q-4 -10 -4 -15q-6 -9 -8 -25q-2 -8 -7 -20.5t-6 -18.5l-6 -10
q-2 0 -2 7q1 5 3 11.5t2 7.5l1 3l8 22l6 11q0 1 -6 -3l-2 -3l-18 -60l-7 -11l-5 12l-2 -4l-3 -1q0 -1 -1.5 -4l-2.5 -5l-1 -2h4q2 0 2 -3q-2 -2 -2 -4t-2 -2q0 3 -5 3l-6 -2l-2 -2l-2 -1q0 -2 2 -3q0 -2 -3 -2l-2 -4q0 -2 -6 -2q-11 0 -11 7l-5 14q0 7 1 10zM550 174
q6 43 22.5 103.5t24.5 79.5q2 15 8 23l3 4v9q1 0 4 1l2 2q-61 -169 -63 -265q0 -9 5 -9q3 0 5 1q42 22 181 202l3 6q1 12 8 24q2 4 5.5 18.5t7.5 20.5q2 2 2 6l10 30q-104 -6 -157 -12l-6 -15l-1 4l4 11h-1q-1 -1 -2 -1q-22 -55 -45 -134.5t-23 -121.5l-1 -21zM441 699
q-57 -36 -110 -124t-89 -175q69 18 161 34q36 143 42 243l1 17q-1 3 -5 5zM696 210l20 27l2 10q-2 -1 -2 -2v-1l1 -2q-1 0 -2.5 -2t-3 -4.5t-2.5 -3.5t-4 -6t-5 -5q-1 1 -1 -0.5v-2.5q-5 0 -5 -5l-8 -8q0 -1 -2.5 -4t-3.5 -5q0 -2 -2 -3l-3 -1q0 -3 -2 -3q-2 -7 -4 -7l-2 -1
l-4 -4q-1 0 -4 -4q-1 0 -4 -4t-3 -5l-4 -5q-2 -2 -6.5 -8t-7.5 -9q2 1 5.5 5.5t6.5 4.5l2 3l4 4q7 7 9 11q0 1 2.5 3t4.5 3l3 2q1 2 4 9q6 3 6 4l1 3l6 9q1 -2 1 -4q2 8 7 11zM400 209q-6 -14 -6 -25l-1 -2l-1 -2q3 0 3 2q2 4 2 7l20 71q-8 -16 -8 -21q-3 -3 -3 -8
q-2 -2 -2 -5q0 -1 -4 -17zM313 13q0 -3 1 -7l8 16q0 1 -3 1q-1 0 -6 -6.5t-5 -8.5l-1 -3q2 0 3 4zM365 80q5 5 7 5q2 15 4 22q0 3 1.5 9t1.5 11q-12 -43 -14 -47zM385 141q0 5 5 10q0 4 1 5q-2 0 -3 1l2 7q2 7 3 11l-3 -4v-1l-4 -15q0 -1 -1 -5t-1 -6zM428 335l-3 -4
q-2 -4 -2 -5q-1 -8 -4 -12q4 -1 9 21zM322 4q0 1 -2 3q-4 0 -7 -5q0 -5 4 -5q2 0 2 2q3 1 3 5zM315 33l3 -1q2 0 2 -1l4 -3v5q0 4 -4 6q-1 -1 -1 -4zM354 153q0 -4 -1 -5l-2 -10l-1 -1v-2v-4q0 -3 1 -3l4 20q0 2 -1 5zM421 271q1 0 5 17l-3 -3q-1 -3 -2 -6.5t-1 -4.5zM303 1
q0 4 -1 6q0 -9 -4 -13q0 -2 2 -4zM346 43q0 -2 -2 -2v-8q0 -5 1 -6q0 2 0.5 4t0.5 3v9zM321 54q3 3 3 4q0 2 -1 4q-2 -2 -2 -4v-4zM438 346q2 2 2 8q-1 0 -2 -2l-1 -3q0 -1 1 -2v-1zM391 155q5 7 6 9q-4 0 -4 -4zM313 53q2 0 2 4v7zM391 223q0 1 -1 3q0 -3 -2 -9q3 3 3 6z
M390 138l-3 -2q0 -4 1 -4z" />
    <glyph glyph-name="quoteright_m" unicode="&#x27;m" horiz-adv-x="528" 
d="M158 585q0 -25 -36.5 -71t-50.5 -46q-4 1 -10.5 9.5t-6.5 11.5q0 4 -4 6q45 75 60 121q1 4 7 4q11 0 26 -12.5t15 -22.5zM585 272l-14 -23l-9 -12q-36 -53 -45 -65l-3 -2q-2 -1 -4 -2.5t-4.5 -7t-4.5 -13.5l-1 5q-3 -4 -5 -4l3 -2q-14 -19 -37 -39t-43 -23l-14 2
q-4 0 -7 4t-5 4q0 3 2 3q0 6 -4 6h-5q0 -1 2 -3.5t3 -2.5q-2 -2 -3 -2l-3 3q-11 6 -18 25t-7 38q0 39 20.5 125.5t20.5 102.5q0 4 -1 4q-14 -8 -27.5 -23.5t-24.5 -31t-14 -18.5l-5 -10q0 2 -3 2q-7 -14 -8 -14l-2 -3q0 -2 -9.5 -19t-11.5 -19q-2 -4 -5 -9.5t-7.5 -14
t-7.5 -14.5l-1 -3l-2 -2q-2 -2 -4 -2q1 -1 1 -7q-19 -41 -23 -54l-13 -41q-1 -5 -6.5 -20t-7.5 -18q-2 1 -5 1q-5 0 -6 -4l-2 2l-8 -4l-3 1v4l-2 10l-1 5h-6q-11 0 -18 13v4q0 9 10.5 38t11.5 34q27 108 27 148q0 26 -4 42q-30 -17 -57 -61.5t-55.5 -112t-32.5 -75.5
q-5 -2 -6.5 -6t-1 -8t-3 -7t-12.5 -3l-2 3q0 -3 -2 -3q-3 0 -9 3.5t-11 3.5q-3 0 -5 -1q-6 1 -8 2.5t-2.5 3t-0.5 8.5t-1 13q7 34 27 109t27 122q1 6 2.5 20t3 22t4 16.5t6.5 10.5h7q21 0 32 -18.5t11 -42.5q0 -8 -2 -22q7 12 17 25.5t29 30t36 16.5q27 0 41.5 -16
t17.5 -34.5t3 -45.5v-6q0 -2 3 -2q23 49 65.5 91t83.5 42h4q16 -2 32.5 -19t16.5 -33q0 -24 -4 -39q0 -3 -2 -3t-2 2t-1 2q-2 0 -4.5 -2.5t-2.5 -3.5v-9q3 0 5 4t3 4l1 -3q1 -2 1 -3q0 -3 -2 -5t-3 -6q1 -1 1 -4l-4 -10v-6q0 -5 -3 -13.5t-3 -10.5v-5q-6 -12 -6 -21v-8
q0 -5 -3 -13t-3 -10t1 -3l-5 -10q0 -1 0.5 -2.5t0.5 -3.5q0 -8 -3 -17t-3 -14l-4 -21q-2 0 -2 -6q1 0 1 -3q0 -4 -0.5 -9.5t-0.5 -6.5v-4q0 -3 3 -5q9 0 55 61q15 20 55.5 77.5t63.5 89.5q0 -4 -6 -18l-4 -6h9l-36 -53q8 8 19 22t14 17l5 2l-22 -31q6 4 8 7l9 12l1 -9
l-9 -19q-2 -4 -3 -4zM424 244q-6 -6 -6 -15l-1 -3q0 -1 -1 -4v-3q8 8 8 25zM423 177l3 15l-3 1q1 -7 1 -9q0 -1 -3 -1l-3 -5l1 -3q2 0 4 2zM325 332q2 4 4 7l-7 -7q-1 -1 -3 -4t-4 -4l-4 -7q1 0 2 1.5t2 1.5q0 3 3 4q6 5 7 8zM406 188q7 0 7 2q-1 4 -1 6q-6 0 -6 -8z
M270 227l3 2l3 8q-3 -1 -3 -3l-3 1q-1 -1 -1 -3q0 -1 0.5 -2.5t0.5 -2.5zM274 244q0 -5 6 -5q0 2 0.5 4.5t0.5 3.5q-4 -2 -7 -3zM138 286l-8 -5q2 -2 2 -4q6 6 6 9zM525 190q1 2 5 9l5 8q-10 -12 -10 -17zM452 359q3 0 4 -4q2 0 2 6q-4 0 -6 -2zM258 200h-7l4 -4q3 2 3 4z
M420 262q4 4 4 6q0 1 -2 3q-1 -2 -1 -5t-1 -4zM411 223v-10q2 4 2 7t-2 3zM462 361v6q-2 -2 -2 -4v-5q2 0 2 3zM140 292q3 0 3 2z" />
    <glyph glyph-name="quoteright_l" unicode="&#x27;l" horiz-adv-x="207" 
d="M107 565q0 -25 -36.5 -71t-50.5 -46q-4 1 -10.5 9.5t-6.5 11.5q0 4 -4 6q45 75 60 121q1 4 7 4q11 0 26 -12.5t15 -22.5zM267 319l-5 -7q0 -2 2 -2q3 0 9 9l-1 -6l-7 -11q-7 -11 -15 -22l-7 -12l3 4q3 4 7 9.5t8.5 11t7.5 9.5t3 3v-9q1 0 3 2l2 1q0 -2 -9 -17
q-23 -33 -31 -35q4 -2 5 -2q2 4 4 4q-107 -172 -163 -192q-3 -1 -6.5 -3t-10.5 -2q-5 0 -8 2t-9.5 5t-9.5 6q-7 7 -11.5 16.5t-6 17.5t-2.5 16.5t-1 9.5q0 4 3 10q0 -4 1 -6q2 3 2 11q-3 0 -4 -1l-2 6v12v6q0 2 1 11.5t2 17.5q5 33 5 36q-1 -1 -4 -17.5t-3 -17.5
q-4 -28 -4 -41v-19q2 -44 15 -62q-8 0 -13.5 21.5t-6.5 46.5v12q0 43 26 128q14 45 59 170t64 184q5 8 13 8q4 0 6 -5q14 -5 18 -13t4 -23q2 -3 2 -9q0 -7 -1 -10q-17 -78 -60 -201q-71 -195 -71 -271v-4q3 -12 4 -12t5 2q24 19 62 67t74.5 101t41.5 59q7 10 12 11l-6 -9h4
v-5zM46 284l2 15q-3 -4 -7 -21l4 2zM68 225q0 -1 0.5 -5.5t0.5 -8.5q2 2 2 3v4q0 4 2 10q-3 -3 -5 -3zM80 263q-2 -7 -5 -8h7l-2 3l2 6q2 2 2 6q-2 -1 -4 -7zM111 91q-2 -2 -2 -5l-8 -8q1 0 4.5 3.5t4.5 3.5q0 2 6 8l-2 -1q-2 0 -3 -1zM38 260q-4 -2 -4 -6q0 -3 2 -5
q0 1 1 5t1 6zM26 119l-2 -11q0 -2 1 -3l2 5q0 2 -0.5 5t-0.5 4zM41 272q-3 0 -3 -3t1 -3q2 2 2 6zM72 244l2 8q-3 -1 -3 -4zM139 145l-4 -4q2 2 4 2q0 1 1 2.5t1 2.5q-1 0 -2 -3z" />
    <glyph glyph-name="quoteright_t" unicode="&#x27;t" horiz-adv-x="212" 
d="M130 357q2 15 8 23l3 4v9q1 0 3 1l3 2q-61 -169 -63 -265q0 -9 5 -9q3 0 5 1q44 24 184 206l11 14q2 2 3.5 5t2.5 4l4 4q3 0 6.5 -8t3.5 -14v-5q-3 -5 -6 -6v-12q-2 -4 -5 -6.5t-6 -8.5l-5 -5q-1 -3 -11 -13q-6 -6 -8 -11q-6 -2 -9 -5q2 0 3 1l1 1v-5l-3 -3q-7 0 -7 -4
l4 -1q0 -4 -5 -4q-3 0 -3 -2q0 -1 1 -3q-1 0 -2.5 -2t-3 -4.5t-2.5 -3.5t-4 -6t-5 -5q-1 1 -1 -0.5v-2.5q-5 0 -5 -5l-8 -8q0 -1 -2.5 -4t-3.5 -5q0 -2 -3 -3l-2 -1q0 -3 -2 -3q-2 -7 -4 -7l-2 -1q-4 -2 -4 -4q-1 0 -4 -4q-1 0 -4 -4t-3 -5l-4 -5q-2 -2 -6.5 -8t-7.5 -9
q2 1 5.5 5.5t6.5 4.5l3 3q2 3 3 4q7 7 9 11q0 1 2.5 3t5.5 3l2 2q2 2 4 9q6 3 6 4l1 3l6 9q1 -2 1 -4q2 8 7 11l31 42l2 2q1 3 3 5.5t4 2.5q0 5 4 9q2 1 2.5 3t1.5 3q0 1 10 7l-51 -69q-59 -77 -76 -85q-4 -7 -17 -18l-3 -3q-4 -3 -12 -8.5t-10 -6.5q-3 -1 -7 -4t-9 -4
l-6 -2q-6 -3 -10 -3q-14 0 -19 5q-9 0 -12 3q-7 4 -8 5q-6 3 -11 8q-2 1 -3.5 4t-2.5 3l-4 9q-1 1 -1 4q-2 12 -2 15v6q0 1 -1 4t-1 5t1 3q-1 3 -1 4q1 5 2 6v5q0 4 1 6q-3 3 -3 4q0 2 1.5 5.5t1.5 5.5l1 13l-1 1v2t1 4q0 13 5 23q2 4 4 5l-2 4q0 5 2 11q3 4 3 14v5q1 3 3 8
t3 8q17 73 70 206q-7 -1 -21 -1t-29 10.5t-15 30.5q2 11 9 11l4 -2q5 -2 13 -2h7q2 0 5.5 0.5t6.5 0.5l42 5q31 79 37 95l7 15q3 3 6 3q14 0 19.5 -6.5t6.5 -21.5q0 -2 1.5 -4t3.5 -4l1 -2v-5q-4 -30 -10 -42l-6 -21q11 1 31.5 2t22.5 1q33 0 69 -6q22 -5 27 -16l2 -4
q0 -1 -0.5 -5.5t-0.5 -6.5l2 -2l4 -4q-1 0 -5.5 1t-5.5 1h-16q-3 0 -17 2h-16q-3 0 -11.5 -0.5t-12.5 -0.5q-5 -1 -26 -2.5t-33 -3.5t-18 -2q-1 -1 -3 -1h-4h-2l-2 -1q-19 -58 -38 -104l-1 4l27 72q-3 -5 -18 -42t-35.5 -99.5t-30.5 -112.5t-10 -64l-1 -21l4 34
q6 43 22.5 103.5t24.5 79.5zM29 565q0 -25 -36.5 -71t-50.5 -46q-4 1 -10.5 9.5t-6.5 11.5q0 4 -4 6q45 75 60 121q1 4 7 4q11 0 26 -12.5t15 -22.5z" />
    <glyph glyph-name="quoteright_s" unicode="&#x27;s" horiz-adv-x="232" 
d="M108 565q0 -25 -36.5 -71t-50.5 -46q-4 1 -10.5 9.5t-6.5 11.5q0 4 -4 6q45 75 60 121q1 4 7 4q11 0 26 -12.5t15 -22.5zM6 107q11 18 11 19q0 4 10.5 14.5t15.5 14.5q-1 -2 -6 -7.5t-8.5 -9.5t-3.5 -6q4 5 17 18q2 0 3 1l1 4q0 2 1 3l3 4q15 15 43 35l-4 8
q-41 84 -41 131q0 52 47 91t96 39l11 -6h10q15 0 28 -23t13 -37q0 -25 -23 -46l-2 1l-2 1l-2 -2q-1 -3 -4 -5.5t-7 -2.5t-6.5 1.5t-3.5 2.5l-1 2q-1 0 -2 -2v-2q-11 4 -11 8q0 1 7 25t7 35q-1 7 -5 7h-4q-30 0 -57 -23t-27 -55q0 -27 40 -111q13 8 53.5 30t67 39.5
t40.5 33.5q2 0 2 2q0 -12 -15.5 -23.5t-22.5 -13.5q4 0 9 3t12 8.5t13 9.5l-7 -6q-3 0 -3 -4l-4 -2q9 4 11 4t3 -1q-5 -2 -12 -9.5t-11 -11.5q6 0 15.5 6t11.5 9q0 -3 -2.5 -6t-6 -5.5t-8 -5t-8.5 -4.5t-7.5 -3.5t-5 -2.5t-1.5 -2q-11 0 -20 -16q8 0 13 7l5 6q3 0 26 10
q0 -5 -41 -30l-94 -54q6 -16 8 -35q1 -5 1 -14q0 -49 -37 -82.5t-80 -33.5h-6q-21 2 -35.5 12.5t-14.5 25.5q0 19 7 32zM35 78q4 -3 15 -3q25 1 41.5 22t16.5 47q0 12 -2 18q-19 -13 -45.5 -42t-26.5 -36q0 -4 1 -6zM160 200l-2 -1q11 -34 7 -60q-2 -15 -6 -24l-1 -5
q10 18 10 44q0 23 -8 46zM143 231l3 2q-8 14 -12 23q8 -23 9 -25zM134 225l-7 15q0 -2 2 -10zM141 140l-6 -4q0 -3 4 -3q2 2 2 7zM155 105l-5 -11q2 0 3 4q2 2 2 7zM86 319v8q0 -1 -1.5 -2.5t-1.5 -2.5zM132 88v9q-2 -4 -2 -5q1 -1 2 -4zM140 105l2 5q-5 -8 -5 -13q3 5 3 8z
" />
    <glyph glyph-name="quoteright_d" unicode="&#x27;d" horiz-adv-x="327" 
d="M401 316q0 -3 -1.5 -6.5t-2.5 -6.5l-1 -3l-2 -8q0 -1 -1.5 -4t-3.5 -5.5t-2 -3.5l-31 -50q0 -1 -2 -3l-3 -5v-1h-1q-3 -5 -6 -9.5t-5.5 -7t-2.5 -3.5l-2 -3q0 -5 -8 -13q-1 0 -2.5 -2t-3.5 -5l-1 -3q-3 -5 -17 -25t-16 -23l-5 -6q-9 0 -9 -7q-3 -3 -3 -4q0 -3 -1 -3
q-1 -3 -6 -7.5t-6 -4.5q0 3 1 5.5t1 3.5l3 3q5 5 4 6l-8 -6q0 -4 -2 -4l-2 -4q0 -8 2 -8q-9 -12 -30.5 -29t-31.5 -17q-19 0 -39 16l-3 3q-20 19 -20 67v12q1 33 8 68l-18 -22q-2 -6 -10 -14q-8 -11 -13.5 -16.5t-10.5 -9t-8 -6.5q-13 -11 -27 -11q-2 -1 -5 -1q-5 0 -8.5 2
t-7.5 5t-8 5q-26 18 -26 30q0 64 42.5 134.5t100.5 93.5q6 2 13 2t20 -4t18 -4q83 215 84 218q1 4 7 18.5t8 22.5q0 9 9 9q8 0 17.5 -6t11.5 -14q3 -1 3 -17v-8q-3 -24 -19.5 -77t-41 -122.5t-33.5 -100.5q0 -1 -1 -4t-1 -4q0 1 -5 1l3 5l-2 -1q-2 -2 -3 -2v3l1 2q0 3 -2 3
t-2 -5q-1 -1 -1 -3v-1q1 -1 1 -2l2 -1q2 0 4 -0.5t2 -1.5q-45 -148 -45 -199q0 -27 3 -27q13 1 53.5 53.5t88 121.5t55.5 80q1 1 4 1l-1 -8q0 -5 -3 -11l2 2q1 1 3 4t3 5l2 2q0 -8 -9 -21zM128 600q11 0 26 -12.5t15 -22.5q0 -25 -36.5 -71t-50.5 -46q-4 1 -10.5 9.5
t-6.5 11.5q0 4 -4 6q45 75 60 121q1 4 7 4zM50 175q16 6 59 72.5t62 104.5q-15 0 -59 -57t-64 -118l1 -5q0 3 1 3zM212 256l12 41l-7 -10q0 -14 -4 -18l-4 -16q-5 -23 -10 -24l3 -6q-9 -11 -9 -39q8 35 15 56zM198 234q3 6 6 17t5 15l-5 -1l2 -4q-3 -1 -5.5 -11.5
t-2.5 -15.5zM59 216q0 3 8 17q-2 0 -4.5 -3.5t-3.5 -7t-1 -4.5v-2t1 0zM119 311q3 3 3 5l4 4l1 1q1 2 2 2l8 7l-8 -4q-1 -2 -3 -2zM383 286l-2 -6l-3 -7l7 9l2 3v4l5 8zM357 263q0 4 1 6l-10 -14q-2 -2 -2 -3q2 0 6 4zM236 341q3 0 3 2l4 13q-4 -3 -6 -8q0 -1 -0.5 -3
t-0.5 -4zM137 345q-7 0 -10 -5l9 1zM163 140q-1 1 -3 -2l-2 -1h-5q1 -1 2 -3l1 -2l2 5l2 -3l3 5v1zM140 159v-3l1 -2l-1 -5q3 3 3 5t-2 3q1 0 3 5q-2 0 -4 -3zM247 364l3 10l-5 -1zM234 326q0 2 2 5t2 4l-4 1l-2 -7q2 -1 2 -3zM70 238q2 2 2 7l-6 -5zM233 376h-4l-1 -4l4 1z
M94 288q-4 -2 -4 -3l-2 -6zM146 110l3 6q-4 0 -4 -3q0 -2 1 -3zM173 125q0 3 -1 4l-1 -7q2 2 2 3zM239 370q0 3 1 3l3 5l-5 -5v-1z" />
    <glyph glyph-name="quoteright_r" unicode="&#x27;r" horiz-adv-x="198" 
d="M35 73q2 2 2 4q-1 -1 -2 -1h-6q-1 2 -3.5 3t-3.5 2q-6 0 -8 2q-2 0 -4 -1t-5 -1q-5 0 -5 3q-3 0 -3 11q0 3 1 4q0 5 2 11v18q1 4 4 5l1 14q10 49 32.5 127t30.5 113q4 20 4 21q0 2 2 5l3 3q4 6 13 7q1 0 2.5 -0.5l4.5 -1.5t7 -1q14 0 15 -9q7 -7 7 -20v-12q0 -7 -3 -31
q20 26 55 49t57 23q13 0 18 -11q0 -1 0.5 -2t0.5 -2q0 -2 -3 -2q-21 -8 -35 -16q-6 0 -6 -4l-8 -7q-7 0 -7 -6l-23 -25q-2 -2 -5.5 -5t-3.5 -4q-3 -3 -7 -8t-6 -7q0 -2 -3 -2q0 -1 -2 -4t-2 -5q-5 -3 -5 -9l-4 -4q0 -1 -1 -4l-3 -2q0 -1 -1 -2.5t-1 -2.5q1 -1 -2 -2l-3 -1
q0 -1 -0.5 -3t-0.5 -3q-5 -3 -5 -11q-11 -14 -14 -19l-2 2q0 -3 1 -3q0 -3 -3 -3q0 -1 -1 -3v-2v-4q0 -2 -1 -3q-1 0 -1 -3q-2 0 -5 -5q0 4 1 4v3l1 1q-1 0 -1 1l-2 1l1 3q0 1 1 3v2q2 2 2 5q-1 0 -3 -2.5t-3 -5.5l-2 -4q-2 -6 -2 -8q-2 0 -2 -5q0 -1 -1.5 -4.5t-2.5 -6
t-1 -3.5l1 2l2.5 5t3.5 4q2 8 3 8q0 5 2 5q-1 -9 -2 -13l4 3q-1 -4 -5 -6v-5q0 -3 -3 -3q-1 -7 -3 -7l-1 4q-7 -3 -7 -11l-1 -6q3 6 3 11q3 0 3 -2q0 -3 -3 -6v-1q-1 -1 -1 -2q0 -2 2 -2l-2 -2l-7 -12q0 -6 -2 -8v-7q-2 -2 -4 -9q-1 -15 -4 -15l-2 -10q0 -1 -1 -4.5t-1 -7.5
l-1 -3q2 7 3 8q4 0 4 13q3 10 3 12l4 12q0 2 1 4.5t1 3.5q0 2 1.5 4t1.5 3l4 8q0 2 2 8q0 2 4 6l-1 -7q0 -2 -1 -6l-2 -3q-3 -3 -3 -8q1 -1 1 -3v-2l-1 -2l-3 2q0 -2 -3 -5q2 -2 2 -5l1 2q1 1 3 4t3 4q0 -5 -3 -8l-1 -5q-3 -2 -3 -4q0 -3 -1 -4l-6 -13v-9q2 1 2 3q-1 1 -1 3
q0 1 1 3v2q2 0 3 1l1 -3v-3l-1 -3q0 -3 3 -3q0 6 3 6q0 -2 -1.5 -4.5t-1.5 -3.5l-1 -8q-1 -1 -4 -7t-3 -8l-2 4l-3 -4v7q-1 0 -1 -1l-2 -1q0 4 1 5q0 2 2 2q1 4 2 6l3 2q-1 2 -10 -10q0 -5 -3 -7q0 -6 -3 -9l-2 -2q-1 -3 -2 -4v-3zM94 600q11 0 26 -12.5t15 -22.5
q0 -25 -36.5 -71t-50.5 -46q-4 1 -10.5 9.5t-6.5 11.5q0 4 -4 6q45 75 60 121q1 4 7 4zM32 99l2 4q7 9 7 10l2 5q1 0 1 4q-1 0 -2 -2t-2 -4.5t-2 -3.5q0 -2 -1 -3l-2.5 -2.5t-2.5 -3.5v-4zM38 94q-2 -4 -2 -6q1 -1 4 2q4 4 5 4l2 4q-1 0 -9 -4zM171 366q10 10 12 13
q-9 -2 -12 -13zM37 130q0 2 -3 2q-2 -12 -2 -17zM65 185l-3 -1v-1q-1 -1 -1 -2q0 -2 -0.5 -5.5t-0.5 -6.5zM132 323q-1 0 -2 -4l-1 -3l-4 -4l6 3q0 1 0.5 4t0.5 4zM35 201l3 -1l1 4q-4 0 -4 -3zM143 357q7 6 9 7q-5 0 -5 -3zM145 319q-3 0 -3 2q0 -1 -1 -2l-1 -3z" />
    <glyph glyph-name="quoteright_v" unicode="&#x27;v" horiz-adv-x="233" 
d="M28 171h-4v-1l-1 -2q0 -4 3 -6l8 -6q0 2 -3 7t-3 8zM162 225q2 2 6 9t5 8l-5 -5q-1 0 -3 -4t-4 -5q0 -1 1 -3zM204 285h4q-35 -93 -83 -171q-1 -1 -3.5 -4.5t-4.5 -5.5q0 -2 -3 -5q-2 -1 -5.5 -5.5t-6.5 -6.5q-10 -7 -26 -7q-5 0 -15 8t-13 9q-30 0 -30 57q1 27 6 57.5
t10.5 51t16.5 57t16 55.5q0 3 6 28l5 28q0 1 0.5 5t1 7t3 5.5t5.5 2.5q30 0 30 -10l4 -1q3 -1 7 -3t5 -5q3 -3 3 -21q0 -24 -3 -39q-7 -45 -33 -134.5t-27 -109.5q0 -2 2 -2t2 -1q10 6 55.5 106t51.5 125q-3 7 -3 19q0 36 27 36q3 0 12 -5.5t10 -5.5q7 -2 7 -21
q0 -14 -5 -29q31 -27 77 -35q1 0 2.5 -0.5t2.5 -1.5l-3 -5q-2 -5 -4.5 -11t-3.5 -9q-2 -6 -12 -6q-34 0 -73 31l-1 -5q-2 -4 -4 -7t-3 -3q-2 -1 -2 -4l-1 -1q2 0 4 2l-3 -8l-4 2q9 18 9 26q0 2 -1 3l-14 -37q-3 -1 -3 -2q0 -8 -8 -24l-2 -4v7q-3 0 -3 -4q-2 0 -2 -4
q0 -1 2 -3q0 -5 -2 -5q0 -2 2 -4l-8 -21q7 14 10 21l11 27l3 2v5zM115 565q0 -25 -36.5 -71t-50.5 -46q-4 1 -10.5 9.5t-6.5 11.5q0 4 -4 6q45 75 60 121q1 4 7 4q11 0 26 -12.5t15 -22.5z" />
    <glyph glyph-name=".notdef" horiz-adv-x="373" 
d="M30 110v511h313v-511h-313zM46 607v-482h283v482h-283z" />
    <glyph glyph-name="uni0000" horiz-adv-x="0" 
 />
    <glyph glyph-name="uni0000" horiz-adv-x="0" 
 />
    <glyph glyph-name="uni000D" unicode="&#xd;" horiz-adv-x="0" 
 />
    <glyph glyph-name="space" unicode=" " horiz-adv-x="133" 
 />
    <glyph glyph-name="exclam" unicode="!" horiz-adv-x="158" 
d="M182 628h9q11 -1 19 -9q2 -2 6 -3.5t6 -2.5q4 0 4 -3q-2 -19 -3 -21l-21 -60q-41 -112 -63 -192l-11 -25l-7 -25l-4 -4q-1 -1 -1 -5t-1 -5q0 1 -1 0l-2 -2l-7 -14q0 1 1 3t1 4v6q-2 -10 -4 -13q-4 -5 -7 -14q-1 3 -1 7q0 -1 -1 -3l-1 -2q-3 -9 -4 -11q-3 3 -3 6
q-4 -6 -7 -9q-2 0 -2 3l-1 -1v-2q-1 -3 -6 -8q0 4 -1 4t-3 -6.5t-2 -7.5q-3 0 -3 11l-6 -9v4l1 13q2 4 3 13t2 13v4q11 84 51 196l53 147q4 19 17 23zM47 100q-5 2 -15.5 4t-13.5 4t-6.5 8t-3.5 17v6q5 25 17 25q2 0 3 1q4 4 9 4q2 0 6 -2h6q3 -1 8 -3h6q24 -7 24 -28
q-2 -16 -6 -21q-17 -15 -34 -15z" />
    <glyph glyph-name="quotedbl" unicode="&#x22;" horiz-adv-x="249" 
d="M224 637q38 -15 39 -35q1 -9 -24 -50t-43 -54l-10 -2l-8 -3q-2 -4 -7.5 -4.5t-6.5 -0.5l-14 -5q-1 3 -1 11q2 5 7 13t16 29.5t28 56.5q11 28 15 34l1 4q0 6 8 6zM169 605q0 -25 -36.5 -71t-50.5 -46q-4 1 -10.5 9.5t-6.5 11.5q0 4 -4 6q45 75 60 121q1 4 7 4
q11 0 26 -12.5t15 -22.5z" />
    <glyph glyph-name="numbersign" unicode="#" horiz-adv-x="408" 
d="M42 203v11q0 32 13 77l7 24v1l1 2q0 1 -3 1q-7 1 -21 2t-21 2q-13 2 -21 7q-10 4 -16 9q-6 3 -6 7q0 8 7 8q6 2 9 2t7 -0.5t6 -0.5l48 8q6 1 23 5q3 0 5 3q17 54 21 64q0 5 -3 5q-7 -1 -25 -5t-27 -5q-13 -2 -40 -2q-6 0 -12 2h-6q-16 10 -23 12q-2 1 -10 6q-3 2 -3 5
q0 4 5 7l8 2q5 1 13.5 2t9.5 1q10 1 30 5l30 6q12 2 33.5 6t32.5 5l5 5l27 82q6 15 9 30q5 13 13 16q2 0 8 2.5t9 2.5q2 0 6 -2q15 -4 15 -19l-9 -48q-3 -17 -11 -51q0 -3 3 -3l39 4q16 2 18 3q5 0 5 4l27 68l15 32q5 14 18 14q13 -2 20 -4q1 0 7 -2q3 -3 3 -4q0 -2 -1 -3
l-3 -22q-1 -4 -5 -28.5t-7 -36.5q0 -3 -2 -13q0 -3 3 -3q28 -1 59 -16q3 -1 18 -11q2 -1 3 -5h-4h-18q-6 0 -8 -2l6 -2q4 -2 6 -4h-6q-2 1 -5 1q-4 0 -6 -2h-6h-18q-20 -2 -27 -2q-9 0 -13 -11q-9 -35 -18 -60q-1 -5 -1 -8q0 -4 8 -5q29 -3 57 -20q7 -2 15 -10l-18 -2h-21
q-3 0 -3 -1q3 -2 4 -2q-2 -2 -6 -2t-5 -1q-4 -2 -11 -2h-7q-16 -2 -24 -4q-1 0 -2 -2l-1 -2q-4 -4 -5 -6l-9 -30q-12 -30 -20 -55l-9 -18q0 -1 -3 -3q-3 -3 -3 -4q-4 -8 -10 -8l-8 -3q-16 -4 -19 -4q-2 0 -3 3h-1l-2 -1l-2 3l-3 -7q-2 3 -3 4q-2 0 -3 -1q-1 -3 -3 -3t-3 3
q-4 5 -4 12q0 8 3 15l12 36q14 45 19 58q1 2 1 5t-4 3h-6q-20 -2 -28 -4q-5 -1 -14 -4t-11 -3q-5 -2 -5 -7q-8 -20 -11 -31l-25 -72q-1 -7 -5 -16q0 -11 -9 -11l-12 -3q-5 0 -9 -1q-2 -1 -4 -1q-5 0 -7 5q-4 5 -4 16zM151 379l55 3q2 0 6 6q3 14 11 38.5t10 31.5l-4 2
q-3 0 -7.5 -0.5t-7.5 -1.5h-4q-6 -1 -18 -4t-19 -4q-4 -2 -4 -6q-7 -20 -19 -62z" />
    <glyph glyph-name="dollar" unicode="$" horiz-adv-x="284" 
d="M108 64v10q-1 -9 -1 -26q0 -18 -1 -27q0 1 -3 3l3 -9q-8 16 -8 33l1 8l1 10q-1 -5 -2 -12q0 -2 -0.5 -6t-0.5 -7q0 -14 3 -20q0 -2 1 -3q-1 1 -5 4l-3 3q-3 12 -3 21l-5 2q0 -1 -0.5 -4t-0.5 -6l-2 -4q-2 2 -2 6q-2 -6 -2 -12q0 -3 2 -4v-2q-1 -2 -1 -3v-7q0 -2 -1 -3
q-2 2 -4 6l-3 6q-5 13 -5 34q0 14 3.5 47.5t4.5 55.5q0 4 -2 4l-40 26q-2 2 -4.5 5.5t-5.5 4.5q-9 3 -9 32q7 47 14 47q1 0 3 -8.5t3 -8.5q4 -10 22.5 -29.5t26.5 -19.5q3 14 7 40q3 18 10 65q0 2 2 5l-39 43q-28 29 -39 62q-6 22 -6 33q0 14 5 27q1 2 24 43q49 74 135 103
q4 12 14 43t15 51q4 17 22 20h5q3 0 6 1t5 1q1 0 2.5 -0.5t2.5 -0.5q9 -6 9 -15q0 -1 -0.5 -3t-0.5 -3q-1 -20 -10 -54t-10 -41q2 -1 4 -1q70 -23 70 -93q0 -22 -8 -48q-2 -6 -4 -28q-4 -20 -22 -27q-4 -1 -12 -1q-14 0 -27 14q-6 6 -6 16q0 7 1 11l1 1v2q9 41 9 51v7
q0 11 -9 36q-1 2 -11 7l-3 -9q-39 -135 -55 -227v-11q1 -2 2.5 -3.5t2 -2.5t2 -2.5l3.5 -3.5q51 -62 51 -104q0 -10 -5 -25q-16 -29 -49 -38q-27 -6 -33 -6q-10 0 -11 -9q-6 -34 -7.5 -51.5t-4.5 -39.5l-2 -5q-2 4 -2 12q0 1 -1 3.5t-1 4.5l-1 2q0 -1 -1 -3q0 -7 -1 -8
q-1 1 -1 6l-1 2q-1 3 -1 4zM78 445q0 -28 34 -62q10 45 27 107t18 69q-79 -66 -79 -114zM169 244q-1 2 -3 6.5l-4 9t-4 7.5t-3 2q-1 -9 -5 -22q-5 -38 -5 -45q0 -4 1 -4q24 12 24 34q0 9 -1 12zM80 108q-2 -5 -2 -11v-3q3 0 3 5q0 1 -0.5 3.5t-0.5 5.5z" />
    <glyph glyph-name="percent" unicode="%" horiz-adv-x="358" 
d="M157 520q-8 -4 -11 -13q-40 -56 -49 -114q0 -4 -0.5 -13t-0.5 -14q2 -1 3 -1q2 1 4 3t4.5 5t3.5 4q13 20 20.5 43.5t14.5 54.5t11 45zM243 49q-32 5 -41 14q-10 16 -10 36q0 18 9 45l1 1v2q12 26 33 58q20 26 60 72q5 5 27 12q1 0 3.5 0.5t3.5 0.5q4 0 14 -8q7 -3 7 -8
q0 -6 -4 -10q-6 -10 -10 -15q-2 -2 -2 -6q17 -17 17 -49q0 -31 -11 -53q-13 -34 -39.5 -62.5t-57.5 -29.5zM273 115q28 37 28 84v9q-8 -14 -23.5 -39t-21.5 -37q-13 -28 -13 -46l5 1l8.5 8.5t9.5 10.5t7 9zM185 435q-4 -31 -38 -73l-11 -14q-8 -11 -29 -19l-6 -1
q-6 -1 -8 -1q-4 0 -7 1q-11 0 -17 6q-9 1 -19 11q-12 13 -12 38q0 45 36 106q2 3 7.5 12.5t9.5 14.5q20 34 53 63t64 29q7 0 19 -2q6 -2 6 -8q0 -2 -6 -22q-6 -6 -10 -6q-3 0 -6 13q-1 0 -3 -1h-1l-15 -15q0 -1 5 -6q1 0 1.5 -1t1.5 -1q14 0 22 1q75 7 112 7q25 0 36 -1
q9 -2 16 -9t7 -16q2 -6 2 -7q0 -14 -28 -52q-110 -142 -208 -300q-19 -30 -41 -79l-4 -12q0 -2 -1.5 -4.5t-1.5 -4.5q-5 -7 -6 -14q-1 -3 -3 -3q-1 0 -9 1t-10 1q-1 0 -3 -0.5t-4 -0.5q-12 0 -15 11l-2 10q0 1 1 3t1 3q1 3 2 10.5t2 11.5l14 34q10 35 64 112q8 13 15 22
q100 150 186 252l2 3h-4q-7 0 -29 -2h-12q-55 -7 -86 -17q-10 -8 -11 -10l-3 -6q0 -10 -2.5 -21.5t-7 -25.5t-6.5 -21z" />
    <glyph glyph-name="ampersand" unicode="&#x26;" horiz-adv-x="273" 
d="M65 109q1 -19 29 -19q20 0 47 8q2 0 7 2.5t9 3.5h9q-5 -2 -5 -9q-10 -10 -8 -10l3 1q4 3 4 2q-5 -10 -30 -21.5t-37 -11.5h-7q-19 0 -36 17q-2 4 -7 7q-19 15 -19 48q0 7 2 21q4 18 12.5 35.5t24.5 36t25.5 28t32.5 31t28 26.5q-23 2 -35.5 4.5t-30.5 14.5t-34 34
q-4 7 -4 17q0 24 18 52q33 49 95 81.5t126 37.5h6q36 0 47 -30q3 -2 6 -10q2 -2 2 -6q0 -8 -9 -8h-8q-9 3 -20 3q-32 0 -81.5 -23t-88.5 -50q-30 -23 -48 -53l-4 -10q0 -3 2 -3q32 -3 48 -3q15 0 47 4.5t44 4.5q18 0 25 -7q10 -6 11 -17q3 -9 4 -22q0 -7 -10 -10
q-2 -2 -26 -15.5t-46.5 -29t-34.5 -27.5q-1 -1 -6 -8q-21 -21 -51 -54q-24 -31 -28 -63zM218 572q-6 -21 -16 -21q-2 0 -6.5 0.5t-7.5 0.5l-1 3l-1 15q3 26 17 76t27 51q1 1 4 1q15 0 35 -26l2 -4q-1 -6 -26 -72q-1 0 -2 -0.5t-2 -0.5q-3 0 -5.5 -10t-6.5 -10v6
q-4 -8 -7 -11q-1 1 -2 3l-1 2q0 -1 -1 -3zM114 -98q-1 0 -7 -1t-11 -1q-8 0 -12 1q-2 0 -12 11q-3 7 -3 21v17q2 24 4 36q1 7 5 26l5 22q1 2 8 2q1 -1 3 -1.5t3 -0.5l32 -11q6 -4 8 -7v-6q-7 -22 -8 -29q-5 -15 -5 -24q-1 -5 -5 -16q0 -8 -1 -12v-14q0 -1 0.5 -3.5t0.5 -3.5
q0 -3 -4 -3q0 -3 -1 -3z" />
    <glyph glyph-name="quotesingle" unicode="'" horiz-adv-x="170" 
d="M169 605q0 -25 -36.5 -71t-50.5 -46q-4 1 -10.5 9.5t-6.5 11.5q0 4 -4 6q45 75 60 121q1 4 7 4q11 0 26 -12.5t15 -22.5z" />
    <glyph glyph-name="parenleft" unicode="(" horiz-adv-x="224" 
d="M76 -1q1 -2 4 -4l-1 3q-1 4 -9 8q0 -4 6 -7zM33 69l-4 10q0 1 1 3v2l-9 52q0 -6 1.5 -17.5t1.5 -13.5q-1 1 -2 5.5t-1 5.5l-4 30q0 -32 3 -39q0 -15 3 -15q1 -5 4.5 -16t3.5 -13l2 -7v13zM14 162v-1q1 -1 1 -2q0 1 1 3v21q-2 0 -2 -21zM26 119l3 -16q1 -8 3 -9
q0 1 -0.5 3.5t-1 6.5t-1.5 7.5t-1.5 5.5t-1.5 2zM37 63q0 -10 3 -13q0 8 -3 13zM63 4l3 -2q0 3 -3 7.5t-5.5 7.5t-2.5 2q0 -3 8 -15zM92 -22l-5 9q-1 -1 -1 -2l-1 -1q5 -5 7 -6zM41 411l-17 -49q0 4 9 37q64 223 171 345q12 12 32 12h10q8 0 13 -7q2 -2 2 -5q0 -2 -1.5 -7
t-1.5 -9t-10 -18q-73 -106 -121.5 -251.5t-48.5 -270.5q0 -135 75 -202q1 -1 3 -2.5t2 -2.5q-4 -2 -5 -3q-6 -2 -9 -2q-2 -1 -6 -1q-6 0 -8 -1l-17 -1q-1 -1 3 -2l1 -1h-8q-18 0 -35 17q-11 9 -18 19q-1 1 -2 5t-3 4q1 -2 1 -3q0 1 -2 3l-8 13q-2 3 -4.5 8.5t-3.5 7.5l-4 6
l-5 13q0 19 -6 20q-2 8 -4 11l-7 64v23q0 5 0.5 12t1.5 15.5t1 13.5q0 2 0.5 7t0.5 7q-1 -5 -6 -7q0 13 5.5 49t7.5 40v7q0 7 7 29l10 35q0 4 2 11.5t3 10.5z" />
    <glyph glyph-name="parenright" unicode=")" horiz-adv-x="171" 
d="M106 746q73 0 102 -197q1 -3 1 -9q7 -44 7 -112q0 -151 -46.5 -275.5t-99.5 -184.5l-3 -2q0 2 1 4q0 2 2 4h-4l-1 -2l-3 -3l-1 -2l-2 4l-1 -1q-1 -2 -2 -2v2q1 1 1 2q0 2 -2 2q-1 0 -3 -2.5t-4 -2.5q-4 -2 -7 -7h-5q0 2 1 6l1 3q-1 0 -4 -1h-2h-2l-2 -1q0 -3 -1 -4
q-2 0 -6 -2l-4 -2q-1 0 -3 1l-1 1q-2 0 -5 -0.5t-4 -0.5q-5 0 -5 9q0 3 4 7.5t9.5 9.5t6.5 6q58 74 94.5 206t36.5 241q0 146 -55 264q-3 3 -4 7q-2 1 -4 1q0 1 -1 2t-1 2q0 3 -5.5 6.5t-5.5 5.5q0 8 8 11q9 6 24 6z" />
    <glyph glyph-name="asterisk" unicode="*" horiz-adv-x="280" 
d="M196 519l-10 -2v-6q-12 -6 -14 -6q-17 0 -24 23l-4 8q-4 4 -6 12q-3 4 -9 20l-29 -33q-3 -4 -11 -4q-22 0 -33 17q3 9 8 12l27 31l3 6q-51 12 -51 36q0 5 2 11q2 9 13 9q11 -3 34 -8l9 -3q-9 22 -17 57q0 14 9 23q4 2 7 2q4 0 12.5 -5t10.5 -10q2 -7 9.5 -25.5t9.5 -23.5
l3 -7l50 52q27 -5 27 -16q4 -3 4 -7v-1q-1 -1 -1 -2t-0.5 -3l-0.5 -2q-13 -12 -28 -29l-12 -13l-2 -4q9 -3 22 -3l20 -5q6 -10 6 -14v-25h-6q-4 -2 -8 -2q-19 0 -39 5q-1 0 -4 0.5t-4 0.5q3 -10 15 -34q4 -10 7.5 -19.5t4.5 -12.5z" />
    <glyph glyph-name="plus" unicode="+" horiz-adv-x="417" 
d="M375 282q-4 0 -10 0.5t-9 0.5h-24q-78 0 -94 -9q-2 0 -2 -4q-4 -12 -20 -84q-1 -6 -2.5 -17t-3 -20t-3.5 -17q-3 -10 -4 -13v-5q-3 5 -4 6q-2 -2 -3 -6q-1 1 -3 1q-1 5 -7 5q-5 0 -9 -4q-4 5 -9 5q-3 0 -7 -2q-1 0 -3 -1h-1q-12 0 -12 12q-1 4 -1 11q0 1 0.5 3t0.5 4
t-1 3q0 1 -0.5 3.5t-0.5 3.5q2 8 2 17q2 5 2 22l2 12l12 51q0 4 -4 4l-60 -11q-9 -1 -26 -1q-8 0 -12 6l-3 2q0 2 2 3q-8 4 -9 6q0 3 -5.5 7t-5.5 8q0 2 -4 6t-5 6q-6 4 -6 6q0 1 2 3q1 3 10 3q10 -2 13 -2q6 0 17 3l81 18l28 4l3 3l7 30q1 2 3 8.5t8 25.5t16 47q2 6 8 9
q3 1 10 5.5t9 5.5t7 1q9 0 15.5 -6.5t6.5 -16.5q-1 -10 -8 -40t-11 -58q0 -4 2 -4l15 1q28 2 36 2q9 0 27 -2q57 -3 59 -31q0 -1 0.5 -3.5t0.5 -3.5q1 -2 1 -5q0 -5 -5 -7l-2 -4q0 -6 -7 -6z" />
    <glyph glyph-name="comma" unicode="," horiz-adv-x="169" 
d="M85 146q1 -3 1 -9q0 -10 -12 -29q-22 -30 -45 -38l-2 -3l-19 -11q-1 -1 -3 -1q-1 1 -1 2q0 11 6 17q21 38 21 59q0 4 -1 5q0 7 6 16q0 1 3.5 3.5t8.5 5.5t9 3h4q23 -5 24 -20z" />
    <glyph glyph-name="hyphen" unicode="-" horiz-adv-x="336" 
d="M134 249q-22 0 -29.5 10t-7.5 35q2 17 7 17l2 -1q1 -1 2 -1q3 -4 10 -4h5q2 0 4.5 1t5.5 1q62 20 120 23q36 0 55 -6q17 -7 21 -22q1 -6 1 -10v-7l2 -5q2 -5 3 -5q-8 4 -10 4l-1 1q-1 1 -2 1q-2 0 -5 -1t-4 -1q-2 0 -14 4h-12q-3 0 -9.5 -1t-9.5 -1q-6 -2 -21.5 -4.5
t-24.5 -5.5q-1 -1 -3 -1q-5 0 -18 -5q-6 -3 -40 -10q-1 -1 -27 -6z" />
    <glyph glyph-name="period" unicode="." horiz-adv-x="167" 
d="M55 169l7 2q3 -1 9 -2t9 -2l7 -11q1 -4 1 -12q0 -18 -8 -29q-3 -6 -8 -7l-18 -9q-2 -1 -7 -1q-12 0 -22 9t-10 22q3 40 40 40z" />
    <glyph glyph-name="slash" unicode="/" horiz-adv-x="355" 
d="M284 716q45 0 45 -65q0 -30 -11 -67q-16 -46 -32 -85q-23 -55 -86.5 -192.5t-93.5 -216.5q-11 -29 -14 -54q-2 -10 -2 -13q0 -11 5 -23q2 -4 2 -5q0 -2 -2 -2q-2 2 -3 2t-4 -3q-1 -1 -5 -1q-18 6 -26 6q-6 0 -13.5 6.5t-7.5 12.5q-4 25 -5 34q0 52 55 170
q152 330 172 391q6 17 13 47.5t9 38.5q1 1 -2.5 6t-3.5 6q0 7 10 7zM52 73l-3 -9q4 0 4 3q0 1 -0.5 3t-0.5 3z" />
    <glyph glyph-name="zero" unicode="0" horiz-adv-x="331" 
d="M315 326q9 34 15 45l1 9l-4 -33q-5 -12 -12 -37l-4 -14q-25 -83 -80.5 -155t-123.5 -72q-31 0 -55 18q-44 27 -44 132q-1 3 -1 13q6 39 6 43q2 23 13 58l2 6l3 17q50 130 108 190q2 2 14 15.5t17.5 18t18 12.5t26.5 13q2 0 6 -2q6 0 27 -3q22 -2 31 -8l10 -5q0 -1 3 -3
l2 -2q38 -39 43 -92l3 -14l-1 -26l-5 -50q-1 -2 -5.5 -6.5t-4.5 -5.5l-5 -17q-3 -5 -3 -11l2 -5v8q0 4 3 4v-7q0 -12 -8 -33q0 -2 -2 -9t-3 -7q5 10 7 15zM230 555h-5q-27 -7 -28 -16q0 -2 3.5 -4t3.5 -3q-31 -39 -57 -99q-3 -9 -8.5 -26t-10 -31t-8.5 -27q-1 -5 -1 -7
l-4 -7q-3 -4 -7 -4l-9 1q-2 0 -4.5 -7t-2.5 -9q-15 -72 -17 -90l-1 -26q0 -84 37 -87q25 0 56 38t48 71q20 41 37 88l2 6v7q4 10 20 82q0 9 3 23l3 45q0 76 -50 82z" />
    <glyph glyph-name="one" unicode="1" horiz-adv-x="199" 
d="M76 187v3q1 2 1 4q0 3 1 6.5t2 6.5l1 3q-2 0 -2 -4q-3 -9 -3 -19zM76 205v4q0 1 0.5 2.5t0.5 3.5q0 -2 -1 -3q0 -2 -1.5 -4t-1.5 -4q3 0 3 1zM93 271v-4l4 6q-1 1 -1 3l-2 -3l-4 -2q0 -3 1 -3zM143 384q-7 -8 -8 -14l-1 -4q0 1 1 1.5t1 1.5l8 16v5q-4 -2 -4 -4q2 -2 3 -2
zM78 186q0 4 4 6l1 13q0 2 1 6.5t1 8.5l-4 -18q0 -1 -3 -16zM76 119l-2 -8q3 8 4 8l1 5q1 5 1 6v12q-2 -11 -2 -12t-1 -5t-1 -6zM81 239q4 2 4 5v4q-2 -2 -2 -4q-2 -2 -2 -5zM73 80l3 2v6q-3 -3 -3 -8zM113 320l3 3q0 4 1 7q-4 -4 -4 -10zM101 300q-2 2 -2 4q0 -1 -1 -3.5
t-1 -5.5q0 5 4 5zM126 329q5 5 5 7q-3 0 -3 -4zM200 550q-12 -46 -41.5 -145t-49.5 -181t-30 -159q-3 -18 -3 -45q1 -5 1 -12l-1 -5q-1 0 -2.5 -3t-3.5 -4q-3 3 -10 3h-4q-4 -4 -7 -4t-6 3q-1 3 -9 7l-10 5q-3 2 -7 11t-4 14q-2 9 -2 32q0 82 38 216v5q0 1 1 2l1 2
q25 85 52.5 168t30.5 93l14 50q0 7 -1 11q-2 0 -2 -2q0 -5 -2 -7l-5 -4l-2 6q-1 2 -1 7v4l3 5q0 1 1 3t2 4.5t2 3.5q11 12 25 12q11 0 21 -8l4 -3q15 -8 15 -34l-1 -11q0 -5 -7 -40z" />
    <glyph glyph-name="two" unicode="2" horiz-adv-x="372" 
d="M220 58q0 4 -2 4q-1 0 -2.5 -4t-3.5 -4q-4 0 -5 2q0 1 2 3q0 1 -7 1q-2 0 -2 -3q-3 -3 -3 -5q-3 0 -7 -1t-6 -1l-2 1q-1 1 -3 1q-2 -3 -7 -3h-4q-1 0 -7 -3q-18 -6 -24 -6h-3l-1 -1q-3 -3 -11.5 -3t-10.5 -2q-8 -2 -11 -5q-5 -6 -14 -6q-6 0 -12 -2t-13 -4.5t-11 -3.5
q-1 0 -3.5 -2t-4.5 -3q-6 -2 -11 -2q-4 0 -10 2q-26 22 -31 23q-3 1 -5.5 4.5t-5 9.5t-2.5 7q0 2 -2 8.5t-2 10.5q1 9 5 32q0 1 -0.5 2t-0.5 2q5 16 11 27q30 73 119 189q6 8 18.5 22t42.5 49t73 86q71 84 72 120q0 7 -1 10q-2 9 -13 9h-6q-30 0 -53 -12t-59 -40
q-2 -1 -13 -18q-4 -6 -11 -6h-4q-17 0 -36 16q-10 7 -13 8q-3 3 -8 12q0 1 0.5 2t0.5 2q14 23 35 38q61 54 133 54h7q5 -1 16 -1.5t19 -2.5t13 -7q40 -22 40 -30q9 -16 11 -26q3 -6 5 -14q0 -16 -2 -24v-2l-1 -2l-1 -4q0 -1 -1 -3t-1 -3l4 6v-4l-11 -20q-1 0 -2 -1t-2 -1
t1 -3l-1 -3q-2 -2 -2 -3t1 -3q-1 -3 -4 -3q-2 -2 -7 -5l1 -4q-3 -6 -3 -10t-6 -8q-13 -13 -13 -18q-3 -8 -8 -8h-2q-1 -1 -1 -2q0 -2 1 -3q0 -2 -4 -6q-9 -6 -12 -12q-8 -5 -8 -8q-1 -5 -8 -12q-3 -2 -16 -17l-10 -10l-16 -25q0 -1 -9 -5q0 -2 1 -3l-11 -11l-9 -9v3l1 2
q-3 -2 -5 -4l-1 -1l-8 -5q2 2 4 5t4 4l5 7q-6 -5 -6 -6q-1 -2 -4.5 -5.5t-5.5 -6.5q0 -4 2 -4t2 -2q0 -3 -1 -5l-9 -5q1 -1 3 -2q-3 -3 -3 -1h-5q-2 0 -5 -5q3 -3 3 -4q0 -3 -4 -5q-2 0 -4 1q-3 -1 -3 -2q-1 -1 -4.5 -5t-5.5 -7l-2 -3l3 1q3 1 4 2l-5 -7q-1 -2 -4 -2
q0 4 -1 4t-5 -2q1 1 8.5 9t8.5 10q-3 0 -4 -1l-8 -8q4 6 4 9q-1 -1 -3.5 -3t-3.5 -3t-3 -4.5t-4 -4.5q-2 -4 -9 -8l-3 -9q8 5 11 6q1 -1 3 -1q-2 -2 -2 -4q4 0 4 -1q0 -2 -4 -2l-3 -3q-7 -5 -7 -9q0 2 4 2q0 -3 -2.5 -7t-4.5 -4q-7 0 -7 5l-3 -1q-1 -1 -1 -5l-7 -8l-3 -6
q-2 -3 -5 -5h4q2 7 11 16h5q1 -1 4 -1l-3 -2q-1 0 -2.5 -1t-2.5 -2l-2 -1q-2 0 -3 -2q-2 -2 -3 -2q0 -3 3 -3q-1 -1 -3.5 -2.5t-3.5 -2.5q-6 -6 -6 -7q-1 -1 -4 -2h-4l-3 -5q-3 -4 -4 -8q1 0 3 -4l4 -2l-1 -3l-7 -2l-2 -1l-2 -1q-4 -4 -5 -4q-5 0 -5 -3q1 -1 3 -1.5t3 -0.5
l4 -1q0 -2 -1 -3l-4 -6l-1 -1q-1 -2 -2 -2q0 -1 -0.5 -2.5t-1.5 -0.5l-2 5q-2 -2 -4 -6l-4 -5q0 -2 -4 -2l-1 -1q-1 -2 -2 -2q-3 -6 -3 -8q3 3 6 3q0 2 -2 2l9 7q2 0 2 -4q-1 -2 -4.5 -6.5t-5.5 -6.5q-8 -11 -10 -11t-2 -2q0 -1 0.5 -3l0.5 -2q0 -1 -0.5 -3l-1 -4t-1.5 -3
l-2 -2q-2 -3 -2 -5q0 -1 1 -3q-4 -1 -4 -9q0 -4 -1 -5l-7 -9q2 -2 2 -5h4q9 2 29.5 7t32.5 7q76 13 157 13h60q12 -2 18 -5q3 -2 4 -7v-5l-7 -9q0 -2 -2 -2q0 -4 -3.5 -9.5t-6.5 -5.5h-13q0 2 2 4l4 4q-4 -2 -5 -2q-2 0 -5 0.5t-4 0.5l-4 -3l4 1q4 0 4 -7q-1 1 -3.5 1
t-3.5 2l-6 -3l-3 1q3 0 3 3q-1 0 -3.5 -0.5t-4.5 -1.5h-2l-2 -1l-2 -2q-4 3 -11 3h-8q4 4 7 4q6 0 10 -1q1 0 4.5 1.5t5.5 1.5q0 2 -2 2q-6 -3 -10 -3q-5 0 -7 1l-14 2q-1 0 -3 -2q-8 0 -8 -6q0 -5 -1 -5q-8 0 -11 1zM72 226q2 3 7 7.5t8 7.5l4 5l-3 4l-1 -2q-1 -1 -2 -1
q-2 -1 -3 -4.5t-2 -5.5q-8 -8 -8 -11zM212 384q10 12 17 14q1 0 1 7l-2 -1q-4 -2 -4 -4l-14 -14q0 -2 2 -2zM198 371l13 3q-5 0 -6 1q0 1 3 3q-1 0 -3.5 -1.5t-5.5 -2.5q-1 -1 -1 -3z" />
    <glyph glyph-name="three" unicode="3" horiz-adv-x="398" 
d="M232 69l5 6q-1 0 -2 -0.5t-2 -0.5zM311 468h-4q-3 0 -3 -4l-6 -9q10 12 13 13zM339 514q1 1 1 6q2 2 2 6q-5 -10 -6 -11q2 0 3 -1zM378 208l-16 -26q-1 -1 -1 -4l-6 -3q1 -1 1 -3q-9 -11 -13 -15q-2 -3 -7 -8l-7 -7l1 -3q0 -3 -2 -4t-5.5 -1.5t-4.5 -1.5l-7 -10l-4 -4
l-4 -4q-3 0 -9 -2q-1 0 -1 -5q0 -2 -4 -3t-5 -2l-5 -5l-16 -10q0 -1 -6 -4q-5 -5 -12 -5q-2 0 -3 -1l-5 -2l7 1q-2 -4 -20 -14q-6 -2 -13 -6q-3 -5 -9 -7q-1 0 -3.5 0.5t-3.5 0.5l-12 -7l4 -1l-2 -1l-4 -2t-4 -1q-1 -1 -5 -4t-7 -4l-12 -4q-4 0 -9 -7l-2 3q-2 0 -5 -3.5
t-5 -3.5l-16 -2q-3 0 -5 -2q-3 -3 -6 -3l-6 1q-4 0 -6 -2q-4 -3 -13 -3l-24 -3q-3 2 -7 2q2 1 8 1h-14q-11 0 -26.5 11.5t-21.5 22.5q0 1 -4 9l-11 14q-3 5 -3 13q0 16 16 32l16 16q10 11 12 11q5 0 5 -6q0 -2 -4 -4q3 0 4.5 0.5t2.5 0.5t5 -2l4 -1q-7 -3 -7 -6q0 -1 4 -1
q0 -4 -3 -5l-3 -12q1 0 3 -3.5t2 -4.5l-2 -4l1 -1q1 -2 1 -3v-11q0 -2 1 -3q1 -7 10 -7h4q15 0 33 7q60 23 65 25q74 33 144 98t70 126q0 24 -25 37.5t-53 13.5q-30 0 -58 -4q-35 -9 -64 -25l-10 -7q-12 -7 -21 -7q-18 0 -27 22q-1 2 -7 19l-1 1q-1 2 -1 3q0 11 11 15
q15 9 49 28.5t53.5 32t45 33.5t41.5 43q30 39 30 75q0 9 -8 15.5t-19 6.5q-34 0 -73.5 -19.5t-65.5 -46.5l-23 -26l-7 -4q-2 -2 -5 -2t-5 2q-1 1 -4 1q-5 0 -5 -1q0 3 -3 3t-3 -2l-4 2l-5 1q-1 2 -14 10q-8 8 -8 15v5q2 9 23.5 29.5t34.5 29.5q73 45 147 45q31 -2 50 -14
q14 -7 25 -27l9 -15q6 -18 6 -21v-6q0 -2 -1.5 -7t-1.5 -8q0 -5 -1 -9.5t-2.5 -10.5t-2.5 -9q0 -7 -4 -7l3 7v11q2 4 4 15q0 3 -2 3l-3 -11q0 2 -2 2q0 -2 -2 -3l-1 -6l3 4q2 0 2 -2v-1q-1 -1 -1 -2q-2 -2 -2.5 -6t-1.5 -6q0 -2 -1 -4t-1.5 -4t-0.5 -5q0 -2 -18 -27l-9 -8
q-9 -9 -9 -12l6 4q7 11 11 11l-6 -10q-1 -1 -7 -5.5t-9.5 -9t-3.5 -8.5l3 1q-6 -9 -9 -10q-15 -10 -18 -13q1 -2 4 -2l14 13q2 0 3 1l-1 -3l-11 -9q-1 -1 -6 -4l-5 -3q-2 0 -4 -2l1 -1q2 -1 3 -1q44 -8 66 -18q34 -19 48 -46q12 -30 12 -49v-8q0 -55 -20 -79q0 -2 -1 -3
q-4 -6 -4 -9z" />
    <glyph glyph-name="four" unicode="4" horiz-adv-x="420" 
d="M269 83q0 -3 -1 -7q-3 -5 -3 -8l-2 -17q-1 -2 -1 -5q0 -4 1 -6q0 -4 3 -4l-1 12q2 0 2 3l-1 4q0 3 1 3t1 4q1 1 3 1q3 -1 3 -3q0 -1 3 -1q-6 -3 -6 -5t2 -2v-14q0 -3 1 -3q2 3 6 3q-5 -8 -10 -10q5 0 5 -5q-4 0 -4 -3q8 -5 8 -10l1 -11l-3 -9l-4 -10q-1 0 -4.5 0.5
t-6.5 0.5t-8 1t-8 2l-4 1l3 -3l-3 1l-3 2l5 -5v-2l-1 -2q-3 -3 -10 -3q-5 2 -17 16l-3 20v16q4 33 10 66.5t10.5 52t15 57.5t14.5 53l-9 -2q-58 -11 -101 -23q-25 -7 -53 -7h-12q-6 0 -7 -2q-2 -2 -8 -2q-15 2 -25 10q-1 2 -3 3l-1 1q-7 3 -18 17t-12 21v4q0 50 59 129.5
t116 135.5l10 10q97 95 141 114q10 5 17 6q2 0 5 0.5t4 0.5q2 1 6 1q11 0 19 -6q1 -1 3 -1q6 16 22 20q3 1 7 1q12 0 20.5 -11t11.5 -24q0 -6 -1 -9l-1 -5q-1 -5 -2 -7q-16 -52 -52 -163t-46 -147q0 -1 -1 -3q0 -1 3 -1h22q66 0 67 -42q0 -3 -1 -4l-4 -2l-6 2q-1 0 -4 0.5
t-4 0.5q-3 0 -7 0.5t-6 0.5q-15 0 -43.5 -3t-31.5 -7q-14 -27 -35 -123q-11 -48 -12 -48l-7 -2q0 1 3 4l1 3l-1 2q-1 2 -2 2q1 1 1 6q0 1 -1 3v1q-2 -9 -5 -14q-3 -2 -4 -2q1 0 3 -1l4 3q0 -1 -0.5 -2.5t-0.5 -2.5q-1 -2 -3 -3q0 -2 -8 -20v4q0 5 2 9q0 3 -3 3zM77 276
q0 -7 6 -7q4 0 6 1q3 1 18 4t23 5l91 19q11 2 54 9q3 0 3 3q15 49 51 152t52 154q-12 -2 -14 -4q-67 -43 -153 -140.5t-128 -170.5q-7 -12 -9 -25zM280 108q0 1 2 6.5t2 8.5q1 1 1 5q0 3 2 3q2 2 2 3q3 3 3 13q0 3 -1 3q0 -4 -1 -4q0 -1 -0.5 -2.5t-1.5 -2.5l-3 -6
q-1 3 -3 3l-3 -8q-5 -10 -8 -12q0 -1 3 -2l3 -2q-5 -14 -6 -14q-3 -2 -3 -5q0 -5 2 -5q1 0 5 7.5t5 10.5zM285 152q5 2 5 7l2 8q0 1 2 3l4 13l-3 3l-1 -3l-2 -5l-2 -12q-5 -12 -5 -14q-4 -6 -4 -11l3 1q2 2 2 6q0 3 -1 4zM270 125q-1 1 -1 4q0 -11 -3 -14l-2 3q0 1 1 4l1 2
l-2 3v-3q-1 -4 -1 -6q-1 -1 -1 -3q0 -3 2 -3v-7q1 3 6 20zM256 73q0 -2 -4 -8q0 -3 -0.5 -6t-1.5 -5v-2q6 12 6 13q1 9 1 14q0 3 -1 3v-9zM264 82q-1 4 -1 5l4 14q-5 -7 -5 -17zM256 52q0 -6 1 -6q2 8 2 12l-1 -1v-2q-2 -2 -2 -3zM253 38q4 -5 5 -5l-2 8zM260 99q0 -1 -1 -4
t-2 -5l4 5q0 2 -1 4zM261 63q-2 0 -2 -3z" />
    <glyph glyph-name="five" unicode="5" horiz-adv-x="360" 
d="M30 279v7q0 7 3.5 19.5t4.5 16.5q4 18 10.5 36.5t18.5 44.5t19.5 43t26 55.5t27.5 56.5q7 21 7 28q-2 8 -2 11q-2 6 -2 11t1 7q0 4 4.5 5.5t11.5 1.5l8 1q41 5 75.5 11t53 8.5t40.5 2.5q29 0 56 -6q40 -6 49 -30v-5q0 -5 4 -9v-3q1 -3 1 -5q-1 0 -3 1h-1q-12 3 -22 3
q-61 0 -197 -18l-12 -2q-4 -5 -4 -8q1 -7 -25 -66.5t-37 -81.5q-31 -62 -58 -143l-5 -19q1 -4 12 -7q10 -3 43 -9.5t54.5 -13t38.5 -15.5q47 -25 63 -71q3 -15 3 -20v-6q-3 -49 -54.5 -77.5t-105.5 -28.5q-58 0 -82 31q-2 2 -6.5 6t-7 6.5t-5 7t-3.5 10.5l-6 18
q-1 5 -1.5 14t-0.5 12l10 4q1 0 3 -1t3.5 -2.5t2.5 -1.5q26 -38 89 -38h11q37 2 64 19.5t30 37.5q0 16 -4.5 24.5t-19.5 12.5q-33 7 -60.5 12.5t-41 8t-23.5 5.5q-49 11 -59 88zM76 338l-6 -24q1 3 4 8l4 6v6q0 2 -2 4zM126 395l-2 -12l10 24q-1 -2 -4 -6t-4 -6z" />
    <glyph glyph-name="six" unicode="6" horiz-adv-x="390" 
d="M278 96q8 8 11 8q1 5 1 6l6 5q-2 -2 -2 -5q0 2 3 2q4 5 7.5 11t5.5 9t4 4q0 -6 -10 -19q-2 -4 -4 -6q-7 -9 -12 -9q-1 0 -4 -6q-3 -1 -7 -5q-6 -6 -4 -8l-8 -5l-1.5 1.5t-0.5 1.5q-1 0 -1 4l-3 -4q0 -6 2 -8q0 -1 -5 -9q-2 -1 -6 -5.5t-5 -4.5q-7 0 -7 -3q0 -2 2 -2v-1
l-1 -2q-3 -1 -8 -5t-7 -6l-2 -4q-17 -10 -18 -10q-3 -2 -9.5 -4.5t-10.5 -4.5l-4 -1q-1 -3 -1 -9q0 -2 -1 -5l1 -4q1 0 1 -3q0 -5 2 -9q0 -8 6 -12l5 -7h-7q0 -4 -5 -4h-9l2 -1q2 0 3 -1t1 -3l-21 9q9 -6 10 -10q-2 1 -9 1q-4 0 -6 2q-1 0 -4.5 2.5t-6.5 4.5l-3 1l-12 15
q-2 4 -4 12.5t-2 9.5q-1 1 -1 4q-2 -1 -3 -1h-11q-18 0 -44 12q-29 15 -38 42q-12 27 -12 64v15q6 111 84 263q5 10 8 14l13 25q163 269 220 276q2 0 5 0.5t5 0.5q7 0 13 -5q16 -7 19 -14q0 -7 -1 -11q0 -4 -10 -11q-16 -16 -31 -36l-45 -57q-2 -3 -15 -20l-14 -20
q-51 -76 -104 -176q-18 -35 -28 -57.5t-14 -34t-5 -13.5q-1 -3 -5 -13.5t-5 -16.5q-4 -4 -4 -7q1 -2 1 -4l-4 -8v-4q0 -3 -2 -3v-9q-4 -6 -4 -9t1 -4l-1 -2q-2 -2 -2 -3q-4 -6 -4 -24q-1 -6 -1.5 -18t-1.5 -18l1 -25q0 -4 5 -22q5 -8 8 -11q10 -13 31 -13l1 3q0 2 0.5 4.5
t0.5 3.5t1.5 3.5t1.5 6.5q0 15 4 15q1 0 1 4v4v1q1 1 1 2l7 18q4 4 4 6v1l-1 2l1 3q6 3 6 9q2 21 37 84l7 16q2 2 4 5t3 4q6 12 11 16q6 12 18 30l21 25q14 19 43 42q14 7 17 7q6 -2 7 -2l2 1l2 1q4 2 8 2q32 0 51 -21l9 -13v-2l-1 -1l-1 1q-1 2 -2 2q0 -1 2 -9l1 -8l-4 -24
q-4 -6 -4 -12q0 -3 1 -4l-15 -41q-2 -5 -7.5 -15.5t-7.5 -13.5l-4 -4q2 -2 2 -3t-2.5 -2t-2.5 -2q0 -5 -8 -9q-1 0 -1 -5l-3 -7q0 -1 -2 -3l-3 -3l-1 -2q-2 -2 -3.5 -2.5t-2.5 -1.5t-1 -3q0 2 3 2l-11 -11q0 -1 2 -2l1 -2q-9 -7 -9 -5q0 1 1.5 5t1.5 7q-9 -9 -9 -22
q0 -1 -6 -7q-10 -7 -11 -7q1 1 1 4t-1 4l-4 -4l-2 -3q3 0 3 -1q-1 -2 -3 -3q0 -2 -1 -4q-3 0 -5 -2q-3 0 -3 -4l3 -2l-1 -2l-3 -3l-1 -1q-5 -4 -5 -5l10 8q0 1 3 1v-1q-1 -1 -1 -2l-4 -4q1 1 3 2t3 2t1 3zM200 98q-2 -5 -3 -6l-8 -28q47 41 91 113t55 134q-14 0 -38 -30
l-4 -5q-4 -4 -6 -5h4l-5 -7q-14 -16 -20 -26q-3 -7 -11.5 -22t-13.5 -25l-5 -10l-8 -16l-7 -7l-4 -4q-1 -2 -3 -5t-3.5 -5.5t-1.5 -5.5l-5 -11q2 0 2 2q2 3 3.5 7.5t3.5 7.5t6 5l-3 -9l-1 -3l-1 -3q-3 -5 -8 -20q-1 -2 -3 -7.5t-3 -8.5zM61 105q0 2 2 13t2 12q-7 -7 -7 -19
l-2 -6v-1l1 -7zM69 162q0 2 -0.5 5t-0.5 4q-1 4 -5 6l-3 -12l6 -8q3 0 3 5zM176 -17q-1 3 -3 5.5t-2 3.5l3 -18q1 -2 6 -7q-1 2 -2 7v4zM54 154l3 5v14q-5 -5 -5 -8zM340 189l-2 -1q-3 -1 -3 -2h5q1 2 3.5 4t3.5 4q3 3 3 10l-6 -9q-1 -1 -2 -4zM226 237q1 1 2 7q-6 0 -6 -1
v-2q-1 -2 -1.5 -4.5t-0.5 -3.5t6 4zM48 158l-1 -4q-1 -3 -2 -8t-2 -8q5 0 5 7v13zM160 -24q0 8 -2 14l-3 14v-11q0 -4 1 -8zM268 98l-8 -5q-2 -3 -2 -4q4 0 5 2q1 0 2.5 1.5t2.5 3.5t0 2zM164 2v2l-2 -2q0 -22 4 -22v3q0 3 -1 10t-1 9zM228 185v-3q-1 -2 -1 -4l1 3
q2 2 4 5.5t3 6.5t0 3zM75 194q0 2 -2 4q-3 0 -3 -9q1 -1 5 5zM44 117v3q1 2 1 4v7q-2 -3 -3 -5q0 -6 2 -9zM211 216q1 0 2.5 2.5t2.5 5.5l2 3q-3 0 -3 -1q-2 -4 -4 -10zM251 71l5 5v4q-5 0 -5 -9zM220 161q0 1 0.5 3t0.5 4q-5 -7 -6 -12zM193 92l3 9q-2 -2 -4 -6.5t-3 -5.5
q0 -1 3 -2q1 2 1 5zM296 130q3 0 4 -1v4q3 3 3 5q0 -1 -1.5 -2t-2.5 -3l-2 -2zM364 227q0 3 2 9q-4 -4 -4 -7q0 -2 2 -2zM369 240q-1 2 -3 3q0 -5 2 -6q0 2 1 3zM230 43q4 0 5 2q-5 0 -5 -2z" />
    <glyph glyph-name="seven" unicode="7" horiz-adv-x="354" 
d="M273 391q1 0 5 4l4 4q0 -1 -5 -1q-3 -5 -4 -7zM123 94q-8 -7 -9 -12q0 -1 1 -12l2 4q5 0 8 13l-2 3v4zM107 41q0 1 1 2t1 2q4 7 6 17q-7 -11 -8 -21zM130 74l4 9q0 4 7 11l-7 -5q-3 -10 -7 -10q2 -5 3 -5zM232 325l2 -4q1 1 2.5 4.5t3.5 5.5q-5 -2 -8 -6zM227 310l-5 -8
q7 5 8 8q1 0 1 3zM112 58l1 6q-1 -1 -3 -2q-1 0 -1 -1zM135 113q-3 0 -3 -2q2 -2 3 -2v4zM244 336q-2 -4 -2 -5q2 0 2 5zM163 192l-3 1v-4zM246 352l4 3l-1 7q-3 -9 -3 -10zM274 368q-4 -7 -7 -11q-4 0 -8 -4q2 0 3 -1.5t2 -1.5q0 -1 -1.5 -3.5t-3.5 -4.5l-17 -36l-4 -4
q-2 -2 -5 -10q-13 -30 -16 -32t-4.5 -7t-3.5 -6l-9 -10q0 -1 -2 -3t-2 -3q1 -1 4 -1q1 0 6 7v-1q-1 -2 -1 -3q-1 0 -1.5 -2t-2.5 -3l-2 -6h1l2 1q1 0 -1.5 -6t-6.5 -15t-8 -14q1 4 2.5 7.5t3.5 7.5l3 6q0 1 1 3.5t1 3.5q-6 -3 -6 -9q-2 -4 -4 -4q-1 0 -4 -5q-1 0 1 -2t2 -3
t-2 -3l-3 -3h4q0 -2 -2 -2l-4 -5q0 -2 -2.5 -6.5t-2.5 -6.5q-6 0 -6 -7q0 -4 -3 -7q-2 -1 -2 -4q0 -2 2 -2q1 0 3 1v-5q-2 0 -5 -3t-4 -3q0 -4 -4 -10q4 0 4 3v-9l1 3q1 -1 1 -5q-6 -12 -7 -15q0 2 0.5 5t0.5 4l-5 -9q0 6 -1 6q-2 0 -2 -4q0 -1 -1.5 -3.5t-1.5 -3.5
q0 -2 2 -4l-1 -3q-1 -3 -1 -5t2 -2q1 1 4 8l-7 -23l-3 -3q0 1 1 7l-1 -4q-5 -3 -7 -6q0 -1 -1 -4v4l4 7q-6 0 -6 -13q0 -2 -1.5 -2t-1.5 -1q2 -4 2 -5q-2 0 -3 -1q-2 0 -2 -2l2 -1q1 -1 1 -2q0 -6 -6 -12q-1 -1 0 -1h2q0 4 5 9q0 -3 1 -3q-3 -1 -6 -8l-3 -7q2 -2 3 -2
q0 -1 -0.5 -2.5t-0.5 -2.5q2 3 3 4q0 -7 -4 -7q-2 -2 -2 -8q-5 0 -5 3q-2 -2 -8 -2q-3 0 -7 -2q-2 0 -3 1l-2 1q-1 1 -7 1q-7 0 -18 5.5t-11 11.5v6q2 16 5 24q0 11 11 47q65 184 257 496q-21 -3 -45 -8.5t-52.5 -15.5t-47.5 -17t-53.5 -20.5t-46.5 -18.5l-11 -6l-6 -2
q-15 0 -19 3q-1 2 -6 5.5t-6 5.5l-11 12q-12 15 -12 19q0 3 1 4q0 4 5 6q155 70 313 94q3 0 13 2h5q14 0 24 -3q14 -2 23 -20l3 -16v-10q2 -8 2 -13v-4q0 -9 -7 -19q-3 -5 -11.5 -19t-11.5 -21l-17 -26q-1 -3 -6 -10t-7 -11l-3 -3q-2 0 -2 -3q-7 -11 -9 -18h-4q-5 -5 -5 -11
q0 -5 -6 -7q-1 -2 -1 -3q0 -11 -8 -15l-5 -5q-1 -1 -4 -7l4 1q0 -2 -2 -5q-14 -20 -19 -31q-1 0 -4 -3.5t-3 -4.5l1 -2v-2z" />
    <glyph glyph-name="eight" unicode="8" horiz-adv-x="375" 
d="M191 300q35 -58 38 -137q0 -3 -2 -5q-1 0 -1 -5q0 -3 -2 -15t-2 -18q-2 -12 -6 -18l-4 -2q-1 -1 -1 -5l3 2q-4 -18 -11 -18q-5 -5 -5 -11q1 0 3 -2l-4 -5l-4 1q-7 0 -7 -9q4 0 12 4q-2 -4 -3 -4q0 -2 -3 -2q-5 0 -5 -4q0 -2 2 -4q-8 0 -15 -11l-2 -2l-4 -2l-1 -1
q0 -2 2 -2q-1 0 -3 -1q-1 -1 -5 -2.5t-5 -2.5l10 8q0 1 2 3t2 3q-1 0 -4.5 -2.5t-7.5 -4.5l-3 -2l-4 -2l-7 -3.5t-7 -4.5q-1 0 -3 -1t-4 -1.5t-2 -1.5l-2 -3l-16 -8l1 1h2q3 0 7 -2q-21 -10 -35 -10q-10 0 -14 4q0 2 1 3l-2 1q-2 1 -3 1q-2 0 -5.5 1.5t-7.5 1.5q-2 0 -2 -2
q0 -3 3 -3l6 -4l-27 8l-3 3q-12 1 -23 16t-11 29q0 27 7 44q3 17 19 60q12 25 33 60.5t41.5 67t22.5 34.5l-32 53q-45 81 -45 127q0 57 41 93q54 54 137 71q27 7 58 9q7 1 21 1q51 0 86 -14q4 0 5 1q4 5 16 17.5t18 20.5l3 6q0 7 8 7q1 -1 4 -1h6q3 -1 7.5 -2t7 -2t5 -2.5
t5.5 -4t6 -6.5l8 -9q3 -4 3 -9q0 -3 -2 -9q-3 -7 -12 -16.5t-12 -14.5l-25 -30q0 -2 2 -8.5t2 -8.5q0 -9 -9 -18t-18 -9q-5 0 -8 2l-2 1h-2q-4 0 -72 -77l-3 -3q-1 0 -3 -3q-8 -10 -11 -16h-4q-5 -5 -6 -10q0 -1 -2.5 -3.5t-4.5 -2.5q-1 -2 -1 -3l-1 -4l-4 -6t-5 -4l-6 -4
q-3 -3 -5 -7l4 1q0 -2 -2 -5q-16 -15 -23 -28q-2 0 -5 -3.5t-3 -7.5q-5 -7 -8 -10q-6 0 -9 -3q2 -1 3 -2.5t2 -1.5l-1 -3q-2 -2 -5 -4l-22 -30q-3 -2 -4 -3q-6 -3 -10 -15zM109 484q0 -47 48 -119q94 123 170 211l21 24q-23 6 -50 6q-66 0 -123.5 -32.5t-65.5 -89.5z
M155 237l-34 -48q-32 -61 -43 -86q-11 -32 -12 -51q0 -26 13 -26q3 0 7 2l20 10q31 20 42 44q21 34 21 74v9q-2 42 -11 64q0 1 -2 5zM110 176l4 9q1 1 10 16.5t15.5 24.5t13.5 15l-1 6l-7 -5l1 -2v-2q-1 -1 -3.5 -4t-4.5 -6t-3 -3q-1 1 -1 4l14 18q2 2 2 5l-2 4
q-2 -3 -13.5 -19.5t-19 -30t-8.5 -21.5l10 17l13 20q0 -2 2 -2l-3 -9l-9 -10q-1 -1 -3 -2.5t-3 -2.5l-12 -30q1 2 5 6q3 2 3 4zM374 543l6 6q7 6 7 11q0 3 -2.5 6t-2.5 4l-14 -17q-5 -5 -5 -8q7 7 7 5l-12 -17q0 -1 3 -2q1 0 3 1t4 1q-1 -1 -1 -2t-0.5 -1.5t-0.5 -1.5l8 7
q9 7 14 13.5t5 10.5q-1 0 -1.5 -1l-1.5 -3t-3 -3q-9 -9 -13 -9zM67 107l-3 -4l-9 -21q-4 -8 -4 -20q2 -1 2 -4l-1 -1q-1 -1 -1 -2v-12l2 -11q2 2 3 4q0 -3 1 -5q0 4 -0.5 11t-0.5 11q0 5 2 19q0 4 2.5 12.5t4.5 15t2 7.5zM102 181l-11 -16q-10 -19 -19 -44l2 1l1 1l14 29
l13 23v6zM168 34q1 1 4 2l3 1q0 1 5.5 6.5t6.5 7.5l-1 -1h-4q0 -3 -2 -3l-14 -10q0 -3 2 -3zM341 509q0 4 -2 4l-2 -4t-2.5 -3.5t-2.5 -3.5l-1 -1q0 -2 4 -2q6 9 6 10zM336 516q1 1 1 4t-1 3q-5 -9 -7 -9q1 0 7 2zM198 335l1 -5q1 1 3.5 4.5t4.5 5.5q-6 -2 -9 -5zM247 395
q3 0 6 3q1 0 2.5 1t0.5 2h-4q-3 -4 -5 -6zM191 320l-6 -7l5 3q4 3 5 6zM355 586l9 11q-2 -2 -4 -2q-4 0 -4 -3h1q1 1 2 1q-2 -2 -2 -4q-2 0 -2 -3zM220 368l-5 -8l5 2v6zM204 94l5 3q1 2 1 5q-2 -2 -2 -4zM214 109q-1 -2 -1 -6l2 3l-1 1v2zM88 132l3 3q-1 0 -3 1v-4z
M211 344q-2 -4 -2 -5q2 0 2 5zM106 -3q0 2 2 2q-2 0 -2 -2zM201 59q-1 -1 -3 -2q2 2 3 2z" />
    <glyph glyph-name="nine" unicode="9" horiz-adv-x="378" 
d="M72 391q3 -1 5 -1q9 6 25.5 16t21.5 14q10 8 21.5 18t24.5 21.5t21 18.5q10 9 28 27.5t26 26.5l70 70q-1 1 -4 1.5t-4 0.5q-30 -3 -53 -19q-9 -5 -25 -16.5t-20 -14.5q-5 -4 -18 -13.5t-19 -15.5l-46 -48q-3 -4 -11.5 -13.5t-14.5 -16t-11.5 -16.5t-6.5 -18v5l-3 -3
q-1 -2 -3.5 -10.5t-3.5 -13.5zM300 394q4 0 5 3v5l-3 4q-2 0 -2 -4l-1 -5l-6 -15q1 4 4 6q1 1 2 4zM303 425q-9 -7 -9 -10l-5 -11l1 1q4 4 5 3q2 2 2 5q4 4 6 12zM290 371q-1 -1 -1 -3t1 -3l-5 -7v-6l4 2q3 12 5 18v1v1l-1 2zM317 410q0 -10 -3 -16q-1 -3 -1 -5l1 1q1 2 2 3
q1 3 1 4l4 16q-1 0 -4 -3zM207 178v-5q-2 -2 -2 -6q0 -2 3 -2q0 2 0.5 4.5t0.5 3.5q0 3 -2 5zM234 270v-10q2 0 3 1q-1 1 -1 3t2 5.5t2 5.5q-1 -3 -6 -5zM215 196q-3 0 -3 -3q-2 -4 -2 -7v-2l1 -2q2 4 4 14zM263 248l-6 -14q2 2 4 2q5 7 3 7q-1 -1 -2 -3q0 1 0.5 4t0.5 4z
M202 117q0 1 1 2.5t1 2.5l2 8q-3 0 -3 -2q-2 -1 -2 -3q0 -1 2 -3q-2 -4 -2 -8l1 1v2zM332 439q-1 -2 -3 -5.5t-3 -5.5l-2 -3q2 -1 3 -1q2 4 2 5q3 9 3 10zM276 306q-4 -6 -5 -15q3 3 3 5t2 10zM225 210q2 2 4 8q-2 0 -3 -1l-2 -4q0 -2 1 -3zM299 357q0 -3 -1 -4l2 1q1 0 1 1
l2 3q-4 0 -4 -1zM222 213l-4 3l1 -5q3 0 3 2zM201 26l-3 3l1 -6zM267 236q-33 -104 -51 -170l-16 -60q0 -2 -3 -7t-3 -8q-1 0 -1 -4q0 -10 1 -10q-9 3 -11 3q-1 -1 -4 3l-1 1q-1 -1 -1 -4q-2 4 -2 5q0 -3 -2 -3q-1 0 -1 2q-1 3 -2 5q-3 -3 -3 -10q0 1 -0.5 3t-1.5 4l-3 5
q-2 -4 -4 -4q-1 0 -6 5q0 -4 -3 -9q-5 11 -6 24q-2 -2 -4 -2q4 14 5 24l-1 11q2 9 3 10q1 4 2.5 12.5t3.5 12.5q4 18 7 26l12 48q37 121 42 136q22 66 26 80l2 6q17 48 22 61l16 47l-3 3l-26 -27q-2 -2 -10 -5q-97 -97 -153 -102q-7 -6 -16 -6h-5q-3 1 -8.5 1.5t-8.5 1.5
q-13 0 -25 17t-17 34q0 21 7 35q14 38 33 61q68 91 145 136l4 2q61 36 102 36h12q7 0 12 -5l8 -5q1 -1 4 -5t6 -6t6 -2l1 1q1 1 2 1l24 62q0 3 5 6l13 1q7 0 19 -6q12 -10 13 -18v-4q2 1 3 2q0 -1 1 -3q-1 -3 -3 -13t-3 -13v-7l-18 -49q-3 -6 -7.5 -20t-9.5 -22l-3 -9
t-3 -11q-3 -2 -6 -7q-1 -1 -1 -3q2 4 4 4q-1 -2 -1.5 -4.5t-0.5 -3.5q-2 -4 -7 -4q-3 0 -3 -6q1 -1 1 -6q-2 0 -8 -15l-2 -3q0 -2 -1 -3q-2 -4 -6 -6l-4 -10q1 0 4 5l1 1q0 1 1 2l1 -3l1 -6q-1 -3 -4.5 -11t-4.5 -12l-5 -4q-4 -10 -4 -11q-3 -7 -5 -13q-2 0 -2 -4v-4
q-2 0 -2 -3q-9 -9 -9 -24q-1 -1 -3 -5q-3 -4 -7 -12q0 2 1 9v7l-5 -5l1 -10q0 -1 -1.5 -3.5t-1.5 -5.5q3 0 3 1q1 4 4 4q0 2 3 2q0 -3 -1 -3q-2 -8 -12 -36.5t-12 -34.5q-2 0 -2 3t1 7t2 7l1 3l4 9q3 10 3 12q-2 -1 -3.5 -3.5t-2.5 -2.5q-4 -8 -4 -14q-3 -7 -4 -8l-1 -2
q-2 -2 -2 -3q0 -2 2 -2q-2 -7 -6 -11l1 -6q-3 -3 -3 -7q0 -3 1 -8q-1 -1 -2.5 -4t-2.5 -4q0 -5 -5 -8l1 -4q2 0 4.5 4.5t2.5 7.5q1 1 5 15l5 15l1 -8q0 -1 -8 -24z" />
    <glyph glyph-name="colon" unicode=":" horiz-adv-x="191" 
d="M100 169l7 2q3 -1 9 -2t9 -2l7 -11q1 -4 1 -12q0 -18 -8 -29q-3 -6 -8 -7l-18 -9q-2 -1 -7 -1q-12 0 -22 9t-10 22q3 40 40 40zM105 257q-14 0 -27.5 6.5t-13.5 18.5q0 14 9.5 27t22.5 16q12 0 23.5 -7t14.5 -20q5 -4 5 -11q0 -8 -8 -17t-17 -13h-9z" />
    <glyph glyph-name="semicolon" unicode=";" horiz-adv-x="191" 
d="M105 257q-14 0 -27.5 6.5t-13.5 18.5q0 14 9.5 27t22.5 16q12 0 23.5 -7t14.5 -20q5 -4 5 -11q0 -8 -8 -17t-17 -13h-9zM127 152q1 -4 1 -11q0 -20 -23.5 -45t-43.5 -33l-2 -3l-22 -13q-1 -1 -3 -1t-2 3q0 12 7 19q17 32 25 72q0 14 5 21q14 14 25 14h5q25 -7 28 -23z
" />
    <glyph glyph-name="less" unicode="&#x3c;" horiz-adv-x="284" 
d="M53 273l-4 11l-1 2v2q0 12 5 17l10 11l61 58q47 45 61 61q0 14 11 18q8 4 16 4q35 0 35 -40q0 -12 -10 -29q-14 -21 -50 -53q-27 -23 -59 -55l-4 -4q-5 -7 -5 -8q0 -2 6 -7q22 -14 43 -24q10 -6 29 -15.5t28 -15.5q5 -3 8 -8h-5q-6 0 -10 1q-4 2 -13 2q-22 2 -33 5h-6
l5 -5q1 -2 3 -2q-20 0 -50 9.5t-39 24.5q-3 5 -15.5 17.5t-16.5 22.5z" />
    <glyph glyph-name="equal" unicode="=" horiz-adv-x="346" 
d="M14 238q0 1 1.5 5t2.5 6q0 2 4 2q16 3 43 7l59 10q18 3 54.5 7.5t39.5 4.5q1 0 4 0.5t5 0.5q13 2 41 2q26 0 40 -2q4 0 13 -3q9 -4 9 -11v-4q0 -3 4 -7q3 -5 3 -8q0 -5 -1 -8v-5q0 -2 -2 -5l-1 -2l2 -7q0 -1 -3 -1q-4 0 -4 -3q-1 -5 -8 -5q-13 4 -34 4q-38 0 -98 -10
q-37 -3 -71 -9q-29 -4 -41 -5q-5 0 -12.5 -2t-12.5 -3q-5 0 -17 2l-2 5q-8 7 -10 21q-5 4 -7 14q-1 3 -1 9zM301 327h-25q-5 0 -30 -2t-38 -4q-22 -1 -57 -5q-8 -1 -27.5 -3.5t-30.5 -3.5q-13 -3 -25 -3q-20 0 -31 11q-2 3 -9.5 10.5t-9.5 13.5q-2 8 -2 11q0 10 6 19
q4 8 9 8t9 -2q7 -3 18 -3q63 8 73 8l88 9h69q4 0 12 -1.5t10 -1.5q8 0 15 -3q10 0 10 -9l-1 -3q-2 -6 -2 -8q0 -3 2 -7q0 -2 -2 -6.5t-2 -5.5l-2 -9q-2 0 -4 -1.5t-3 -1.5q-3 0 -9 -3.5t-11 -3.5z" />
    <glyph glyph-name="greater" unicode="&#x3e;" horiz-adv-x="314" 
d="M67 198l-4 -4q0 6 -2 6h-1l-2 -1q-10 0 -14 9q-1 1 -1 5q0 25 45 67q13 13 39.5 34.5t34.5 28.5q19 9 19 14q0 2 -2 2l-64 17q-19 6 -32 22q-7 11 -7 25q0 5 2 19v5q0 9 10 9q5 -1 10 -3t10.5 -5.5t8.5 -4.5q7 -3 21.5 -7.5t19.5 -6.5q12 -3 32 -11t26 -10q3 -2 12.5 -5
t13.5 -6q7 -3 15 -13q11 -16 11 -31q0 -7 -1 -10q-3 -2 -4 -2q-2 -1 -3 -2q-1 -3 -5 -7q0 -1 -1 -1.5t-1 -1.5l-43 -35q-35 -27 -101 -85q-1 -1 -7 -6t-10.5 -9.5t-4.5 -5.5q0 2 1 3q1 3 4 6q-2 0 -4 -1l-1 -2q-1 0 -3 -1.5t-3 -1.5q-3 -1 -9 -9l-2 -3v3q1 2 1 3q0 2 -3 5
l-1 6l2 5q0 2 -1 3q0 -3 -1 -6z" />
    <glyph glyph-name="question" unicode="?" horiz-adv-x="255" 
d="M128 562q-3 -1 -7.5 -4t-5.5 -4l-2 -4l-2 -2q-2 0 -4 1q-1 1 -4.5 3t-5.5 4q-1 0 -2 2.5t-3 2.5q-6 0 -6 7q0 1 -4 1l-3 1l-5 5q-3 6 -3 7q0 4 12 16q3 3 7 5.5l8 5t6 3.5l11 7l12 4q27 11 59 11q33 0 62 -13q56 -30 56 -82q0 -32 -27 -59l-25 -29q-40 -46 -59 -70
t-42 -64.5t-34 -82.5v-4q-2 -2 -2 -4t1 -6.5t1 -5.5l-4 3q0 -9 2 -13q0 -3 -1 -5l-2 3q-2 0 -5 3q-3 0 -8 5q-2 -2 -4 -2q-4 3 -9 10t-8 10v-2l1 -1v-4q-8 16 -11 24q-4 14 -4 15q0 27 9 54.5t30 56.5t35 46.5t43 49t36 38.5q28 32 36 44q7 12 8 23q0 1 -1 2v2q-21 7 -44 7
q-41 0 -88 -21zM88 98h-4q-19 0 -37 15l-4 5q-4 4 -7 6q-8 8 -8 19q0 7 4 15q3 7 14 9l3 1h4q7 0 11 -4h2l2 1q5 0 11.5 -5t8.5 -6q1 0 11 -14q5 -8 6 -15q2 -8 2 -10q0 -17 -19 -17z" />
    <glyph glyph-name="at" unicode="@" horiz-adv-x="489" 
d="M62 305q0 2 7 21q0 1 -1.5 -0.5l-3.5 -3.5l-1 -3l-3 -3v5q-1 -8 -4 -12q-2 -3 -4 -10t-3 -11q-4 -5 -5 -5q-3 0 4 7q-2 2 -2 3t1.5 4t1.5 5l3 5l4 11q2 0 2 3q0 2 -2 4q3 1 10.5 19t7.5 21q0 10 19 37q0 3 2 7l2 4q2 0 2 -2l1 2v1q0 11 7 13q3 0 3 3q0 6 1 8q3 5 16 20
q1 1 2 4l1 2q16 24 18 26l9 11l19 19l16 16t12.5 11.5t15 11.5t16.5 9.5t24 12.5q31 14 56 14h9q12 0 16 -3q8 0 14 -3q5 -1 13 -5t13 -5q1 0 2.5 -1t2.5 -2t2 -1q-10 0 -17 3h-4q2 0 3.5 -1t2.5 -1q3 -2 14 -4q8 -2 16 -6q1 0 4 -3q47 -27 62 -102q2 -3 2 -7q-1 0 -2 3
q-2 0 -2 -7q0 2 -3.5 12.5t-4.5 14.5l5 -10q-4 13 -5 14q-4 13 -8 23q-3 4 -4 10q-3 0 -3 1q0 -11 8 -27q6 -15 7 -18l-1 -3q0 -1 1 -6t2 -11.5t1 -9.5q0 -1 1 -2l1 -1v-4q-2 1 -2 3q-1 4 -3 5v-4q0 -3 2 -6q3 0 3 -1t-2 -4q2 -3 2 -9q-2 -4 -2 -6q0 -3 2 -7q0 -4 3 -5
q-1 -3 -2 -3q0 -3 2 -3v-4q0 1 -1.5 1.5t-1.5 2.5l-2 -3v-6q0 -1 1 -2q1 0 1.5 -1t0.5 -2q0 -2 -0.5 -6.5t-0.5 -5.5t-1.5 -11t-1.5 -11v-16q0 2 0.5 5t0.5 4q2 -1 2 -6q3 3 3 4q0 8 2 24v46q2 0 2 -5v-5q2 -2 3 -2v-18q0 -3 -2 -4v-10q0 -1 1 -2l1 -2q-2 -4 -2 -11v-8
l-2 -16q0 -13 -5.5 -35t-6.5 -31l-11 -40q-1 -3 -3 -8.5t-3 -8.5t-3 -10t-4 -10l-9 -20q-1 -3 -1 -7q-2 -2 -3.5 -7.5t-2.5 -8.5q-8 -14 -14 -22l-1 -3v4l12 20q-2 0 -3 -1t-2 -3t-2 -3q-2 -4 -7 -12.5t-7 -13.5q-6 -17 -24 -30t-38 -19l-19 -5h-4q-12 0 -21 3q-18 3 -26 28
t-8 50v9q0 5 0.5 14t0.5 15q0 11 1 17q3 30 3 38q0 -5 -6 -13.5t-14 -17t-10 -11.5q-28 -25 -59 -25q-8 0 -17 3l-17 9q-6 4 -8 13q-3 9 -3 18q0 7 4 25l17 48q22 59 51 85q27 31 45 40l13 5q2 0 5 3q1 1 4 1q1 0 19 -3q2 0 5.5 -2t4.5 -2q3 0 6 -2.5t4 -2.5h29q13 0 13 -8
l-1 -2v-2q-2 -26 -5 -39l-8 -38l-8 -30l-6 -42q-8 -64 -8 -120q0 -12 1 -18q0 -2 2 -7t2 -6q5 0 14 9l8 8q46 68 74 201q0 1 0.5 2.5t0.5 2.5q8 43 8 81q0 17 -1 25q-3 42 -3 44q-7 34 -30 64q-6 9 -12.5 13.5t-19 9.5t-15.5 7q-2 0 -4 2q-3 1 -9 1h-21q-16 0 -30 -8
q-35 -14 -43 -25l-16 -15q-16 -18 -17 -21l-10 -13q-1 -1 -9 -14.5t-18 -31.5t-14 -27l-33 -78q-11 -26 -18 -65q-2 -5 -4 -15.5t-3 -15.5q0 -9 -2 -15l-1 -2v-2q-1 -1 -1 -3q1 -4 1 -12q-2 -12 -2 -35q0 -37 12 -85q5 -28 23 -49q8 -12 14 -15l31 -9q4 0 7 1q1 0 4.5 1
t4.5 1t10 3q23 9 41 22l10 10q1 2 5.5 5t5.5 3l1 -2l1 -2q2 0 4 -1.5t3 -1.5l-1 -1q0 -2 -1 -4.5t-1 -3.5v-4.5t-1 -2.5l-1.5 -1.5t-2 -2.5t-2.5 -5q0 -2 -3 -6l-3 -3l-3 -1l-6 -4t-5 -2l-40 -21q-4 -3 -28 -9q-3 0 -9.5 -0.5t-11.5 -1t-9 -1.5q-22 0 -39 9q-1 0 -3 2
l-12 11q-20 17 -34 51q-2 1 -2 4q0 4 -1 6q-2 2 -2 7q0 6 -2 8l-3 6q-3 9 -3 17q1 1 1 3q0 4 -2.5 13.5t-2.5 13.5v6q0 5 2 5v-4l2 -7q3 -7 3 -9q1 0 3 3q-3 6 -3 9q0 1 1 3l1 1q0 2 -0.5 7t-0.5 6v-4q0 -6 -1 -6q0 -3 -2 -3v16q0 2 -0.5 7t-0.5 8l-2 -4q-1 -4 -1 -6
q2 -4 2 -7q0 -2 -2 -6l-2 9q0 3 -1 4t-1 4q0 2 1 4.5t1 3.5l-1 2v2q3 2 3 4l-3 3v4q2 6 2 7q0 3 -2 7l4 19q0 1 -0.5 2.5t-0.5 2.5l-1 -3v-3v3l-1 1q0 5 3 10v10l3 14q1 0 3 1l1 1q1 0 5 14l3 5q1 -1 3 -1v4q3 5 8 26l-4 -5q-1 -2 -1 -5l-5 -6q5 12 5 15q1 3 2 4q1 2 3 8.5
t3 10.5q3 0 3 -2q-3 0 -3 -2q0 -1 1 -3q2 2 2 3zM191 238q-2 -7 -5.5 -19.5t-3.5 -14.5q5 0 9 4q27 35 45 67l40 73q3 4 3 10q0 10 -6 10q-1 0 -5 -2l-4.5 -4.5l-5.5 -5.5l-4 -4q-18 -20 -23 -30q-13 -18 -24 -41q-11 -26 -16 -43zM46 254q-3 -1 -4 -1v-5q4 0 4 6z" />
    <glyph glyph-name="A" unicode="A" horiz-adv-x="484" 
d="M361 60l6 11q0 1 -6 -3l-2 -3l-18 -60l-7 -11l-5 12l-2 -4l-3 -1q0 -1 -1.5 -4l-2.5 -5l-1 -2h4q2 0 2 -3q-2 -2 -2 -4t-2 -2q0 3 -5 3l-6 -2l-2 -2l-2 -1q0 -2 2 -3q0 -2 -3 -2l-2 -4q0 -2 -6 -2q-11 0 -11 7l-5 14q0 7 1 10q7 24 45 158.5t57 203.5q-79 -10 -172 -34
q-69 -184 -101 -298q-10 -31 -29 -31q-20 -10 -24 -10q-2 0 -6.5 4t-11.5 4q-13 0 -13 12q0 3 1.5 9t1.5 8l6 14q18 66 71 206l21 56q-51 -18 -79 -35q-2 -1 -7 -6q-10 -5 -18 -5q-1 -4 -6 -4q-6 0 -6 4l3 1q-11 3 -24 21l-1 2l-3 3q0 2 -0.5 6t-0.5 6q2 4 2 8q20 29 166 67
q90 220 192 325q19 19 46 35.5t47 16.5t33 -20q0 -5 9 -9q13 -9 17 -29q2 -28 2 -43q0 -87 -35 -230h42q25 0 32 -14q4 -6 7 -9.5t4 -4.5l2 -1q-1 -4 -5 -6.5t-8 -3.5t-9.5 -1.5t-6.5 -0.5l-70 -5q-9 -39 -29.5 -111t-27.5 -100l-3 -15q-5 -21 -7 -28q-6 -12 -6 -17
q-4 -10 -4 -15q-6 -9 -8 -25q-2 -8 -7 -20.5t-6 -18.5l-6 -10q-2 0 -2 7q1 5 3 11.5t2 7.5l1 3zM441 699q-99 -62 -204 -311q65 13 91 15h10q1 0 2.5 1t2.5 1q49 6 53 6q44 172 49 266l1 17q-1 3 -5 5zM400 209q-6 -14 -6 -25l-1 -2l-1 -2q3 0 3 2q2 4 2 7l20 71
q-8 -16 -8 -21q-3 -3 -3 -8q-2 -2 -2 -5q0 -1 -4 -17zM314 6l8 16q0 1 -3 1q-1 0 -6 -6.5t-5 -8.5l-1 -3q2 0 3 4l3 4q0 -3 1 -7zM372 85q2 15 4 22q0 3 1.5 9t1.5 11q-13 -45 -14 -48q4 6 7 6zM390 151q0 4 1 5q-2 0 -3 1l2 7q2 7 3 11l-3 -4v-1l-4 -15q0 -1 -1 -5t-1 -6
l1 -3q0 5 5 10zM320 7q-4 0 -7 -5q0 -5 4 -5q2 0 2 2q3 1 3 5q0 1 -2 3zM423 326q-1 -8 -4 -12q4 -1 9 21l-3 -4q-2 -4 -2 -5zM453 431q1 1 1 8q-7 -7 -7 -9l-1 -6l2.5 2.5l3.5 3.5zM320 31l4 -3v5q0 4 -4 6q-1 -1 -1 -4l-4 -2l3 -1q2 0 2 -1zM353 148l-2 -10l-1 -1v-2v-4
q0 -3 1 -3l4 20q0 2 -1 5q0 -4 -1 -5zM426 288l-3 -3q-1 -3 -2 -6.5t-1 -4.5l1 -3q1 0 5 17zM302 7q0 -9 -4 -13q0 -2 2 -4l3 11q0 4 -1 6zM344 41v-8q0 -5 1 -6q0 2 0.5 4t0.5 3v9q0 -2 -2 -2zM483 546v-4l4 3l-1 3q-3 0 -3 -2zM477 543l1 -3l2 2l1 2l-1 3q-3 0 -3 -4z
M324 58q0 2 -1 4q-2 -2 -2 -4v-4q3 3 3 4zM397 164q-4 0 -4 -4l-2 -5q5 7 6 9zM471 511l-4 -1v-4q3 0 3 2zM440 354q-1 0 -2 -2l-1 -3q0 -1 1 -2v-1q2 2 2 8zM315 64l-2 -11q2 0 2 4v7zM390 226q0 -3 -2 -9q3 3 3 6q0 1 -1 3zM387 136q0 -4 1 -4l2 6z" />
    <glyph glyph-name="B" unicode="B" horiz-adv-x="502" 
d="M152 -3q-1 0 -88 -6h-6q0 1 5 1h6q2 0 6 1.5t7 1.5l11 1q2 1 6 1q2 0 3 1l2 3l-17 1q-1 0 -2.5 -0.5t-2.5 -0.5q-2 0 -8 -1t-11 -1h-4l-4 -2h-2q-4 2 -7 2h6q-3 3 -6 3h4q-11 0 -14 3q-2 0 -5.5 2.5t-5.5 2.5q-10 1 -13 7l-2 -3q-9 3 -10 4q-1 2 -7 13q2 0 5 -3l3 -7
q3 0 3 4q0 2 -6 8l2 -4q-2 0 -4.5 2.5t-2.5 4.5q-2 0 -2 4q-1 0 -3 3t-4.5 7.5t-2.5 9.5q3 40 34 71l6 8q16 18 48 44l4 4q7 42 15.5 82.5t13.5 59.5l6 19q-2 2 -5 2l-12 -4q-5 0 -8 -3q-5 -3 -13 -3q-11 0 -18 10t-7 21t8 16q3 0 3 2q0 1 4.5 6.5t7.5 6.5l57 14q3 1 5 6
q23 75 42 127.5t25.5 68t6.5 16.5q4 8 6 8q4 1 20 7h8q12 0 16 -8q12 -8 13 -22l-1 -7v-2l-1 -2q-50 -144 -57 -171l-2 -4v-2q1 1 5 1q112 34 182 83.5t70 96.5q0 32 -37 52t-79 25l-23 1q-8 1 -26 1q-68 0 -136 -25t-102 -63l-6 -7q-2 -3 -11 -3q-14 0 -14 23q0 1 3.5 4.5
t3.5 5.5v8q1 23 26 42q92 75 228 75q19 0 28 -1l22 -3q102 -6 154 -77q18 -29 18 -65v-10q-3 -33 -24 -63.5t-48 -51.5t-62.5 -39.5t-59 -27.5t-45.5 -16q108 -21 151 -68q75 16 138 24q10 1 21 1h4l-2 -3l-2 -3q0 -2 -3 -5l-2 -3q0 -2 -4 -6l-5 -4q0 -3 -6 -4.5t-6 -4.5
l-13 -7q-1 0 -4.5 -1.5t-6.5 -2.5q-2 0 -4 -2l-9 -1q-2 -2 -3 -2q-18 -5 -37 -9.5t-30 -7.5q1 0 1 -3q7 -15 7 -40v-11q-3 -87 -108 -158t-198 -79zM402 245q0 14 -5 29q-38 -9 -130 -49.5t-131 -60.5q0 -2 -3 -13t-4 -25v-6q0 -3 -2.5 -8.5t-2.5 -7.5t1 -3l1 -4l-1 -1
l-2 -1q0 -4 -2 -4q-1 0 -2 1t-2 1q0 -4 3 -4q-1 0 -3 0.5t-4 0.5q0 -1 -5 -1q-1 0 -5 1t-5 1q-5 4 -11 12l-12 22q-9 -5 -22.5 -20t-17.5 -23l-3 -7q-3 -6 -3 -10q0 -16 37 -19h8q56 0 129 22.5t135 70.5t64 106zM239 270q2 0 2 -2q1 0 3.5 2.5t4.5 2.5l1 1q2 1 4.5 2t4.5 1
q9 0 13 3q4 7 11 7q2 0 5 -3q6 0 10 4q-1 2 -4 2q1 0 9 4q5 5 17 5l11 3l-12 -9q1 0 13 4l7 5l3 2h-3q-3 -1 -4 -1q3 4 26 9q-24 17 -71.5 27.5t-72.5 10.5h-20q-10 0 -16 -1q-20 -68 -25 -89l-7 -27l-1 -6q2 0 2 2q2 0 3 1l8 8q0 -2 -1 -4q2 0 5 3l5 1q-1 0 -5 2q1 2 9 2
q4 0 7 3q1 3 6 3h5q-3 0 -7 -4q5 0 7 1q1 3 22 14t25 11zM175 348q-11 -21 -13 -30l-2 -5q0 -1 -0.5 -3t-0.5 -4l-2 -8q0 -1 -1 -4l-4 -13q-1 -5 -1 -6q-2 -6 -2 -11l-2 6q-1 -1 -1 -3t2 -10q0 -1 -1.5 -4.5t-2.5 -6.5l-2 -3q-1 -1 -1 -4t-2 -4v-3l1 -1q0 -1 1 -2l-1 -4
q3 1 3 7q0 8 1 10l4 12v1q2 0 2 6l6 24q0 4 2 13l3 9l1 8q3 2 13 33zM173 213q9 0 27 18l-2 -1l-2 -1h-2h-2q-6 0 -13 -6t-11 -6h11l-10 -4h4zM173 10q4 2 8 2q3 1 3 3q-2 0 -9 -2t-10 -3l-33 -9l-12 -6q6 2 22 5zM202 447v-1l1 -2l-3 -5l-2 -8q5 7 22 58q-1 -3 -4 -7
l-11 -30q-3 -3 -3 -5zM353 87q5 2 8 6q9 7 15 9l11 12q-3 -3 -6 -3q-7 -3 -7 -7l-5 -4q-4 0 -4 -1q-7 -7 -16 -13l-5 -4q3 0 4 1q1 2 5 4zM357 270q2 1 6 1.5t5 0.5l15 6q-2 1 -4 1q-1 0 -3 -3l-3 3l6 4q-6 0 -8 -2q-1 -2 -7 -5.5t-7 -5.5zM11 25q-1 0 -2 1q-2 0 -3 1l3 -6
q11 -5 17 -5l6 -3q0 1 -1 3q0 3 -3 3q-6 2 -10 2q-5 0 -7 4zM456 515q0 4 1 5q-4 -1 -4 -4l-4 -4l-3 -2q8 3 10 5q0 -3 -1 -5q0 -1 -1.5 -2.5t-3.5 -2.5t-3 -3q0 -1 4.5 2.5t5.5 4.5q6 2 7 3l-4 1q-3 1 -4 2zM324 265q-1 0 -14 -1q-6 1 -7 1q0 -4 9 -4q12 0 12 4zM296 413
q3 0 4 1l-4 4h-6l-1 -5q1 -1 3 -1t4 1zM192 233q6 0 9 3q0 4 -3 4t-4 -2l-2 -4v-1zM241 30h-5q-3 0 -6 -1q-3 -3 -7 -3l-6 -6h1l2 1zM101 0q-2 0 -11 -3h-14l6 2q7 2 8 2zM246 245q4 0 7 3q1 0 2.5 0.5t3.5 0.5l-2 2l-1 1q-2 0 -5 -2t-4.5 -3.5t-0.5 -1.5zM290 275
q5 8 13 10h-6q-3 0 -4 -0.5t-2.5 -3t-3.5 -4.5q1 -2 3 -2zM230 259q12 3 12 4q0 3 -4 3q-1 0 -2 -1.5t-3 -3t-3 -2.5zM339 295q7 0 11 4q3 0 5 1q-1 1 -4 1l8 2l3 2q-6 0 -13 -4.5t-15 -4.5zM168 221q0 -1 -2.5 -3t-2.5 -3q-4 0 -6 -4q10 4 11 10zM172 5l9 3h-5q-2 -2 -6 -2
q-1 0 -3 -1l-4 -2l-2 -1zM91 4q9 0 13 2h-10q-6 0 -9 -1q2 -1 6 -1zM57 -6h5l4 1l8 2q1 -1 -1.5 -2t-4.5 -1h-11zM79 5q4 0 4 2q-1 0 -7 -1h-6q1 0 4 -0.5t5 -0.5zM312 289q-4 -2 -5 -2h5q4 0 8 2h-8zM334 260q-1 0 -2 1l-2 1l-6 -4q3 0 5.5 1t4.5 1zM68 3q-1 0 -7.5 -0.5
t-10.5 -0.5h25h-1l-2 1h-4zM230 238q2 1 3 1l6 3h-6zM362 300l-4 -3l4 2q4 0 4 1h-4z" />
    <glyph glyph-name="C" unicode="C" horiz-adv-x="396" 
d="M404 217q-4 -5 -7 -9q0 -4 -3 -4q-2 -1 -4 -6q-31 -37 -31 -38q-9 -9 -10 -14q4 0 4 5q1 2 10 12t17 19l7 9l8 7q-1 -3 -8.5 -13t-14 -18t-7.5 -8q0 -2 -3.5 -6t-4.5 -7q-7 -6 -7 -7q-2 0 -2 -2q-1 -1 -2 -3q0 2 -2 2v-8q-5 0 -10 -7q-8 -5 -9 -9l-15 -14
q-39 -39 -47 -46l-12 -10l-4 -1l-3 -3q-4 -4 -18 -13.5t-42.5 -21.5t-52.5 -12h-8q-61 0 -93.5 51t-32.5 116v14q9 143 93 306.5t199 247.5q2 5 17.5 9t23.5 4q1 0 3.5 0.5t4.5 0.5q4 0 7 -3l3 3l1 2q2 0 5 -2l2 -1l20 -1q6 0 26 -8q2 -3 3 -3q28 -12 45.5 -49t17.5 -77v-7
q0 -13 -3 -28q-2 -34 -27 -91q-19 -3 -23 -7q-18 2 -31 18t-13 36q17 17 21 76v12q0 39 -19 66q-22 14 -29 14q-57 -24 -121 -126t-102 -197q-51 -127 -51 -211v-13q0 -108 74 -115q29 2 102 68.5t154 165.5l14 15q13 15 25.5 28t13.5 13q2 0 2 -4l-2 -16q0 -2 -2 -3t-4 -1
h-2v-7l4 -4q0 -1 -3 -3h-6q3 -3 3 -6l-7 -14v-2q-1 -1 -1 -2q-5 -2 -5 -9q-6 0 -6 -7q-2 0 -3.5 -2t-2.5 -4l-1 -2l-8 -9q-1 -1 -2 -3zM73 240v-4q1 1 1 5q0 1 1.5 6t2.5 7l3 14q3 2 3 6l7 23q0 5 7 23l2 9q1 0 1 2q0 1 0.5 1.5t0.5 1.5l17 41q0 2 8 16l12 29l-4 -5l-13 -29
q-2 -4 -2 -7l-5 -7q-3 -4 -13 -27q0 -2 -2 -6.5t-2 -7.5l-3 -5q0 -1 -1 -3t-1 -4l-3 -7q0 -16 -6 -16q-1 -1 -1 -5v-13l-3 4q0 -7 1 -12q-6 -2 -6 -9q0 -3 1 -4q0 -3 -1 -3q-1 -1 -1 -4t-2 -4q0 -1 -1 -3q0 -1 1 -1q0 -1 1 -2zM92 48q0 2 -4.5 6.5t-6.5 9.5l-4 8q0 1 -4 9.5
t-4 13.5v16l-3 -5q-1 4 -1 14v6l2 -3v5q-3 1 -3 4v21q-3 -11 -3 -22q0 -24 9.5 -49.5t21.5 -33.5zM70 210v24q-3 -3 -3 -12v-12l-1 -3v-5q2 6 4 8zM65 193l-3 -7q-1 -6 -1 -12l3 4q0 2 0.5 7t0.5 8zM339 132h-7l4 -4q2 2 3 4zM340 139q0 2 2 3q-5 0 -5 -6q3 0 3 3z" />
    <glyph glyph-name="D" unicode="D" horiz-adv-x="652" 
d="M383 576q-5 -40 -25 -108q-5 -17 -32.5 -106.5t-42.5 -147.5l17 7q133 50 240 73q46 89 46 187q0 117 -79 168q-42 26 -121 26q-23 0 -44 -3q-2 0 -5 4q9 3 49 5h6q4 0 4 1l-27 1q-31 0 -31 -4l-5 1q-6 0 -8 -1q-2 0 -2 -3h-5q-11 0 -12 -3l-3 -2q-4 0 -4 -3q3 2 5 2
q22 5 28 5q3 0 5 -4q-123 -18 -227.5 -114t-104.5 -197q0 -25 13.5 -41t39.5 -18l1 -4q1 -1 1 -3q0 -8 -5 -11q-22 -13 -40 -13h-4q-24 1 -41.5 22t-20.5 49q-2 9 -2 34v12q8 71 50.5 137t103 111t131.5 72t135 27h16q125 -7 195.5 -85t70.5 -194q0 -56 -31 -149
q51 11 122 15q7 -1 7 -3l-1 -8l-1 -2q-1 -3 -2.5 -6t-1.5 -4q0 -2 -4.5 -5.5t-4.5 -6.5l-2 -3q0 -1 -2.5 -2.5t-4.5 -2.5l-2 -2l-9 -4h-2q-2 -1 -4 -1q-43 -4 -112 -22q-63 -100 -157 -167.5t-199 -82.5q-6 0 -8 -2l-3 -6q-6 -3 -9 -3h-4l-7 -4q-9 3 -10 3l-1 1h-3
q-10 0 -11 -1q-2 1 -3 5.5t-4 4.5h-6q-87 9 -87 52q-1 3 -1 10q5 40 43.5 74t74.5 51q3 2 3 4q95 321 124 413l2 8l1.5 6l1 4t1 3t1.5 2t2.5 1h3.5q30 -4 37 -11q8 -9 8 -25q0 -9 -1 -13zM507 233q-143 -42 -238 -85q-5 -2 -5 -5q-17 -52 -24 -89q76 17 147.5 66.5
t119.5 112.5zM177 54l-1 4q2 18 10 55q0 1 -5 1q-38 -19 -59 -42q-1 -1 -4 -6q0 -1 2 -3q23 -10 43 -10l11 -1q3 0 3 2zM463 109q0 7 12 23l-2 -1q-2 -1 -4 -3l-2 -1q-1 0 -3.5 -6t-2.5 -8zM369 59l9 2q5 0 5 5q0 2 -3 2q-2 -1 -5 -4.5t-6 -4.5zM213 195l2 16q-2 -2 -3 -7
t-2 -6l-1 -5l-1 -5zM582 247l-15 -26l19 27h-2zM363 79h5q11 0 14 4q-3 0 -19 -4zM428 91q1 4 7 7q-3 1 -5 1q-1 -3 -1 -4q-1 -2 -5 -4t-4 -3q2 0 4.5 1.5t3.5 1.5zM321 67l-6 -2q0 1 -6 -5zM427 114l-4 4q0 -3 -4 -7q2 1 3.5 1.5t3.5 1.5h1zM443 109l8 3l-5 2q0 -2 -3 -5z
M367 720q-2 1 -4 1q-1 0 -3 -1q1 -1 4 -1h4l2 2q-2 0 -3 -1zM411 81l-4 2q0 -1 -3 -5q1 0 7 3zM416 697h7q-2 2 -9 2q0 -2 2 -2z" />
    <glyph glyph-name="E" unicode="E" horiz-adv-x="371" 
d="M263 381q132 0 151 -23h-11q3 -3 3 -7q0 -3 10 -9h-14q-18 0 -52 -2t-50 -2q-2 0 -5 -0.5t-4 -0.5h-10q0 -2 -4 -2q8 -2 24 -2h14q-30 -10 -66 -10q-55 -7 -81 -9q-1 0 -27 -5q-5 0 -6 -3l-1 -8q-1 -3 -8.5 -26t-9 -29t-7.5 -26t-8 -29.5t-5.5 -26t-4.5 -30t-1 -27.5
q0 -23 18.5 -35t48.5 -12q41 0 86 14t59 31q13 21 19 21q2 -5 4 -5l-1 -2q-2 -2 -3.5 -4.5t-1.5 -4.5q1 0 3 2t3 2l-3 -4v-3l-1 -2h13l3 3q0 -2 -6 -10l3 2q1 -2 1 -3q-5 -2 -5 -4h2q2 1 3 1t2 1t2 1t-3.5 -4.5t-10 -8.5t-6.5 -5l-5 -4l-3 -2q-2 0 -5 -2.5t-3 -3.5
q-7 -7 -15 -7q0 -5 -3 -5l-3 -3l3 1q4 0 7 3l13 7q-1 0 -7 -6t-8 -7q-38 -24 -67 -24q-18 -11 -56 -11q-128 0 -150 91q-1 3 -1 10v18q0 21 6 50t11.5 49t15.5 53t12 39q-9 18 -9 26q0 4 1 5q6 17 25 17q62 164 67 213q-3 2 -3 9q3 19 31 19q12 0 25.5 -8.5t14.5 -19.5
q1 -2 1 -11q0 -25 -21 -91q0 -1 -1 -4q-15 -47 -26 -80q-2 -4 -7 -20q49 5 99 5h5zM70 683q0 5 5 8.5t7 3.5q8 -4 13 -4q25 -3 51 -3q17 0 50.5 1.5t49.5 1.5h37q31 0 49 -5q13 0 19 -3h5q23 0 62 -22q2 0 4 -2.5t3 -3.5l3 -3h-3q1 -1 5 -2.5t5 -3.5h-3l3 -4
q-1 -1 -1.5 -3.5t-0.5 -3.5h-4q-5 0 -9 2h-1q-1 0 -2.5 -1t-2.5 -1l-5 4h-6q-2 -3 -4 -3q1 -1 8 -1q0 -4 -5 -4q-7 0 -8 1t-3 1l-3 3l-3 -2q-5 0 -13 3q-4 5 -6 5q-2 -3 -7 -3h-9q-6 0 -8 -4h19q7 0 6 -1q4 0 8.5 -1t6.5 -1q4 -1 7 -1l-5 -2q-2 0 -5 -0.5t-4 -0.5q-5 0 -5 2
q-26 2 -38 2h-19q-13 0 -37.5 1.5t-36.5 1.5q-1 0 -5 -1.5t-5 -1.5h26q-8 -4 -10 -4h-25q-8 0 -22 -0.5t-21 -0.5h-49q-5 0 -8 -3h-5q-7 0 -11 6q0 1 -1.5 4t-1.5 5q-7 0 -7 7q-7 8 -12 11q-2 2 -3 4.5t-1.5 4.5t-0.5 3q0 2 -2 4t-2 4q0 1 -1.5 3t-1.5 3zM326 640q0 2 2 6
h-15q-3 0 -6 3l-4 -4h7q8 0 12 -3h-5q-4 0 -4 -2q-3 0 -8 0.5t-10 0.5q-4 0 -4 1h-13l-7 -3q2 0 4 -0.5t3 -0.5h24q2 -1 5 -1q1 0 4 0.5t5 0.5t4 -1h9l-1 1q-2 1 -2 2z" />
    <glyph glyph-name="F" unicode="F" horiz-adv-x="346" 
d="M312 645l3 -3q2 -2 4 -2q1 0 4.5 1.5t2.5 2.5h-8q-2 0 -4 2q-2 3 -3 3l-8 -2q-1 0 -2.5 -0.5t-3.5 -0.5h-7h-3.5t-0.5 -1q-2 1 -7 1q-2 0 -3 1l-1 1q-2 0 -11 -5q-2 0 -4 -1h-1h-4q-4 0 -4 1q-3 -1 -5 -3q-3 3 -4 3l-2 -3q-2 -2 -4 -2q-5 1 -8 1t-3 -2q0 -3 1 -3q5 0 8 3
l12 1q3 1 11 1q7 0 8 2l7 2l12 1q6 0 6 -2q4 2 7 2q1 0 2.5 -1.5t3.5 -1.5q0 1 2 3t3 2q1 -4 2 -4zM412 646l8 -2q0 5 -12 5h-4l-3 1l-5 2q-2 0 -4 -1l-1 -1q-1 0 -2.5 0.5t-2.5 0.5t-2 -1l-1 -2l-3 1q-2 1 -4 1h-26l-3 -1l-2 -1h-4l-5 2l-5 -4q0 -5 5 -5l-1 3q2 2 4 2h50
l5 2q4 -2 7 -2h11zM436 655q-2 -2 -2 -7q1 1 3 1q3 0 3 -3q3 3 3 5l-4 3q-3 0 -3 1zM453 639l4 3q-1 3 -4 3q-2 0 -2 -3t2 -3zM430 656l-3 3v-5q3 0 3 2zM321 361l-3 -3v-4q0 -2 -3 -2l-2 4q-6 -6 -10 -6l-4 3q-3 0 -4 1q-2 -2 -3 -2q-2 0 -2 3l-2 -4l-1 4l-3 1q-1 -4 -4 -4
l-2 4q-2 0 -3 -3q-4 0 -4 -2t3 -4l-4 -5l-4 1l-3 -1h-4q-2 0 -2 2l-1 4h6q2 0 4 4q0 -1 -3 -1q-5 0 -6 1t-9 1h-5q-7 0 -9 2h-5l-3 -4l5 -2l-3 -5q-1 0 -3 2l-4 -1q0 -2 -4 -2q-2 2 -3 4q0 -3 -7 -3h-1l-2 1q-2 0 -2 -2t3 -5l1 -1v-2q0 -3 -2 -3q-4 0 -6 2q-7 0 -7 -4
q-1 0 -1 1l-2 1q-4 0 -4 -3q-5 0 -8 1l4 -4l-24 -2l-9 -32q-57 -203 -58 -265l-1 -12q-2 1 -7 1q-3 0 -8 -0.5t-7 -0.5q-22 0 -30.5 13.5t-9.5 40.5q0 5 0.5 12t1.5 15.5t1 13.5q5 27 28.5 115t23.5 95l-5 6q-8 6 -11 14q0 5 -0.5 10t-0.5 8q0 4 2 8q0 1 0.5 4t1.5 5
q6 8 21 8h4q5 0 5 3q23 58 59 234q-1 0 -13 -2t-13 -2q-31 0 -44 11l-6 6q0 1 -1 1t-3 2l-6 15q0 5 -2 13q5 20 41 20q47 0 119 5t103 5q143 0 166 -43q0 -1 -8 -1q-5 0 -9 -4l1 -3l-3 1q-3 2 -4 2q-1 -5 -1 -7q0 -3 -3 -3l-8 1q0 -7 -8 -7q-3 0 -3 2q-4 2 -4 4q-1 -3 -5 -3
q-5 4 -8 4q-1 1 -3 1l-6 1l-2 -3q0 2 -2 2q-4 0 -4 -3q0 2 -9 3h-11q-1 0 -3 1l-2 1q-1 0 -2.5 -0.5t-3.5 -0.5l-33 -2q-50 0 -131 -11q1 -1 1 -6q-1 -25 -20.5 -110.5t-29.5 -119.5q97 5 114 5h23q38 -2 66 -10q10 -2 14 -11h-5q-4 0 -5 -2l2 -4q-5 -3 -7 -3q-1 0 -2 1.5
t-4 2.5q0 2 -3 2.5t-4 1.5q-5 0 -5 1q-4 0 -5 -1q3 -4 3 -6l4 -1q0 -2 -2 -2h-8q-2 0 -3.5 -1.5t-3.5 -1.5h-8v-8h-4q-6 0 -10 8zM206 340l2 1q2 1 5 1q4 -2 7 -2l3 -4l-4 -4q-2 0 -2 3q0 -1 -3 -1h-5q0 5 -3 6zM210 355l-6 1l3 -8h5l2 2q0 5 -4 5zM337 369q1 0 2 2.5t3 2.5
q0 3 -3 3q-5 -1 -7 -2q2 -3 5 -6zM195 340q5 0 5 1q0 3 -6 3q-2 0 -3 -1q0 -3 4 -3zM226 363l-5 3l-1 -3h-4l2 -6l7 2zM171 350v4h-6q1 -4 6 -4zM181 337l5 3l-7 1zM234 358l-5 4l1 -4h4zM173 340h4v4q-2 0 -4 -4zM246 360l1 -4q3 2 3 3q-2 0 -4 1zM209 362l1 -3q3 0 3 2z
" />
    <glyph glyph-name="G" unicode="G" horiz-adv-x="569" 
d="M135 344q-12 -17 -25 -48l-7 -19q0 -1 -1 -2t-1 -2q-2 -2 -2 -5v-4q-19 -44 -19 -77q0 -7 1 -9q2 -5 3 -5q9 0 61.5 36.5t86.5 63.5l66 53q135 107 170 119q4 8 15 8q3 0 11 0.5t9 0.5q9 0 25 -16q9 -7 9 -26q0 -3 -1 -9.5t-1 -8.5l-6 -44q54 24 100 34q11 3 25 3
q20 0 22 -9q0 -2 3 -8l3 -5q0 -3 -6 -5q-30 -6 -80 -30t-77 -44q-29 -114 -62.5 -187.5t-97.5 -166.5l-10 -5q3 0 3 -2l-4 -4q-1 0 -3 -5q-1 -3 -4 -3l-6 -4q0 -6 -1 -7.5t-3.5 -3t-4.5 -3.5q0 1 1.5 3t1.5 3q-11 -11 -12 -13l1 -2l1 -2q0 -4 -4 -4q-1 0 -3 1t-3 1
q-2 0 -2 -4l1 -4q-5 0 -5 3q-2 -7 -6 -7q2 -2 5 -2q2 0 3 -1l-2 -1l-5 -2.5t-5 -3.5q-7 -2 -18.5 -9.5t-14.5 -7.5q-1 0 -4 -2t-7 -4t-5 -3q7 0 7 -3q0 -4 -8 -4l-7 -2l-4 2q-2 0 -2 -2q-1 0 -4 -3h-2l-2 -1q-2 0 -6 3.5t-5 3.5q0 -3 -3 -5q2 0 3 1t2 1t3 -3l1 -3
q-4 -9 -19 -9q-1 0 -6 -3t-6 -3q-2 0 -3 3t-2 3q-1 -5 -5 -5h-10l-17 3q-2 0 -11 5l-9 6q-1 1 -4 1t-3 1q-1 1 -7 2.5t-7 3.5q0 1 -3.5 3.5t-3.5 4.5q-1 2 -1 8q0 5 1 8q2 44 33.5 105t65.5 106q55 75 123.5 142t127.5 107q6 15 11.5 45t5.5 39q-10 -10 -13 -11q-4 0 -9 -7
l-7 -4l-5 -5l-4 -4q-1 1 -4 -4q-2 -2 -8 -2q-1 0 -2 -3q-1 -2 -2 -3l-7 -8q-5 -2 -6 -3l-11 -8q-2 -1 -9 -7t-7 -7q1 0 4 1l3 1q0 -2 -2 -3q0 -1 -3 -2t-3 -3q-7 -5 -8 -5q-3 -2 -9 -7.5t-9 -7.5q-4 -5 -24 -20.5t-23 -16.5q-163 -127 -212 -127q-26 0 -47 19t-23 41v9
q0 54 25.5 120t57.5 112l7 8q3 -1 5 -6q0 2 -1 6l-1 5q8 12 12 16q0 1 2.5 2t4.5 4q0 4 -1 4l1 2l1 1l2 2q2 1 2 3q1 1 3 5l4 4q-1 0 -1 -4l7 7q-3 0 -3 -2q0 4 4 4q1 0 3 -0.5t3 -0.5q5 0 5 5l-5 -1q-6 0 -7 -1q11 17 42 49.5t75.5 71.5t100.5 67t102 28q43 0 83.5 -25.5
t42.5 -65.5q-1 -11 -10.5 -25t-21.5 -17h-1q-1 -1 -2 -1t-3.5 -0.5t-4.5 -0.5q-8 0 -10 13v5q0 12 -3 21q-1 1 -1 11q-6 18 -20.5 26.5t-24.5 8.5q-35 0 -90 -30.5t-114 -85.5q-84 -79 -150 -191q-4 0 -4 -3v-3zM316 106l-14 -16q-94 -117 -137 -210q-2 3 -2 6q0 -1 -2 -3
t-2 -3l-3 -2q-2 -2 -2 -3l4 -2q-6 -13 -8 -29v-6q0 -1 4.5 -3t5.5 -2l17 4q75 37 144.5 154t107.5 226l3 10l-56 -53l-2 -6l-28 -29l-5.5 -5.5l-4.5 -4.5l-9 -9q-1 -2 -1 -5q-2 -3 -5.5 -5.5t-4.5 -3.5zM77 213v-10l-2 -5l-1 2q-2 2 -3 2v-7q0 -2 -1 -3q1 0 4 -6
q0 5 2.5 10.5t3.5 12.5zM360 345q3 0 7.5 3t6.5 6l3 2q2 0 4 2q-11 0 -21 -13zM72 236l8 16q0 4 -1 4q0 -3 -1.5 -5.5t-2.5 -4t-2 -0.5q-4 -6 -4 -12q3 0 3 2zM441 282q-1 -3 -6 -9.5t-6 -6.5q-3 0 -3 -4q1 -1 3 -1q6 0 6 8l1 3q2 3 3.5 6t1.5 4zM419 246v-8l4 1q0 3 -1 5.5
t-2 3.5v1q-4 -3 -4 -5t1 -4zM416 381q1 1 4 3t5 4q-3 0 -6.5 -2t-5.5 -4l-2 -1q0 -4 1 -4zM232 -135q1 -1 3 -1l8 4l-4 4q-1 -2 -4 -4q-2 -1 -3 -3zM305 277l10 6l4 6l-10 -6q-4 -1 -4 -6zM273 -132q-1 0 -3 2l-1 1l-8 -8q7 0 12 5zM81 301l1 11l-3 -2l-1 -1l-1 -4q4 0 4 -4
zM332 -89q6 0 6 7q-2 -1 -6 -7zM75 293v-5q6 0 6 2q-3 0 -6 3zM310 -45q5 0 5 4q-5 -4 -7 -4q-1 -1 -1 -4q3 0 3 4zM92 275q0 -3 3 -4q0 7 -1 7q-2 0 -2 -3zM99 350h-7l3 -3zM174 508q-3 0 -3 -2q0 -1 1 -2v-2q2 2 2 6zM86 325q1 0 3 0.5t3 0.5q-1 3 -1 4zM354 205
q-1 0 -4 1q-2 2 -2 1l3 -4zM187 518h-6q0 -3 2 -3q1 0 1 1q2 1 3 2zM386 230l-1 -7l3 5zM82 267l4 4q-5 0 -5 -1l1 -1v-2zM234 -161l3 -3q1 0 1 1.5t1 1.5h-5zM148 450h-5q1 -2 3 -2t2 2z" />
    <glyph glyph-name="H" unicode="H" horiz-adv-x="469" 
d="M245 672l-5 -17q-9 -31 -30.5 -112.5t-33.5 -124.5l-9 -32q98 15 201 25q41 152 76 270l6 9q0 11 9 19q3 8 13 8q8 0 14 -8h5q17 -11 17 -37v-12q-3 -13 -12 -45.5t-24.5 -88t-29.5 -110.5h15q25 0 31 -3l6 -5q2 2 7 2q1 0 3 -2l2 -1q0 -1 -2.5 -2t-4.5 -3l8 -2
q0 -3 4 -3l-4 -3l10 -1q8 0 8 -7q4 -1 4 -4l-1 -7q-4 -2 -16 -2l-83 -7q-28 -107 -70 -289l-1 -1q-1 -2 -3 -4.5t-3.5 -5t-3.5 -5t-2 -3.5q0 2 0.5 8t0.5 8v3q-2 0 -3 -12q0 -2 -4 -10l6 -2l-12 -6q0 -1 0.5 -2.5t0.5 -2.5l-2 -7l3 -3l3 3v-5q0 -6 -2 -8h-3l-1 -6
q0 -1 -1 -4v-2q-1 0 -1.5 -1.5t-1.5 -1.5l-2 -9l-6 -1v-4q-2 2 -2 5q-2 -3 -5 -5v4q-5 0 -7 -4l-5 6q0 -3 -3 -3q0 2 -2 3t-2 2q-1 -1 -3 -2l-2 -1h-7l1 2v2q0 3 -2 3q-12 0 -12 14l6 21v8l78 309q-89 -10 -202 -32q-38 -146 -61 -261q-1 -11 -2 -11l-1 1h-3q-6 -23 -9 -24
q-1 0 -3 -1q-3 0 -5 -1q0 2 -3 2q0 3 -6 3h-6l-8 -2q-4 0 -6 1l4 -4q-5 0 -9 8q0 6 -3 9q-2 1 -2 4l1 10q-3 0 -3 3q0 2 1 5v7l-3 -3v5l3 10v12q0 8 1 12q15 86 45 199q-12 -3 -32.5 -8t-29.5 -7q-15 0 -18 6v16q0 12 12 30q15 12 25 13q4 2 9 3l51 11l10 32q49 182 77 266
q5 14 19 24.5t24 12.5l18 3q9 0 12 -7q1 -1 1 -3q0 -1 -0.5 -2.5t-0.5 -2.5l-3 -14zM333 364l3 2q-2 2 -3 2h-7q-2 0 -8 -2q2 -1 5 -1q1 0 2 -1.5t3 -1.5q1 0 5 2zM354 95q1 1 1 4q-1 2 -1 5q0 2 1 6l1 3q-2 -3 -4 -7v-8q2 -2 2 -3zM349 370h-5l-4 -1l1 -3q0 -2 1 -2l1 2
q1 1 2 1q4 2 4 3zM345 376h-7q2 -2 4 -2q1 0 3 2zM364 126v1q-1 1 -1 2v-6q1 1 1 3z" />
    <glyph glyph-name="I" unicode="I" horiz-adv-x="162" 
d="M57 50v-4l-1 2l-2 4v-11q-4 0 -4 -1l3 -9q-1 0 -5 3.5t-4 5.5v-3l1 -2q0 -3 -5 -5q-1 1 -4 1q2 0 2 -3q0 -4 -3 -4t-5 1l-6 -2q-2 2 -7 2q-3 0 -3 -1q-9 10 -9 38q0 18 4 43.5t8 44t10 45t7 30.5q8 34 45 165q9 30 29.5 93.5t33 109t15.5 74.5q1 11 10 14q1 1 4 1
q4 0 10 -3.5t9 -4.5q24 -9 24 -38q0 -2 -0.5 -5.5t-0.5 -5.5q-1 -20 -5.5 -43t-11.5 -49.5t-12 -43.5t-15 -47t-12 -38q-48 -150 -74 -279q-1 -4 -4.5 -16.5t-4.5 -19.5q0 -2 -2 -4l-3 -11q0 3 -4 11q-1 -1 -1 -5v-6l-2 3v1l1 2q0 2 -1 5t-1 4l-1 -3v-25l-3 4q-1 0 -1 -3
q0 -2 0.5 -6.5t0.5 -5.5zM51 153q-1 1 4 3l-2 4q-5 0 -6.5 -6t-2.5 -6h6q1 1 1 5z" />
    <glyph glyph-name="J" unicode="J" horiz-adv-x="343" 
d="M-26 41q-10 6 -10 14l-7 4v8l-6 5q0 7 -6 10q0 7 -2 7t-5 11.5t-3 14.5q-1 2 -1 6q0 6 8 14q3 4 19 4l5 -2q4 0 4 -4q1 -1 1 -3l-1 -4q9 -32 34.5 -48.5t60.5 -16.5q23 0 45 15q3 3 5 3q34 22 64 69t49.5 94.5t41 123.5t31.5 120.5t26 121.5l5 26q-60 0 -175 -23
q-5 -2 -17 -4t-16 -3q-5 -2 -15.5 -3.5t-15.5 -2.5q-2 -1 -7 -1q-7 0 -11 4q-2 1 -6.5 2.5t-7 3.5t-3.5 6q-2 2 -4 3t-3 2.5t-1 4.5v7q0 2 -2 3.5t-2 2.5v7q-3 0 -3 2q0 1 4 4v5q0 4 4 4q0 3 2 3h4q23 0 33 2l73 11q7 1 19.5 3t16.5 2q154 19 246 19q54 0 91 -7
q32 -8 32 -20v-7q1 -1 2.5 -2t2.5 -3t1 -5q0 -8 -7 -8q-7 -5 -13 -5q-16 0 -43.5 0.5t-39.5 0.5q-42 0 -74 -4q-6 -42 -8 -52.5t-11.5 -64.5t-16 -81t-20.5 -82.5t-26.5 -88t-32.5 -78.5t-40.5 -75t-47.5 -55.5t-56 -39.5l-17 -6q-1 0 -5 -1.5t-6 -1.5q-8 -4 -21 -4
q-5 -2 -15 -2q-11 0 -15 2q-3 0 -8.5 -0.5t-9.5 -0.5q-2 2 -6 2h-4q-6 0 -9 3q0 2 -3 2q-1 0 -3.5 -0.5t-3.5 -0.5q-2 0 -2 4q-7 0 -7 3q0 4 -7 4q-1 1 -3 1q-1 0 -4.5 2.5t-4.5 2.5q-5 2 -7 3.5t-2 3.5t-1 4zM547 656q0 -2 3 -2q2 0 2 2h-5zM332 379l2 -6l1 -4l5 20v1
q-1 2 -2 3q2 0 2 2v1l-1 2q0 2 3 4q2 2 2 3q-2 2 -2 3v5q0 4 2 6q3 4 6 16q0 2 2 10t2 13h-1q0 -2 -2 -3q-1 -1 -1.5 -5.5t-2.5 -5.5v-5q-4 -17 -6 -18v-13q0 -2 -4 -8l-3 -16v-3zM303 274l-2 -4q6 1 6 4q2 8 2 15q-5 -10 -6 -15zM358 473q-1 -1 -1 -4l1 1q0 1 1.5 2.5
t1.5 3.5q2 4 2 7q0 1 -0.5 3t-0.5 3v6q-4 -7 -4 -22zM300 333q3 -10 4 -10q5 0 5 22l-9 -5v-7zM309 361v5q-4 -4 -4 -6q0 -1 2 -5q2 2 2 6zM366 505q-3 -1 -3 -4t1 -4q0 1 1 3.5t1 4.5z" />
    <glyph glyph-name="K" unicode="K" horiz-adv-x="352" 
d="M21 58q2 3 2 32q-3 -3 -3 -7q0 -1 1 -3q0 -2 -1 -4q0 1 -2 3.5t-2 4.5q-2 -4 -2 -5v-6q0 -2 -2 -4q3 -1 3 -4q1 -1 1 -4l-1 -11q4 4 6 8zM28 116l1 7q-4 -4 -4 -9q0 -1 1 -3v-2l-3 -3q-3 -12 -3 -15q0 1 0.5 2.5t1.5 3.5t1 3l2 -9zM20 112q5 5 5 9q0 2 -2 6q1 -1 1 -3
t-2 -6q0 -2 -1 -3.5t-1 -2.5zM362 29q-4 2 -6 2q-1 0 -3.5 -0.5t-4.5 -0.5t-6 2q-6 3 -18 5q-1 1 -5 1q0 -1 1.5 -2.5t2.5 -4.5l-4 2q-72 30 -138 113l-28 37l-5 3q-24 33 -27 40l-3 3q-31 -102 -46 -187q-2 -14 -2 -18v-4q0 -8 6 -9q-2 -1 -4 -3.5t-4 -3.5q-4 -7 -6 -10
h-26q-1 -1 -3 -1l-3 1q-2 1 -3 1q-2 -4 -4 -4q-3 0 -7 3q-5 -3 -8 -3q-10 0 -10 24v7q1 22 6 46q11 78 51 208t84 258t53 161q4 14 4 25l1 6q-1 1 -1 4q0 5 6 10.5t11 6.5q6 6 14 6q11 0 25 -9q14 -8 14 -26q0 -34 -35 -140t-63 -179q95 67 266 206l39 31q2 1 15 13t20 16
q2 1 5 1q8 0 8 -10q0 -2 -4.5 -14.5t-4.5 -19.5q-3 -10 -13 -24.5t-12 -19.5q-27 -36 -75 -74q-92 -75 -214 -164l-28 -21q-1 -1 -7.5 -5.5t-9.5 -7.5v-7q48 -98 177 -233q4 -4 10 -9t9.5 -8.5t7 -8.5t5.5 -11zM317 66q0 -1 -2 -3q0 -3 2 -3q5 -3 16 -8l-3 4q-4 3 -6.5 6
t-3.5 3q-2 1 -2 4t-2 3q1 -1 1 -6zM430 535l-8 1q-6 -4 -6 -5h4q0 -2 -1 -3.5t-1 -2.5q2 0 12 10zM71 298l1 9l-9 -28q1 2 3 6.5t3.5 8t1.5 4.5zM281 88q3 -3 9 -6.5t8 -6.5q-3 4 -3 5l3 -2q0 4 -2 5l-10 2q-4 4 -4 6q-14 0 -27 13q1 -2 6.5 -6t7.5 -7l-1 -3l-4 4
q-6 0 -6 -1q6 -7 11 -9l2 -4l3 1q2 2 3 2q2 0 7 -3l6 -2l3 -1q-2 3 -6.5 7t-5.5 6zM159 348q0 -3 7 -3q2 0 5 -0.5t4 -0.5l-2 3l-3 1q1 2 3 3t2 2q-4 0 -16 -5zM180 337q3 3 3 5l-3 -1q-2 0 -6 -4l-3 -3q-6 0 -8 -8q5 5 9 5l3 3q3 3 5 3zM204 361l-1 -3l14 7l7 7l-3 1l-4 -5
l1 5q-7 0 -7 -8l-4 -2q-1 0 -3 -2zM186 350l4 4q-2 2 -11 -7l10 2zM151 333q13 3 15 5q0 3 -3 3q-5 -3 -7 -3q-3 0 -5 -5zM8 3l3 3l1 3q-1 1 -1 3v4l-1 -6q-2 -5 -2 -7zM261 109l-1 -4q2 0 11 -5l1 3q-2 0 -6 3t-5 3zM290 73l-2 1q-3 2 -4 2h-5q0 -1 2 -4t3 -3q2 0 6 4z
M303 80l-1 -1v-2q0 -2 3 -5q4 0 6 2q-3 0 -8 6zM274 102q0 -2 2 -2h2l2 1q2 0 2 -2l1 4h-5q-3 0 -4 -1z" />
    <glyph glyph-name="L" unicode="L" horiz-adv-x="301" 
d="M294 20h4q-1 -4 -12.5 -5t-13.5 -3l-4 2q-13 0 -19 -6q7 0 11 2q-1 -3 -22.5 -9.5t-24.5 -6.5q-13 -5 -56 -10.5t-65 -5.5q1 -2 26 -2q1 0 3 0.5t3 0.5q7 0 18.5 1.5t16.5 1.5l15 4q1 0 3 -2l2 -1q1 0 3 2t4 2t6 1t5 1l43 10q0 -1 -11.5 -4.5t-28 -7.5t-29.5 -6
q-38 -8 -76 -8h-4q-56 3 -82 24t-26 44q1 12 6 24t12 24t9 17q139 326 202 559q1 7 3.5 18t3.5 15q1 18 25 18q9 0 14.5 -6.5t5.5 -15.5v-4q0 -3 4.5 -12t4.5 -13l-1 -19q-33 -210 -213 -608q6 0 12 -2.5t8 -2.5q6 0 30 4.5t58.5 10.5t58.5 9q76 12 91 12h5q4 0 13.5 -1
t17.5 -1q2 0 5.5 1t4.5 1q11 0 19 -10l-3 -4q3 -6 12 -6q-5 -5 -7 -5l-13 -5h-4q-4 0 -8 -1.5t-12 -1.5q-1 0 -6 0.5t-8 0.5q-18 0 -20 -8q0 -4 -10 -4q-14 0 -19 -2zM95 160q5 25 5 26q-7 -22 -16 -39v-2q1 -2 1 -3q4 2 10 18zM4 74l-8 -14q-1 -1 -1 -6q3 0 5 5q5 7 7 14
q0 2 -1 3q-2 0 -2 -2zM59 120q-2 9 -2 11q-1 -3 -2 -7.5t-1 -5.5q0 -2 -4 -4q5 0 5 -4l2 5q0 3 2 5zM45 143q0 5 -3 5q-2 0 -2 -2v-7q5 0 5 4z" />
    <glyph glyph-name="M" unicode="M" horiz-adv-x="753" 
d="M687 113q-9 -48 -17 -81q-2 -20 -3 -22q0 -4 -3 -8q-2 3 -2 7q0 3 -1 3q0 -3 -1 -5v-5q0 -7 1.5 -9t1.5 -4q0 -25 -4 -25v-6q-2 -7 -3 -7q-5 4 -7 4q-5 0 -5 3l-3 3l-4 -1q0 -5 4 -9q-5 -1 -7 -1q-12 0 -17.5 11.5t-7.5 12.5q-14 8 -14 36q0 11 1 18t2 15.5t2 15.5
q1 10 5 29t5 25l3 14q0 2 2.5 7t2.5 7q3 16 4 19l3 15q0 1 1.5 7.5t3 15t7.5 31.5t15 54q4 11 10 34.5t11 37.5q0 1 4 11q-1 2 -1 5q1 9 11.5 43t13.5 39l4 21q0 2 3 5q2 12 10.5 41t10.5 40q1 4 4.5 12.5t4.5 12.5q1 9 2.5 16t3 10.5t2 6t0.5 4.5l7 51q-67 -93 -129 -210
q-6 -10 -7 -10t-12 -23l-11 -13q0 2 5.5 14t10.5 23l5 11q-3 0 -6 -6t-6 -15t-8 -14q-2 -4 -4 -13t-2 -10q2 2 3 2q-20 -38 -57.5 -112.5t-67.5 -132.5t-49 -89q-1 -1 -7 -12.5t-10 -15.5q-2 -4 -12 -6q-3 0 -9 -4t-10 -4q-17 0 -19 1q-3 -1 -10 -1q-2 0 -8.5 2.5t-13 5.5
t-7.5 3t-4 6q-8 5 -11 19q-9 8 -9 31q-2 16 -2 24q0 29 4 83q4 55 14 136t12 123l1 10q3 48 3 81q0 80 -13 105q-1 1 -3 1q-16 0 -33 -23q-71 -98 -109 -223.5t-64 -288.5q-1 -7 -3 -21.5t-2 -20.5v-7q0 -17 6 -33q2 -6 2 -7q-1 -10 -19 -15t-32 -5q-11 0 -15 1
q-14 0 -14 46q0 3 0.5 11t0.5 12q2 42 10 98q41 208 107 353q30 66 76 120.5t87 54.5q14 0 28 -8q61 -18 61 -174q0 -38 -1 -52q-4 -69 -17 -194.5t-16 -184.5l-1 -15q1 0 2 1q2 2 3 2l26 49q21 41 72.5 143.5t76.5 150.5q117 224 194 295q6 6 19 6h4q10 0 33 -13
q11 -7 21.5 -17.5t10.5 -14.5l-1 -4l-3 -2l3 -3q3 -3 3 -5t-4.5 -6t-5.5 -6q2 2 4 2q1 0 3 -1h2q1 0 2 1q0 -13 -2 -29q-3 -11 -6 -29t-6 -29q-1 -5 -14 -48l-2 -6q-2 -5 -2 -7v13l9 32q0 4 -3 4h-2l-1 -1l-1 -3q0 1 4 1q1 0 1 -3t-3 -3q-2 0 -2 -3q-1 -3 -5 -5l-7 -11
q3 -3 3 -4q0 -2 1 -4q-3 -8 -7 -23t-5 -18l-4 -2q-1 -2 -1 -6l2 -1l2 -1l10 34l2 5q1 5 3 5t2 -2q0 -1 -2 -4q-1 -3 -2 -5q0 -3 -3 -18q0 -2 -2 -7t-2 -8q0 -2 -3.5 -6t-3.5 -6q-1 0 -3 2v7q-4 -9 -7 -26.5t-6 -24.5q3 6 3 7l5 9v10q0 1 4 13q2 -1 5 -1q1 0 2 2.5t2 5.5l2 3
q4 10 5 12q-3 -5 -10 -45q-4 -8 -6 -19q-1 -1 -1 -4t-4 -11t-5 -13q0 -2 -0.5 -4t-0.5 -3q-16 -40 -16 -60q-1 -11 -5 -20q-2 -15 -7 -24v-10l-5 -16q-1 -2 -1 -7q-2 -8 -3 -9l-2 -3q0 5 -1 5q0 -1 -2 -8.5t-3 -10.5l2 2v-6q0 -2 2 -4l-2 -3l-3 -10q2 0 2 -2q0 -1 -3 -10
q-10 -34 -20 -78zM668 158q2 2 2 4l-1 4l-2 -3q-9 -20 -9 -34q0 7 7 14q0 6 3 15zM701 197q-9 -28 -9 -37l5 15l1 3q1 3 2.5 9t2.5 9q0 2 1 3l-2 -1q-1 0 -1 -1z" />
    <glyph glyph-name="N" unicode="N" horiz-adv-x="515" 
d="M432 114q-1 -2 -2 -5l-1 -2q0 -1 -1 -1l-1 -2q0 -1 0.5 -4t0.5 -4l-2 -5l-5 -6l1 -1v-3l-1 -1l-2 -4t-1 -3q0 -8 -4 -8q0 -1 2 -3q-2 -4 -2 -5q-3 -2 -8 -18t-8 -18l-5 -5q-19 -40 -54 -40q-4 0 -14 5t-17 5q-16 0 -25 17q-2 4 -11 44q-3 32 -3 53v15q-1 8 -2 25t-2 25
q0 58 -12 358q-3 19 -7 59l-5 7q-4 -2 -4 -5t-11 -30l-57 -164q-80 -234 -80 -289q-3 -6 -3 -11v-4l-2 4q-3 3 -3 4q0 -1 1 -2v-2v-6h-2l-1 1q0 -7 -3 -7h-1q-1 1 -2 1q-2 0 -8 -4l-6 -3h-3l-2 1l3 -2q0 -1 -3 -2l-2 -1q-1 -3 -2 -3h-6q-18 0 -18 20v22q10 97 44 210
q8 22 24 70.5t25 73.5q5 22 18 47q1 5 22 64l22 52q8 17 8 21q2 4 7 24q2 10 10.5 18t18.5 8l37 -7l21 -7q6 -4 13 -13q7 -24 15 -76q3 -22 10 -85l8 -173l-1 -19l3 -41q5 -70 5 -183v-48l2 -11q5 2 8 13t4 12q12 38 44 147t49 162t48.5 140t65.5 161l8 16q2 3 15 19
q1 4 10 7q12 5 14 6q4 0 12 4q2 -2 2 -4q0 -1 16 -1l-2 -5q-2 0 -2 -2t-1 -3l-10 -26q-2 -6 -14.5 -39.5t-18.5 -48.5l-5 -8l-1 -10l-18 -51l-3 -3q-6 -17 -60 -182q-1 -6 -4.5 -15.5t-4.5 -13.5q0 -3 -2 -7.5t-2 -6.5l-1 -9q0 -1 -1 -2l-1 -2q0 -4 -3 -8.5t-3 -7.5l-1 -5
q0 -1 -1 -2l-1 -2q-4 -1 -10 -27v-1q1 -1 1 -2q-4 -4 -5 -6l-3 -3l1 -1v-2q2 -1 2 -3l-6 -14l-2 -11q0 -3 -1 -6.5t-2 -6.5l-1 -2q-2 -8 -8 -25.5t-8 -30.5zM302 380q4 -5 4 -18l2 12q-1 2 -3 4.5t-3 1.5zM310 489l5 5q-2 0 -5 -2l-1 -9l5 5q-1 0 -1.5 0.5t-2.5 0.5z
M303 506q0 2 -3 4l-1 -9q2 2 3 4v1h1zM296 599q0 -5 3 -5v6q-4 4 -4 5q0 -6 1 -6zM305 436l1 4q0 3 -2 4.5t-2 3.5l3 -11v-1zM322 357q0 1 -0.5 3.5t-0.5 4.5q-1 1 -4 1l-3 -4l4 -5l1 -4zM314 453l1 18q0 1 -1 2t-1 2q0 7 -2 7q-1 -1 -3 -5q3 -2 5 -12v-5l-1 -1v-2
q0 -2 2 -4zM322 256l2 19q-3 1 -3 7q0 2 0.5 5t0.5 5l-1 3q0 5 -6 9q-2 0 -2 -2l2 -6q0 -6 3 -6l1 -16q0 -1 1 -4v-2q-2 -18 -2 -21l-4 -8l2 1q1 0 3 1t3 1v14zM309 537q0 6 -2 8v-23q3 5 3 6v6q0 2 -1 3zM310 305l-1 11l-1 -4q-1 -4 -2 -8.5t-1 -5.5q0 -2 1.5 -3t1.5 -2
q0 1 1.5 2.5t1.5 2.5q0 2 -0.5 4t-0.5 3zM308 560l-2 6l-1 -18q2 0 4 -2q-1 2 -1 5v9zM311 265l1 7q0 6 -2 6l-6 2q2 -6 3 -8v-6q0 -6 6 -6q-2 3 -2 5zM313 498l1 8q0 3 -5 3q1 -1 1 -5.5t3 -5.5zM302 528l-1 5l-1 -11q2 4 2 6zM316 447v-6l-1 -10l3 12zM315 516q-1 2 -5 2
l-1 -8q1 1 2.5 3t3.5 3zM299 543q3 0 3 3l-1 2q-1 2 -1 3l-1 -7v-1zM306 402q3 0 3 3l-4 11q0 -1 0.5 -6t0.5 -8zM308 354l-1 -4q1 0 1 4zM300 77v-15q2 2 3 5l1 1q-1 0 -3 7zM316 164l-3 -12l4 -4v9q0 6 -1 7z" />
    <glyph glyph-name="O" unicode="O" horiz-adv-x="477" 
d="M295 51q-2 0 -4 -1l-9 -12l-4 -3q-4 0 -5.5 -4t-4.5 -4h-4l-10 -6q-21 -9 -39 -9h-1l-2 1q-6 -7 -29 -7h-10q-27 0 -45 9q-8 0 -17.5 6.5t-12.5 6.5l-8 5q-39 38 -56.5 82t-17.5 121q0 80 25 170q0 1 0.5 2.5t0.5 2.5q17 58 56 125t78 97q5 0 15 8t10 15q0 1 2.5 1
t7.5 3.5t10 11.5v8q21 22 51.5 38t57.5 18h10q2 1 4 1t4 -0.5t4 -0.5q1 1 6 1q46 0 84 -31t51 -79l7 -26q9 -9 9 -29l-2 -13q3 -6 3 -11q0 -1 -0.5 -3t-0.5 -4l-1 -28q0 -1 -1 -4.5t-2 -5.5q0 3 -0.5 8t-0.5 7q0 1 1 4t1 6v9q0 6 1 10l-2 19q0 17 -6 23q0 -4 2.5 -10.5
t2.5 -10.5q-2 -2 -2 -4l1 -9l-2 -4q2 -9 2 -19l2 -46q0 -23 -3 -38l-2 -27q-1 -14 -6.5 -38.5t-9.5 -29.5q-4 -4 -5.5 -14t-3.5 -14l-5 -14q-25 -47 -26 -49l5 7q9 14 12 15q-1 -17 -18.5 -41t-22.5 -39q4 4 14 20.5t15 21.5q-1 -5 -5.5 -11t-4.5 -9q0 -7 -11.5 -18.5
t-11.5 -20.5q-1 -2 -13 -11t-13 -12q4 0 21 14q-24 -43 -61 -83t-62 -52q1 1 3 3.5t4 4.5zM106 342q0 38 16 95q-14 -17 -27.5 -81t-13.5 -129q0 -76 23 -125.5t74 -49.5q65 0 128.5 88t99.5 199.5t36 192.5v8q-5 154 -94 154q-30 0 -39 -15q13 7 15 9h7q0 -4 -3 -4
q-7 -2 -34.5 -19.5t-27.5 -27.5q0 -2 2 -5l1 -4q0 -4 -5 -5q-79 -98 -93 -295v-33q0 -70 37 -70q4 0 10 3t11 3l2 -1h3q3 0 5 2l3 -2q-4 -17 -17 -23q-1 0 -4 -4.5t-10 -9t-18 -4.5h-21q-66 0 -66 128v25zM230 653q-3 -2 -4 -3q14 7 19 20l-9 -8q-2 5 -4 5l-4 -6v4
q3 0 12 13q0 2 -2 2q-8 0 -18 -13q4 1 7 1q-1 0 -8 -4t-13.5 -11.5t-6.5 -13.5l6 7l1 -4q5 0 11 5.5t13 5.5zM334 123q-13 0 -14 -9v-10q2 2 6 6.5t7 7.5t6 5h-5zM316 695q-6 0 -13.5 -6t-10.5 -7h-4q1 -1 1 -3q0 -3 -1.5 -6.5t-3.5 -6.5l-2 -3l14 17q0 2 3 5t7 3zM243 645
q10 6 15 11h-4q0 2 -2 2q-1 0 -3 -4l-2 -2l-11 -9l3 -3zM292 695q-9 0 -12 -7l-3 -2h5q6 3 10 9zM291 93q-3 0 -3 -3l-10 -8q2 1 6 2.5t6 2.5zM305 72q0 -3 -3 -6h7v6h-4zM295 56q1 1 3.5 2.5t3.5 2.5l-2 3q-4 -6 -5 -8z" />
    <glyph glyph-name="P" unicode="P" horiz-adv-x="437" 
d="M105 16l-1 2l-2 2l-1 -4q2 -2 3 -2q-1 -1 -2 -3l-1 -1l-1 1q-2 1 -2 2l-1 -4l-3 6l-5 -2q0 -2 2 -6q0 -2 -2 -2q2 -2 2 -5q-1 0 -4 5q-6 14 -8 18q0 -2 1.5 -6.5t1.5 -6.5q2 -14 8 -17l4 -2q4 -2 6 -2h4q-1 -1 -3 -1q-3 -4 -9 -6q-3 0 -7 2q-34 15 -34 71v5
q0 41 16 108.5t33 115.5q-3 3 -3 24q3 10 4 11q0 4 11 8q7 20 26 74.5t35 104t32 104.5v11q0 12 20 12q17 0 26.5 -12.5t9.5 -29.5v-4q-7 -36 -15.5 -67.5t-26.5 -86t-28 -88.5q103 21 207.5 90t108.5 136l2 6q-4 82 -141 92l-14 1h-17q-194 0 -315 -116q-27 -25 -27 -51
q0 -7 3 -13q-3 -15 -19 -18q-11 0 -21 12.5t-10 27.5l-1 4q6 51 42.5 92t89.5 64.5t104 36.5t102 18h52l15 -1q54 -3 101.5 -24.5t69.5 -56.5q11 -14 15 -24q14 -23 14 -72v-5q-8 -104 -184 -199l-9 -5l-18 -6q-2 0 -2 -2q-2 -2 -4 -2h-2q-2 -1 -4.5 -2t-4.5 -1l-1 -1
q-1 -1 -2 -1q-9 -5 -21 -8l-6 -3q-4 -1 -7 -1q-15 -5 -17 -6l-48 -12q-21 -5 -53 -10q-56 -187 -61 -249q0 -2 1 -4l1 -3q0 -9 -3 -9q-2 0 -2 -4zM190 312h13h3l3 1q0 -3 -8 -3h-5q-3 -4 -15 -4q-1 0 -1 -3q6 0 13.5 3t11.5 3l5 -2q2 0 4 1t3 1q-1 1 -2.5 1t-2.5 2q0 1 1 2
l3 3q0 1 5 1l4 3q2 0 2 2q-8 -4 -41 -9l2 -2h2zM541 577q0 3 -1 9l-2 6q0 6 -6 15t-7 11q0 -3 2 -8.5t2 -7.5q0 -1 1 -2.5l2 -3t2 -3.5q6 -14 7 -16zM202 337l4 -2l-17 -5h10q10 0 12 7l-1 1v3q-5 -4 -8 -4zM202 296l27 6q-1 0 -3 1l-2 1q-5 -2 -7 -3l-18 -3l-3 -1
q0 -1 6 -1zM230 342q-3 -1 -9 -1h-4q0 -4 1 -6q1 -1 6.5 2t5.5 5zM243 347q-3 -1 -6 -1l-1.5 -1.5t-0.5 -1.5q2 -1 3 -1q2 0 5 5zM352 349l8 6q-5 0 -8 -3h-1q-1 -1 -2 -1l2 -1zM197 304h5q-2 2 -3 2q-2 0 -2 -2z" />
    <glyph glyph-name="Q" unicode="Q" horiz-adv-x="467" 
d="M28 256q4 71 34.5 177t67.5 132q65 127 153 162q1 1 12 5t16 4l3 1q21 3 24 3q74 0 113 -49l4 -5q37 -51 37 -145v-22q0 -2 -0.5 -4t-1 -9t-1.5 -18q-5 -83 -42.5 -183.5t-96.5 -172.5q44 -57 100 -102q48 -29 71 -36l9 -4l4 -5h4q-2 -1 -2 -3q-5 -8 -27 -8
q-2 0 -7.5 0.5t-8.5 1.5q-3 -1 -5 -1l-4 1q-4 0 -8.5 0.5t-7.5 0.5q-1 1 -4.5 2t-5.5 3q-2 1 -4.5 2.5t-4.5 3.5l-2 1q-2 0 -3 -1q-1 1 -4 2q-2 2 -9 7t-10 9q-1 0 3 -5l4 -5q-1 -1 -6 -1q-4 0 -30 16q-3 6 -4 7v2q-1 3 -2 4.5t-3 1.5q-3 0 -5.5 -1t-3.5 -1l-4 2q-5 7 -7 7
q-1 1 -4 1l-7 15l-3 3q0 2 1 3q-2 4 -17 12q-1 1 -5 3t-7 4q-5 3 -15 11q-66 -58 -138 -58q-3 0 -9 1t-10 1q-122 17 -122 199v14q0 9 1 14zM167 432l-3 -9v9q-5 -10 -5 -12q0 2 -3 11v-2q-1 -2 -1 -5t-1 -5q0 -1 -5 -4q-2 0 -2 5q0 3 1 8l1 6q-1 0 -3 -12l-3 -8q0 2 -0.5 4
t-0.5 4q-1 0 -2 -3.5t-2.5 -7t-1.5 -4.5q-39 -113 -39 -197q0 -141 69 -141q16 0 26 3q39 16 76 55q-42 57 -65 127l-11 28v1q-1 1 -1 2q-11 33 -11 47q0 6 1 8q-1 2 -2.5 6t-2.5 7l-2 3q0 1 3 4q7 6 19 6q4 0 19 -3q9 -4 9 -5q16 -9 24 -22l2 -9q4 -14 3 -13
q16 -61 59 -130q49 71 84 171.5t35 180.5v33q0 51 -18 91t-62 40q-21 0 -47 -20q-2 -1 -5 -1l-5 -3q-4 -3 -8 -3l-7 -7q-3 0 -3 -4v-5q0 -8 -7 -10q0 -7 -5 -7q-87 -107 -96 -198q0 -6 -1 -10zM300 728q-5 0 -8 -5q2 0 4 1.5t3 1.5l13 3q2 0 8.5 2t8.5 2q6 0 16 -1.5
t14 -1.5q-3 5 -20 5h-6q-9 0 -17 -3h-4q-4 0 -7 -3zM378 48q-3 0 -6 1t-4 1q1 -2 9 -9q5 -7 10 -7q2 -1 10 -4h5q-19 10 -24 18zM402 704q1 0 2 1v1.5t1 0.5q-4 2 -9 5t-8 3q-1 0 -2 -3l4 -2q4 0 9 -5q1 -1 3 -1zM256 100q-3 0 -7.5 -3t-4.5 -4t0.5 -2.5t0.5 -2.5
q1 3 7.5 6.5t6.5 4.5q-1 1 -3 1zM272 117q-12 -7 -12 -12q14 8 16 12l-4 -2l-1 -1q0 1 1 3zM241 686q-5 -1 -6 -4q-9 -4 -9 -8q0 -1 3 -1l3 3q3 2 6 5t3 5zM358 246q10 4 10 12q0 4 -3 4q-4 -11 -7 -16zM474 454l-1 -8l1 4q2 4 3 9.5t1 8.5v5.5v8.5l-1 4q0 -5 -3 -32z
M268 707l-2 7q-5 0 -5 -7q0 -2 1 -3l1 -1zM464 540q1 2 1 5t-5 13v-6q0 -11 4 -12zM241 87h-7q-4 -4 -4 -11l4 4l3 2q0 1 4 5zM183 534q-2 -4 -7 -19l10 19q2 2 2 5l-2 -1q-1 -3 -3 -4zM355 77q0 -1 -1.5 -4t-1.5 -4q0 -2 2 -4l5 9q0 3 -4 3zM373 268q3 4 3 7q0 2 -3 5
l-3 -6zM253 696q-1 1 -3 1q-1 0 -6 -7q0 -4 3 -4q0 3 2 4t2 2l1 2zM447 432h6q-2 4 -2 6l1 1v2q-6 -1 -6 -6v-1zM364 716l9 -2q0 6 -3 6q-6 0 -6 -4zM381 703q0 4 -11 4l-3 -1q5 -3 14 -3zM152 541q0 1 2.5 5.5t2.5 7.5q-6 -5 -6 -7q0 -1 0.5 -3t0.5 -3zM219 657h5q3 0 3 6
q-4 -1 -8 -6zM434 362l4 13q0 1 -1.5 -1t-3 -5t-1.5 -4t2 -3zM451 628l-3 2q-2 -2 -2 -5q1 -1 2 -1l2 -1v3zM134 472q-2 0 -2 -7v-3l1 -2q2 4 2 6l-1 2v4zM454 621q0 -6 3 -10q0 1 0.5 2t0.5 2q0 3 -4 6zM156 568q-4 0 -4 -4v-2q1 -2 1 -3q3 5 3 9zM205 652q-4 0 -4 -3
q7 0 9 5q-4 0 -5 -2zM201 662q5 0 5 5l2 4q-1 0 -4 -4t-3 -5zM403 278q-1 -4 -5 -6q7 0 7 3q0 1 -2 3zM120 397h4q0 2 -0.5 4t-0.5 3q-3 -5 -3 -7zM363 51q0 2 -1.5 4t-3.5 3t-2 0q0 -2 3 -4t4 -3zM300 686q-7 0 -7 -4zM456 545v9q-2 -6 -2 -11zM306 688l3 -1q1 0 1 5
q-4 0 -4 -4zM285 686q-4 -1 -4 -4q4 0 4 4zM260 683q3 0 3 3q-3 0 -3 -3zM299 676l7 5q0 -2 -7 -5z" />
    <glyph glyph-name="R" unicode="R" horiz-adv-x="448" 
d="M166 274q-51 -167 -57 -207v-4q-2 -12 -2 -18v-10q0 -3 -1 -3l-2 -1l-3 -3l-5 5l-2 3l-3 -1q0 -3 -6 -3l-1 -2l-4 -2q-10 3 -16 9q-7 9 -7 24q-1 3 -1 8q0 6 1 9v7q2 29 10 61.5t21 76t17 58.5q0 4 -3 4h-5q-15 2 -19 4q-2 0 -2 2q-3 2 -5 2q-1 0 -4 3q-2 4 -2 7q1 3 1 4
q-3 0 -7 5t-4 8q1 4 6 7q2 1 22 8t42 16q3 1 3 3q4 12 20.5 63.5t25.5 81.5l2 33q1 10 13 42q3 13 22 24q4 3 15 3h7q3 0 5.5 -5.5t4.5 -6.5l3 -2q11 -5 11 -17l-2 -3q-4 -30 -25.5 -100t-26.5 -89q28 9 67.5 26t96.5 45.5t95.5 65t38.5 70.5q0 42 -40 64t-106 22
q-73 0 -152 -24q-87 -26 -151.5 -78t-68.5 -81q0 -14 1 -17q2 -16 18 -18q-3 -22 -19 -22l-8 2l-20 10q-7 4 -9 13l-5 17q-3 5 -3 17q2 6 2 8q0 5 5 20q19 59 88 108t148.5 73.5t146.5 24.5h22q16 0 60 -7q1 0 3.5 -1t3.5 -1q50 -8 91.5 -45t41.5 -86v-8q-2 -38 -23 -69
q0 -4 -6 -10l10 22q-1 0 -3 -4t-4.5 -8.5t-4.5 -6.5q-15 -21 -20 -27l-1 -1q-1 -2 -2 -2l-1 -1q-6 -3 -6 -2q24 22 38 55q-10 -11 -13 -19q-11 -20 -44.5 -49.5t-67.5 -46.5q-1 0 -2.5 -1t-2.5 -2t-2 -1l-7 -5q60 29 98 67q-1 -1 -1.5 -3t-1.5 -4q-11 -12 -22 -19
q-43 -37 -146 -81l-16 -6q-5 -3 -7 -3q-10 0 -12 -3q-4 -3 -19 -5q-6 0 -13 -5t-10 -6l-22 -8h5l36 15q1 0 0 -1l-2 -2q-30 -15 -35 -15q31 -87 119 -184t157 -99q11 0 16 1q2 0 4 0.5t3 0.5q5 -1 9 -5q-1 -1 -2 -3t-2 -3l-4 -3q-5 -3 -10 -6.5t-7 -3.5l-18 -1l-7 -1
q0 -4 -10 -4l8 -5l-1 -4q-5 1 -12 3.5t-8 2.5q0 -4 2 -4q-1 -1 -4 -2t-4 -3l-7 7l-3 -2l-8 1l-14 3q-1 4 -2 4q-4 0 -4 -3q-9 1 -15 9q-4 1 -7 1q-1 0 -4 1t-5 2l-3 1q-4 1 -4 5q-7 0 -7 2l-7 6q-3 7 -10 7h-4q-2 0 -2 4q-5 0 -5 8h-7l-8 8v-8q-6 3 -17 16q4 -3 12 -3
q0 2 -5 4.5t-7 2.5l-5 3l-8 10q0 5 -8 5l-10 13q-23 21 -57 74.5t-52 96.5zM412 711l-22 1q0 -2 3.5 -3t8 -1h5.5t5 -1l3 -1l26 -5q5 -2 13 -4q-14 7 -42 14zM277 151l-13 -1q0 3 2 4l-2 2q0 1 -9 1l5 -11l7 2l1 -7h5q4 6 4 10zM536 626q0 3 -7 14t-9 13q-1 1 -5.5 5t-8 7
t-4.5 3l-4 3l2 -4l4 -2l1 -1q1 -2 2 -2q6 -3 6 -7q0 -3 1 -3q2 0 3 1q1 0 2.5 -3t3.5 -6.5t3 -4.5q2 1 10 -13zM287 376q1 0 3 2l4 4l1 2q-27 -16 -31 -16h6q9 0 17 8zM354 380q3 2 12 7.5t14 6.5l1 1q1 1 3 1l-5 1l-12 -7q-11 -7 -13 -10zM336 375q-2 -1 -3.5 -2t-3.5 -2
q8 1 10 2l9 4l2 2q-3 -1 -14 -4zM251 349q-1 3 -3 3t-6 -2.5t-6 -2.5q3 0 8 1t7 1zM480 481q-3 -2 -5 -4.5t-3 -2.5t-2.5 -2t-2.5 -2q10 0 13 11zM494 492q-1 -1 -4 -3.5t-4 -3.5l-1 -1l-2 -2q0 -1 2.5 0.5t5.5 4t3 5.5zM427 440l4 4q-2 0 -3.5 -0.5t-2.5 -0.5q0 -3 2 -3z
" />
    <glyph glyph-name="S" unicode="S" horiz-adv-x="393" 
d="M468 356q-1 0 -1.5 -1t-2.5 -2q4 0 9 2q-1 1 -5 1zM193 75q-1 0 -2.5 -1.5t-2.5 -1.5q0 -2 -1 -3q2 0 3 1l4 3q5 0 6 1q-1 1 -1 3q-4 0 -6 -2zM219 212q-2 0 -2 2l-5 -5l3 -1zM207 75l4 7q-3 -4 -4 -4h-5l3 -3l-4 -5q6 0 6 5zM113 4q-1 0 -2.5 0.5t-2.5 0.5q-2 0 -3 -1
q0 -2 2 -2q9 0 19 2q0 2 -2 2t-6 -1zM150 28l5 4q0 -1 -6 -1q-5 0 -5 -5q6 0 6 2zM452 350q-7 0 -10 -4l-2 -3q3 0 3 1q5 5 9 5q1 0 2 1h2h-4zM178 46l-3 -3q6 0 7 1q2 0 2 2h-6zM244 114q6 6 7 8q-2 1 -4 1l-3 -3v-6zM215 67q0 -1 -1 -2v-1h3l2 1q1 2 4.5 4t4.5 3h-5
q-3 0 -4 -1l-10 -3h4l3 3v-3zM79 -5q-2 0 -4 -2h10q1 1 4 1l-6 2h6l3 2h-6q-6 0 -7 -3zM157 19l13 7q1 0 3 2l-14 -4q-3 -3 -5 -3zM143 15q-7 -2 -8 -5q0 1 1 3q-1 0 -7 -3q9 0 16 2q0 3 -2 3zM249 108q-2 2 -3 2q-4 0 -8 -4q1 -2 3 -2q1 0 2 1.5t3 1.5t3 1zM262 109l4 4v4
q-3 0 -7.5 -8t-4.5 -12l3 3q2 1 3 5q1 3 2 4zM94 10q0 1 -3 1l-10 -3h-1l-2 -1zM197 203q1 0 2.5 1t2.5 2t2 1q2 0 6 4q-4 -1 -5 -1t-8 -7zM63 8q12 0 12 2h-12q-1 1 -3 1zM121 149l-4 -3q0 -2 2 -2t5 3q-2 2 -3 2zM278 193l2 7l-2 6v-13zM336 270l-7 -3q1 -1 3 -1h1
q1 1 2 1q1 2 1 3zM423 334q2 1 6 5h-4l-5 -4q0 -1 3 -1zM140 7h-7q-3 0 -4 -1q2 -1 7 -1zM223 302q1 1 1 -1l1 -1q-2 8 -2 9l-1 -4q0 -2 1 -3zM408 329l2 1h2q0 2 -3 2q-4 -2 -5 -2q0 -1 4 -1zM252 175l3 -4l2 4q0 1 -1 3zM377 313l4 2l2 3h-1l-2 -1zM134 17q3 0 4 1l-2 2
h-3q-2 -2 -5 -2q3 0 6 -1zM242 150l-3 -3q5 0 6 1zM252 315q0 4 -5 9l1 -3q0 -2 4 -6zM203 56q-6 0 -9 -3q0 -1 5 -1q4 0 4 4zM102 -4q2 0 3 1h1h-10q1 -1 6 -1zM263 160q2 0 2 2v5q0 -1 -2 -7zM457 328q0 2 -2 2l-5 -4q3 0 7 2zM225 212q-2 0 -3 -0.5t-2 -0.5q2 -2 3 -2
q0 1 2 3zM117 153q0 1 1 3l-5 -4h1q2 1 3 1zM190 202l1 4q-4 -3 -5 -3q-2 -2 -2 -3q5 2 6 2zM262 169q2 0 3 1q-2 0 -2 2l-1 -1v-2zM135 24h-6q2 -1 3 -1q0 1 3 1zM244 59q-6 -6 -16 -12l-2 -3l-5 -3l-5 -5l-8 -5l-3 -3l-2 -1q-67 -38 -128 -38q-31 0 -62 23q-3 0 -4 3
q0 2 -1 3l-2 2l-1 2q-5 0 -5 14v4q0 24 13 39l12 17l9 12q4 4 22 24q13 13 56 47q5 1 8 3t4 4l2 2l10 6l26 19q12 6 17 10l1 -2q0 -1 1 -1l-1 -2l-4 -2t-3 -2h-2l-1 -1q2 0 3 1q2 0 6 2l5 3q1 1 3 1q1 1 2 3l1 2q0 9 14 12l4 4q1 0 9 4q1 1 3 1t2 1q1 2 5 4q5 1 5 4
q-1 12 -19.5 54t-41.5 94t-32 78q-9 21 -13 57v10q0 14 3 27q18 74 87 121t148 58h10q19 0 42 -10l53 -31q3 -2 10.5 -7.5t11.5 -8.5q9 -9 11 -17v-1q1 -1 1 -2q2 -10 2 -16v-6q-2 -35 -25 -78l-3 -6q-8 -13 -23 -13q-1 0 -3.5 0.5t-3.5 0.5q-14 3 -18 25q-1 2 -1 5t2 11
q12 40 12 63q0 38 -41 44q-3 0 -8 0.5t-7 0.5q-65 0 -129.5 -50.5t-64.5 -100.5q0 -27 47 -131.5t55 -138.5q41 22 104 50t85 28q7 0 7 -3l1 -4l-2 -15q0 -1 -5 -3l-2 -2q3 0 5 -0.5t3 -0.5q-1 -2 -6.5 -4t-5.5 -4q0 -1 -5 -6q-129 -62 -167 -85q1 -8 1 -23
q0 -38 -12.5 -74.5t-29.5 -57.5q-2 -3 -6.5 -7.5t-6.5 -7.5l-4 -3q0 -1 -4 -6zM218 116q21 38 21 88q-141 -86 -184 -147q-8 -10 -8 -16q0 -4 4 -5l10 -5q5 -1 14 -1q38 0 78 23t65 63z" />
    <glyph glyph-name="T" unicode="T" horiz-adv-x="216" 
d="M81 11h-5q-14 0 -14 4h-10q-1 1 -4 1q-1 0 -2 3t-2 7.5t-2 6.5q-8 2 -8 10v1l1 2q-1 4 -1 13q0 13 1 19q7 129 180 555l11 27q-115 -9 -210 -38q-4 -1 -8.5 -3t-9 -3.5t-8.5 -1.5t-11 4t-11 8l-5 4q-10 9 -10 15q1 24 61 39q150 35 321 35q58 0 115 -5q27 -2 53.5 -11.5
t31.5 -25.5q4 -1 6 -9q-1 -10 -15 -10q-6 0 -17 2.5t-12 2.5q-60 5 -110 5q-54 0 -116 -5q13 -8 13 -21q0 -7 -4 -14q-15 -47 -67.5 -186t-83 -240t-34.5 -167v-4q0 -2 0.5 -7t0.5 -8l-3 -3q-4 -2 -12 -2z" />
    <glyph glyph-name="U" unicode="U" horiz-adv-x="404" 
d="M281 -30l2 -10q0 -1 1 -2v-1q0 1 1 2l1 1l1 8q2 3 3 4q-2 0 -6 -4l-1 13q0 -1 -1 -3v-1q0 -2 -0.5 -4t-0.5 -3zM282 48v1q-1 1 -1 2q-1 -1 -2 -3.5t-1.5 -5.5t-0.5 -4q1 -1 3 -2h3v3q0 3 -0.5 5.5t-0.5 3.5zM304 -24l1 15q0 5 2 9l-4 -10v-1v-4q0 -1 1 -3q-1 -3 -4 -4v-4
l3 -1q0 1 1 2v1zM314 212l1 -5q4 6 4 9q0 5 -2 5q-1 0 -3 -9zM302 63q6 0 6 12q-1 0 -3 -3q-3 -3 -3 -9zM301 10q0 -3 2 -5v4q4 4 6 5l-5 5zM284 19q-6 -12 -6 -14q6 1 6 14zM278 11q0 8 -2 8t-2 -5q0 -3 4 -3zM258 25v-4q3 1 3 6v6q-2 0 -2 -2q-1 -1 -1 -6zM312 170
q2 0 3 4q-1 2 -3 7v-3q-1 -3 -1 -5q0 -3 1 -3zM299 40l8 1q-2 1 -5 1q-1 0 -3 -2zM284 116q-1 -2 -2 -5t-2 -5q3 0 3 7q3 7 3 10q-2 -2 -2 -7zM284 146q0 1 -0.5 2.5t-0.5 2.5q-1 -2 -2 -6q-1 -2 -1 -3q1 -1 2.5 1t1.5 3zM299 -18q0 1 -1 2l-1 2l-2 -8q4 0 4 4zM262 2
q0 -2 1 -3q0 5 3 8l-3 -2q-1 0 -1 -3zM287 117q2 2 5 12q-1 -2 -2 -4.5t-1 -3.5q-2 0 -2 -4zM309 161q0 -1 2 -5v8q-2 0 -2 -3zM298 91l3 -1v5q-3 0 -3 -4zM277 29q0 -1 1 -3q2 0 2 2q0 1 -3 1zM311 232q1 3 1 5q-1 0 -3 -2q2 -2 2 -3zM295 35l1 4q-3 -3 -3 -10q2 0 2 6z
M301 123q0 1 1 3v1v5l-2 -5q0 -2 1 -4zM307 -12q1 -1 2 -3v8q-2 -2 -2 -5zM300 -6q1 -1 1 -3l1 8q-1 0 -1 -2q0 -1 -1 -2v-1zM294 -4l1 -3l3 4q-1 0 -2 -1h-2zM315 137q-2 2 -2 4q0 -1 -1 -2v-1zM299 274q1 4 2 7.5t1.5 5t0.5 2.5l6 24q0 3 2 7t2 6l4 17q5 10 5 14l4 13
l-10 -20q-10 -20 -29.5 -59.5t-31.5 -62.5t-30.5 -56t-37.5 -60q-50 -81 -104 -81q-59 2 -59 116q0 28 1 47q44 276 193 522q19 28 41 33q12 4 13 4q7 0 15 -9q4 -4 6 -12q0 -3 -4 -11q-6 -14 -42.5 -90t-63.5 -145.5t-55 -164.5q-28 -99 -38 -206l-2 -21l3 -20q0 -3 2 -3
q4 0 6 2q67 91 159.5 276t113.5 222l18 30q3 7 11 26t13.5 30t14.5 22t18 12q7 1 8 1q8 0 10.5 -2.5t4 -7.5t5.5 -8q8 -5 8 -14q0 -1 -0.5 -4.5t-0.5 -5.5l-19 -51q-43 -117 -83 -281q-55 -233 -61 -316l-2 -27q0 -4 -3 -4q-2 0 -2.5 -8t-1.5 -8q-2 -3 -6 -3q-1 0 -1.5 2
t-1.5 2q-1 -1 -5 -1h-7q-5 0 -5 -2q0 -5 -3 -6l-3 -1v21q0 5 -2 5l-3 -13q-1 0 -1 5l-1 2l-3 -1l2 41q-1 0 -4 -8q0 -2 1 -3q0 -10 -1 -12q-1 -4 -1 -10q0 -7 1 -10q-4 6 -7 23q-7 4 -7 25v6q0 3 2 5v4q-1 5 -1 18l1 20q0 9 5 34q3 6 3 17q5 23 11.5 53t10.5 48l5 19
q0 2 1 7l2 6q1 6 3 8t2 5l1 8q0 4 1 5z" />
    <glyph glyph-name="V" unicode="V" horiz-adv-x="355" 
d="M474 679l7 5q-59 -125 -62 -137l2 -4q0 7 6 17l1 3q2 3 4 8.5t5 9.5q3 0 3 4q0 8 2 8q2 2 3 2t3 -2l-10 -21q0 -1 -2.5 -7t-3.5 -10l-6 -13v-2l1 -2q0 -2 -4.5 -6.5t-5.5 -6.5l3 -2l-4 -8q-4 -10 -27.5 -71t-33.5 -86t-33 -80.5t-39.5 -88t-39 -71.5t-43.5 -66
q-4 -8 -9 -12q-12 -12 -20 -16q-7 -3 -13 -3q-7 0 -12 -5q-8 -4 -19 -4q-30 0 -43 23q-11 30 -11 75q0 4 0.5 11t0.5 11q5 82 36 265t31 262v18q-7 32 -34 49q-2 1 -2 7q1 18 27 18q23 0 39 -17t22.5 -45.5t9 -50.5t2.5 -45q0 -90 -32.5 -271.5t-32.5 -229.5q0 -28 5 -30
l10 10q19 30 40 74.5t51 115t42 96.5q19 42 42.5 99t37.5 91t30.5 67.5t30.5 49t27 15.5l19 6q0 -2 -0.5 -4t-0.5 -3zM445 600l38 82l3 4l-2 -5q0 -3 -4 -13l-1 -2q-1 -2 -1 -4l-3 -4q-1 -6 -4 -9l-5 -14l-7 -15q-4 -10 -6 -12q-1 -5 -4 -8h-4zM418 537v5q-4 -6 -12 -27.5
t-16 -42.5t-9 -23q0 -1 -16.5 -44t-16.5 -44l-3 -9q4 9 36 91.5t37 93.5z" />
    <glyph glyph-name="W" unicode="W" horiz-adv-x="702" 
d="M751 551q0 1 1 6t5 9l2 4q1 -1 1 -3q-2 -2 -2 -3q-63 -242 -162 -463q-8 -20 -40.5 -64.5t-51.5 -44.5q-5 0 -9 4q0 -2 -8 -3q-12 0 -25 12t-19 22q-13 39 -13 93q0 21 2 67q1 22 16.5 180t15.5 205q0 16 -1 22q0 2 -3 2t-9.5 -7t-7.5 -9q-18 -20 -56.5 -96.5
t-69.5 -151.5l-9 -21q-2 -7 -11 -27l-16 -36q-90 -211 -126 -236l-8 -5q-1 -1 -3 -2l-1 -1q-9 -9 -30 -9q-3 0 -8.5 8t-7.5 9q-9 0 -16.5 8t-8.5 13q-14 36 -14 99v20q5 49 7 67q8 62 38 209.5t33 217.5q0 3 0.5 9t0.5 10q0 49 -23 57q-2 1 -7 2t-6 3q-6 1 -6 8q1 15 34 15
h5q36 -2 57 -45q14 -23 14 -98q0 -26 -1 -36q-5 -87 -40 -245.5t-35 -252.5q0 -1 1.5 -3.5t1.5 -3.5q24 30 117 255l5 12q37 90 91 190.5t85 116.5q1 1 5.5 2t7.5 3l3 5q3 5 10 5q17 0 35 -10t20 -20l4 -7q15 -41 15 -117q0 -62 -14.5 -209.5t-14.5 -210.5q0 -37 4 -37
q1 0 5 4q20 36 113 275l8 20q18 48 36 102.5t38.5 119.5t31.5 99l7 17q3 5 4 5l5 -1q0 -1 1 -3l2 -1l9 -15q0 -1 -3 -7q3 3 4 3l-1 -3q3 0 3 -2v-14q0 -1 -2 -8.5t-2 -10.5v-4q4 6 4 8q0 5 3 8q0 -14 1 -15q-1 -2 -1.5 -8t-2.5 -9q-1 -10 -5 -17q-6 -9 -7 -19q-2 -1 -5 -8
q0 -6 -5 -6q0 6 2 8l-3 -1q0 1 0.5 2.5t0.5 2.5q-6 -18 -9 -22q0 -15 -7 -15q0 1 3 7q0 -1 -1.5 -2.5t-1.5 -2.5t-3 -1q16 29 20 48l1 2v2l-4 -2q0 -1 0.5 -3.5t0.5 -4.5q0 -1 -5 -8q0 -1 -1 -2l-1.5 -1.5t-0.5 -1.5l-1 -6q-3 -3 -5 -9l-9 -16h5q-2 -11 -3 -12l-3 -6
q0 5 3 8l-1 5q-1 -3 -4 -9t-3 -8h4q2 0 3 -1q0 -1 -0.5 -3t-0.5 -4q-5 -5 -5 -11q0 -5 -3 -7l-4 3l-3 -15q0 -9 -1 -13q1 1 1 4q0 5 5 10q0 -1 -1 -4t-1 -4q3 3 3 4q1 2 2 7.5t1 6.5l5 11l2 -8q0 1 1 3v2q0 4 -1 5q1 2 3 3t2 2q-1 1 -1 3q0 4 -2 6q3 2 4 4l-3 2l1 2q1 1 2 3
q0 3 5 10l2.5 5t2.5 5.5t1 4.5l2 2q1 2 1 3t4 2t4 2zM750 572q0 -1 1 -3l1 -2l2 2q2 2 2 4l-4 4q0 1 2 3l6 13v4q-4 -2 -4 -6q0 -1 -2 -4t-2 -5q-1 -1 -1 -3q-1 -1 -1 -3v-4zM611 179q3 0 10 23l-12 -16zM737 573l-1 -1h-3t0 -1.5t0 -1.5l-4 -10v-6q0 -4 1 -4v1q1 2 1.5 5
t1.5 6q0 1 1 2.5t1 2.5zM702 470q0 -2 -0.5 -3.5t-0.5 -2.5l3 2q0 3 -2 4zM730 546q-2 -2 -4 -2l1 -4q1 2 1 4q2 0 2 2zM734 583q0 -4 -2 -5q1 0 2 1.5t2 1.5q0 2 -2 2zM759 661q3 3 3 5z" />
    <glyph glyph-name="X" unicode="X" horiz-adv-x="376" 
d="M299 43q-41 66 -83 207q-7 -9 -43.5 -57t-70.5 -90t-49 -54q-3 -10 -13 -15q-1 0 -3 -2q-11 -8 -17 -9q-6 -3 -11 -3q-2 0 -10 2q-3 0 -7.5 -2.5t-8.5 -2.5q-5 4 -11 4q-1 -1 -3 -1q-5 0 -5 14q1 1 2.5 4t3.5 6t5 5q4 12 14.5 24.5t14.5 19.5q37 50 96.5 126t89.5 116v5
q-67 237 -78 301q-5 25 -5 32l8 10q1 0 5 -2.5t6 -2.5q27 0 37.5 -8t14.5 -34q4 -13 29 -105.5t36 -131.5q33 42 116 148t120 153q5 3 8 3t5 -10q0 -4 1 -6t1 -4v-4q0 -12 -8 -25q-5 -4 -6 -8q-9 -19 -9 -24l-7 -7l-12 -10q-2 -2 -2 -4t2 -4l3 -2q0 -1 1 -7v-7q0 -2 -5 -7
q-11 -11 -11 -14q-1 -5 -3.5 -10.5t-7.5 -13l-7 -10.5l-10 -12q-3 -2 -4 -5.5t-2 -4.5l-5 -8q-2 -7 -6 -9q-2 -5 -4.5 -8.5t-7 -8t-8.5 -10.5q0 -1 -11 -18l-7 -8q-12 -16 -44 -57.5t-45 -60.5q30 -120 103 -292q2 -4 4.5 -10t3.5 -8q-2 2 -5 2q-1 0 -5 -0.5t-7 -0.5
q-1 0 -5.5 -2t-7.5 -3q-5 1 -6 3.5t-5 2.5q-2 2 -5 3q-2 0 -3 4q-4 0 -6.5 4.5t-5.5 5.5q-6 0 -12.5 5t-6.5 13zM-10 50q0 -2 7 3q0 -1 -2.5 -4t-2.5 -4q-2 -4 -2 -8q0 3 4.5 8.5t4.5 9.5q0 3 -2 5q0 2 1 3q8 4 13 15l2 6q-2 -1 -9 -11t-11 -14q0 -1 -2 -3l-1 -2v-4z
M469 651h-3l-11 -12l-4 3l-1 -7q6 0 10 7l-1 -3q0 -5 2 -5q3 3 5 3l1 14q1 0 1 -2v-4l1 -2q3 6 3 14q-3 0 -3 -6zM-25 25q2 0 4 3.5t4 8t4 6.5q0 1 -0.5 3l-0.5 2l-2 -4q-2 -2 -7 -11q-1 -1 -1 -2l-1 -1q3 1 4 2l-1 -1q-1 -1 -2 -3t-1 -3zM19 52q5 11 8 16l1 4l-11 -14
q0 -6 -4 -9zM12 68q0 1 1 2.5t2.5 4t2.5 4.5q0 1 -4 1q-1 -2 -2.5 -5.5t-2.5 -6.5l-1 -2q2 2 4 2zM-4 40q8 6 9 9q0 1 1 3v1q0 -1 -3 -1l2 5zM437 569q2 0 3 2.5t2 3.5l2 3q3 3 3 5q-2 0 -3 -4q-2 -1 -4 -3.5t-3 -4.5t0 -2zM489 667q0 3 2 5l-1 5q-1 0 -1 -3l-1 -3
q-2 -2 -2 -9q2 2 3 5zM470 639q4 4 7 10l-2 6l-1 -4q-1 -8 -4 -12zM435 595q1 -2 3 -2q2 2 3 2h-6z" />
    <glyph glyph-name="Y" unicode="Y" horiz-adv-x="481" 
d="M172 -3q-3 -1 -8 -10q0 -7 -8 -13q-1 -1 -1 -3l-3 -1q0 -2 3 -2q0 -4 -4 -8q-29 -55 -37 -107q1 0 3 2q4 0 17 13q81 99 171 297l-1 3l-2 -2q-3 -2 -5 -2q-2 1 -2 3q0 6 4 10q8 5 8 6l1 2q2 4 4 5h-1q-1 1 -2 1l-2 -5q-2 -5 -4 -5q-3 -2 -5 -2q-7 -3 -7 -15l-5 -1v-1
l1 -2q0 -2 -5 -5q-1 -5 -5 -5q-5 0 -7 -7l1 -5q2 2 3.5 2.5t6.5 4.5l-1 -5q-14 -16 -18 -20q-19 -23 -21 -28q-10 -3 -10 -11l-3 -3l-6.5 -6.5t-4.5 -6.5q-18 -28 -18 -29q-9 -7 -15 -21q-1 -1 -4.5 -5.5t-5.5 -5.5q0 -3 -2 -7zM218 109q-2 -3 -7 -13t-9 -14q7 0 19 24
q-4 -2 -4 -3q0 1 0.5 3t0.5 3zM560 350l4 -1l25 14q-2 0 -14.5 -5.5t-14.5 -7.5zM241 336l2 -8l3 2q-1 5 -5 9q-3 -5 -3 -6l2 -4zM159 202q-3 -5 -5 -9q3 1 5 3.5t3 4.5l2 2l-1 2q0 2 -1 2l-1 -2zM151 33q4 6 7 7l-7 1q1 -1 1 -3q0 -3 -3 -6q-3 -2 -3 -5q3 0 5 6zM169 55
q0 1 1 6.5t2 7.5l-1 -1q-2 -1 -2 -2q-1 -6 -7 -14q4 3 7 3zM161 50l-3 -7q3 0 4 3zM244 336q1 0 3 4q-3 0 -3 -4zM84 199h-7l3 -3zM111 414q-3 0 -3 -2v-2l1 -2q2 2 2 6zM71 174q1 0 3 0.5t3 0.5q-1 3 -1 4zM124 424h-6q0 -3 2 -3l1 1q2 1 3 2zM85 356h-5q1 -2 3 -2t2 2z
M318 31l5 11q1 1 1 4l-1 3q1 0 -1 -4t-4 -7q-1 -1 -1 -3q0 -3 1 -4zM200 650l5 6q43 53 66 53q31 0 31 -10q0 -2 -3 -5q0 -4 -6 -10q0 -2 -3 -5.5t-4 -5.5q-59 -96 -118.5 -236t-75.5 -251v-9l4 -8q19 8 140.5 182.5t161.5 208.5q19 16 21 17t6 1q16 0 21 -5q25 0 25 -35
q1 -6 1 -14v-4q0 -2 -0.5 -4t-0.5 -3q-3 -24 -16.5 -87t-29.5 -114q66 43 116 64q2 1 26 10.5t35 10.5q3 0 3 -7q0 -3 -3 -3q-1 -1 -10 -5t-19.5 -8t-13.5 -6l-6 -4q-6 -3 -12 -6.5t-8 -3.5q-1 -1 -3 -2.5t-3 -2.5q0 -1 -2 -3q6 3 19 10l10 6q2 3 23 11t24 10q1 0 0 -1.5
t-3 -3.5t-3 -2q-19 -8 -46 -26q14 7 15 8q6 0 14 5.5t11 6.5q0 1 5.5 4t7.5 3q-5 -10 -18.5 -21.5t-22.5 -15.5q-7 -4 -22.5 -13t-26.5 -15.5t-12 -6.5q-3 -1 -9 -5.5t-9 -4.5l-3 6l-3 -1q0 3 16 12t37 19.5t28 14.5q-1 1 -3 1t-3 -1q-9 -6 -13 -6q-5 0 -15.5 -6t-18.5 -12
l-8 -5h-5q1 2 13 7q-2 1 -3 1q-5 0 -13 -6v-4q-5 -5 -9 -5l5 8q-3 -2 -6.5 -4.5t-5 -3.5t-3.5 -2l4 -1q-2 -8 -4 -10q-2 0 -4 3t-3 3q-5 0 -12 -7q2 0 5 1t4 1l3 -2q-1 -1 -3 -1q-1 0 -3 -2.5t-3 -2.5q-4 0 -4 -5q3 1 6 4l4 2q5 3 6 2l4 -6q-43 -28 -61 -44
q-37 -121 -104.5 -245.5t-145.5 -175.5q-9 -1 -9 -2q-8 -4 -33 -4q-3 -1 -24.5 16.5t-24.5 17.5q-8 0 -8 11q0 4 3 16.5t3 17.5q30 90 109.5 190.5t161.5 171.5q11 35 24 83.5t25.5 96t16.5 61.5q-15 -9 -111 -151t-138 -182q-27 -29 -61 -29l-8 2q-7 0 -13 2t-8 3.5t-5 4.5
l-4 4q-20 17 -20 63q0 114 72 266q55 117 94 169z" />
    <glyph glyph-name="Z" unicode="Z" horiz-adv-x="391" 
d="M259 303q0 -1 -1 -3q0 -2 4 -2q-1 0 8 8q2 2 2 4h-2q-1 1 -1 2l-1 -2q-2 -1 -4.5 -3.5t-4.5 -3.5zM451 470q-3 0 -5 -3l-2 -2q0 -4 1 -4q2 0 2 4q1 0 4 5zM78 90q9 -8 49 -8q77 0 213 22q3 1 7 1q9 1 17 1h4l-1 -8q-2 -10 -10 -10h-1l-2 1q0 -5 -5 -5q-2 0 -6 -2.5
t-4 -4.5q-4 -9 -12 -10q-3 -5 -6 -6.5t-7 -1.5t-7 -2q-7 -2 -8 -3.5t-9 -3.5l-5 -1q-4 0 -10 -1t-9 -1q2 -2 2 -3q0 -2 -3 -2q-8 0 -9 7h4q3 2 3 4h4q2 -1 6 -1q3 0 28 7l6 4q-2 0 -4 -1t-3 -1q-21 -6 -28 -6q-5 0 -7 1l-9 -3l-8 2q-7 -2 -7 -7q0 -2 3 -2q0 5 8 5l1 -3
q1 -2 1 -3q0 -3 -7 -3h-4h-3q-1 -1 -6 -2l-3 -1q-2 0 -5 -1h-3q-1 0 -4 4q-3 -5 -5 -5t-3 1q0 3 -3 3q-10 0 -13 -6q-6 2 -8 2q-5 0 -11 -4.5t-12 -4.5q-2 -1 -4 -1q-1 0 -3 1h-2q-2 1 -7 1q-4 0 -6 -1l-3 -1q-4 0 -8 -1t-6 -1h-13q-6 -2 -7 -2q-3 0 -6 3q-2 0 -4 -0.5
t-3 -0.5q-3 0 -5 1q-6 2 -21 2q-13 0 -31.5 9t-18.5 19q0 2 -3 2q-4 0 -7 13.5t-3 20.5q1 30 25 63q28 41 81 91t122 108.5t104 93.5l6 4q6 4 9 8q5 9 15 13q1 2 31 28q66 62 69 91q0 8 -4 20q-19 16 -70 16h-4q-6 0 -75.5 -8t-110.5 -8q-86 0 -90 35q0 5 -2 14.5t-2 11.5
q0 5 4 9q4 0 4 -4q6 0 88 9t128 9q96 0 144 -28q19 -5 31 -38.5t12 -65.5v-6q-2 -18 -5 -22q-16 -32 -55 -69q-3 -2 -7 -2q0 -5 -3 -8l-2 -1q-2 -2 -4.5 -3.5t-3.5 -2.5q-2 0 -3 -1l-1 -1q0 1 2 2.5t2 3.5q-1 1 -3 1q-1 0 -4 -5q0 -2 -8 -2q0 -3 2 -3q1 0 3 0.5l2 0.5
q-4 -5 -5 -8l-3 -4q-4 -3 -4 -5q-2 -2 -7.5 -5t-7.5 -5q-1 -1 -2.5 -3t-3 -3.5t-3.5 -2.5q-4 -4 -7 -4q-3 -3 -7.5 -7t-5.5 -5l-36 -36q-2 -1 -6 -4l-3 -2l2 5q0 5 6 7q1 0 8.5 6.5t16 15.5t12.5 12q18 18 20 19q9 7 9 9l-1 1v2q-3 0 -3 -4l-22 -18q-1 -2 -6.5 -6.5
t-6.5 -5.5q-7 -9 -8 -9q-2 -1 -3.5 -2t-2 -2t-2 -2t-2.5 -2l-3 -3q-1 0 -5.5 -6t-6.5 -6h-4q-3 0 -4 -1q0 -2 3 -6q-4 -2 -4 -6q0 -2 2 -3q-5 -4 -13.5 -13t-21.5 -21l-12 -6q0 -1 -2.5 -3t-2.5 -6q3 3 5 3q5 0 5 -5q0 -1 -4 -2l-4 -2l-3 3l-4 2q-1 0 -1 -3q-10 -14 -59 -58
t-90 -85.5t-41 -56.5q0 -2 2 -4zM229 277q1 0 4.5 3t5.5 6t1 3l-4 -4q-2 0 -3 -1q-4 -5 -6 -7l-10 -9l-11 -11q-3 -3 -1 -3l12 7l13 13q-1 2 -1 3z" />
    <glyph glyph-name="bracketleft" unicode="[" horiz-adv-x="233" 
d="M27 102v4q0 4 2 18q1 3 1 9q0 7 1 12l5 27v2l1 2q4 12 4 23h4v7q0 -1 -4 -5v6l3 15q0 6 1 9q0 13 3 26v1l1 2l25 159q5 36 10 64q31 164 43 235q-1 5 -1 10q0 6 6 9q44 17 123 18q37 0 43 -11q1 -2 1 -7q0 -16 -11 -16q-15 -5 -20 -5q-65 -4 -81 -18q-3 -35 -51 -345
t-48 -339l-1 -14q0 -5 3 -5q17 -1 50 -1h7q10 0 13 -3l11 -5q6 -3 6 -11l-1 -1q-1 -2 -1 -3q0 -7 3 -10l-4 -5q-5 -5 -99 -5q-2 0 -6 1.5t-5 1.5q-4 0 -21 4.5t-20 7.5q-4 4 -4 13q0 7 0.5 29t0.5 39l3 16q0 11 1 16l2 3l3 15l1 8q1 -4 1 -5v-6q1 2 1 3l3 24q0 12 1.5 19
t1.5 16q-2 0 -2 -2q0 -35 -9 -52zM28 67q-1 -1 -1 -3l-2 -16q-1 -19 -1 -36q2 0 9 74q-3 -7 -3 -8q-2 -8 -2 -11zM61 270q0 -1 -1.5 -4.5t-2.5 -5.5l-4 -30l4 14zM42 146l3 14q-5 -1 -5 -9q0 -5 2 -5zM50 214q3 0 5 14q-4 0 -4 -7zM51 191l-5 -7v-1v-4q0 1 2 2t2 2q1 2 1 8z
M39 110q0 1 -1 4l-2 -6q3 0 3 2z" />
    <glyph glyph-name="backslash" unicode="\" horiz-adv-x="343" 
d="M290 2q-11 0 -27 16q-6 6 -40 57q0 1 -1 3l-1 1q-1 1 -1 2q-48 106 -108 310q-18 58 -31 106t-20 75t-11 45.5t-5.5 27t-2.5 10.5q-6 19 -7 35l-1 2q-1 3 -1 4l1 3q8 11 23 11q25 0 40 -37q9 -22 29 -91v-1q1 -1 1 -2q4 -12 10 -36l11 -39q33 -114 51 -173.5t48.5 -138.5
t67.5 -153q0 -5 -3 -5q-8 -3 -8 -10q0 -3 -1 -3q-2 -2 -2 -3l3 -3q0 -3 -6 -9q-1 -1 -4 -2t-4 -2zM253 78v8l-2 1l-2 2q0 -2 1 -3q0 -8 3 -8zM272 37v-5l3 -2q1 0 2.5 -2.5t3.5 -5t3 -3.5v3q-3 11 -4 11q-3 0 -3.5 5.5t-1.5 5.5q0 5 -5 5q-3 0 -3 3q0 5 -2 5q-8 0 -8 11l1 1
v2q-3 -1 -3 -12q0 -4 4 -6q-1 1 -1 7l2 -2q2 -3 3 -4l1 -7q0 -1 1 -4q0 -2 1 -3q0 3 2 3q4 0 4 -6zM235 106v-5q1 -6 6 -14q7 -14 9 -14q-6 11 -10 26q-2 0 -3 3t-2 4zM284 42l-3 -5q1 -1 2 -3q1 1 1 0v-3l5 -3q-1 1 1 2l3 1q0 2 -9 11zM261 45l-3 5l-3 3q1 -6 5 -10l1 -4v6
zM231 93q-1 2 -5 9q0 -1 1 -4.5t1 -5.5q2 0 3 1z" />
    <glyph glyph-name="bracketright" unicode="]" horiz-adv-x="282" 
d="M241 405l-3 -17q-13 -109 -25.5 -227t-17.5 -162.5t-8 -44.5q-8 0 -12 -4q-3 0 -7.5 -1t-8.5 -1.5t-8 -0.5q-3 0 -30 3q-30 3 -92 5q1 0 -5 7.5t-12 16t-6 9.5t5 6l19 3q10 0 30 1t31 1q10 0 32 -2q3 0 3 4q3 72 36 337q0 5 2 17q4 25 5 34l5 47q2 12 4 36.5t3 36.5
q16 142 22 182l1 6q1 6 1 9q0 4 -1 4q-15 0 -27.5 -0.5t-19 -1t-10.5 -0.5q-14 0 -21 2q-8 1 -11 13q0 3 -1 5q-4 0 -4 4q0 6 7 14t14 8q52 4 60 4q3 0 18 1t25 1q48 0 48 -27q0 -6 -2 -16q-2 -23 -18 -133q0 -2 -0.5 -4t-0.5 -4q-7 -41 -10 -89z" />
    <glyph glyph-name="asciicircum" unicode="^" horiz-adv-x="317" 
d="M244 394v-9q0 -10 2.5 -30t3.5 -31l2 -2q1 -2 1 -3v-4q0 -3 1 -4l6 -20q1 -3 7 -29l1 -2v-4v-14q0 -10 1 -14q0 -2 0.5 -5t0.5 -5q1 -1 1 -3t-2 -2q-1 0 -4 5q-3 0 -5 1v-7q-2 0 -3 1t-2 -1l-2 -1l-15 -6q-3 0 -3 -4q-1 0 -1 -1l-1 -2l-3 3q-2 3 -3 10.5t-2 9.5l-39 104
q0 1 -1 2t-1 2q-2 -2 -2 -3q-18 -30 -34 -55q-16 -26 -22 -33l-17 -30q-2 -5 -4 -5q-14 -9 -25 -9q-8 0 -22 4.5t-18 10.5q-1 1 -1 4q0 1 3 6l14 29l97 173q1 1 3 7q0 4 15 26q5 6 15 6q1 0 5 -0.5t7 -0.5q17 -3 40 -24q4 -4 4 -18q2 -16 2 -23z" />
    <glyph glyph-name="underscore" unicode="_" horiz-adv-x="313" 
d="M19 138q0 5 4 13q0 7 13 7l51 -2q30 0 45 1q67 4 150 4q13 -3 15 -17l1 -4v-6q0 -3 -3.5 -12.5t-6.5 -9.5q-4 -1 -8 -1h-19q-141 -12 -201 -12h-8q-2 0 -5 0.5t-5 0.5q-7 2 -15 12q0 4 -4 13t-4 13z" />
    <glyph glyph-name="grave" unicode="`" horiz-adv-x="99" 
d="M19 801q1 1 2 4l1 3q0 5 4 6l19 5q3 0 4 -3q17 -23 24 -49l8 -32q0 -4 2 -10t2 -7q0 -6 -7 -6q-3 0 -5 2q-3 0 -3 2q-3 0 -3 -1l-2 -4q-2 0 -2 2l-2 6l-1 -1v-2l-5 2l-1 1l-1 2q-8 2 -11 10q-5 6 -11 20l-8 24q0 14 -4 26z" />
    <glyph glyph-name="a" unicode="a" horiz-adv-x="311" 
d="M294 222q12 17 44 65.5t44 64.5l-4 -14l8 6l-11 -29l11 17l-1 -6l-12 -24l15 16l-4 -17l-26 -45q-63 -104 -109 -147q-18 -16 -35 -16h-7q-1 0 -4 0.5t-5 0.5q-1 0 -15 6q-33 12 -33 57v9q0 38 11 87q-3 -5 -16.5 -27t-22.5 -35.5t-22.5 -31t-27.5 -27t-27 -10.5
q-32 0 -43 35q-1 3 -2 5v8q-2 4 -2 5q0 2 1.5 7t1.5 8v9q0 7 3 9v13q10 54 65.5 126t104.5 72q12 0 35 -5q1 1 5.5 9.5t10.5 14t13 5.5l8 -4h4q10 0 17 -6t7 -12q-3 -29 -10 -42q-13 -20 -34 -115t-21 -131l3 -7q16 0 82 96zM100 242q59 91 87 125q-2 0 -5.5 -0.5t-4.5 -0.5
q-12 -1 -33.5 -24.5t-41.5 -54.5q-28 -41 -47 -99q-3 -8 -3 -13l-3 -8l2 2q13 17 49 73zM215 227q0 -3 -2.5 -8t-2.5 -9v-6q-2 -8 -3.5 -23t-1.5 -18q0 -1 -0.5 -3t-0.5 -3v-7q9 102 43 198q-6 -6 -18 -54t-14 -67zM210 301v1h4q0 1 0.5 4.5t0.5 4.5v9zM200 228q0 2 -4 4
v-10q4 0 4 6zM203 218q0 -3 1 -4q0 3 4 13l-2 6v-4q0 -4 -2 -6q-1 -1 -1 -5zM200 199q-2 -9 -4 -11q3 -3 4 -3q0 4 1 5zM25 268q3 0 3 -2l1 8q-1 0 -1.5 -2.5t-2.5 -3.5z" />
    <glyph glyph-name="b" unicode="b" horiz-adv-x="329" 
d="M424 351q-6 -8 -15 -12q-2 -1 -48 -22q-1 0 -3 -1l-2 -2q-33 -17 -60 -34q-11 -38 -26 -72l-4 -9q-11 -25 -16 -31q-11 -22 -23 -37l-24 -31q-3 -4 -9 -9t-9 -9q0 5 8 11q-3 0 -5 -2l-1 -1q-1 0 -2 -1q1 3 13.5 16t13.5 16q1 1 11 15q4 5 9.5 16t8.5 15q-2 0 -5 -5
t-6 -11t-4 -7l-19 -25l-25 -29q-21 -24 -49 -24q-8 0 -16 4t-16 10.5t-11 7.5q-1 0 -1.5 2t-1.5 2q-2 2 -2 6v4q3 13 17 46l5 9q0 1 2 3l1 2q2 3 23 32l7 9q3 3 7 8t7 8q48 51 90 80q9 34 9 46q0 29 -5 29h-2q-1 -1 -2 -1q-42 -36 -89 -99.5t-61 -108.5l-4 -8q-1 -3 -4 -9.5
t-4 -10.5q-1 -2 -1 -7q0 -8 -7 -8q-2 -2 -2 -3q0 -4 1 -6v-5q0 -1 -3 -1h-10q-4 0 -9.5 2t-7.5 2q-3 0 -5 1q0 -2 2 -2q-20 0 -20 55v6q2 45 19 115q18 72 69.5 215.5t55.5 159.5l3 11q2 3 5 3h5q12 0 22 -11.5t10 -24.5q0 -8 -1 -12q-4 -25 -21 -81.5t-42.5 -134
t-38.5 -120.5q5 13 30.5 46t36.5 43q40 36 67 36q23 -3 41.5 -17.5t20.5 -35.5l1 -6q1 -9 1 -26q72 37 118 43q2 1 9 1q0 -1 -1.5 -8t-1.5 -9t-2 -4t-2 -3zM138 110q34 35 72 104v2q1 1 1 2q-23 -22 -50 -56q-4 -5 -11 -14.5t-8 -11.5l-6 -12q-6 -13 -7 -20q2 0 5 3z
M242 182h5q1 0 1 -3q3 3 3 7l4 5q3 1 3 3v1q-1 1 -1 2q1 1 1.5 2.5l1 3t1.5 1.5q3 3 3 5v6q-3 -6 -3 -7t-2 -3l-1 -2q-1 -2 -2.5 -4t-1.5 -3l1 -5q-1 0 -3 -2q-2 0 -2 -5q-6 0 -8 -2zM108 314q-4 0 -4 -3l-3 -12l-1 -7zM224 263l-7 -3l-3 -5q6 2 6 4zM172 75q2 6 12 12
q0 -1 -3 -4zM155 174q-7 0 -7 -4l-2 -5q1 0 4 3q2 5 5 6zM108 383q1 0 2 0.5t3 0.5q0 6 -3 7zM155 111q-4 -4 -4 -5h6v7q-2 0 -2 -2zM202 219q1 -1 5 3l3 4q-2 0 -5 -2.5t-3 -4.5zM408 353l-4 -2q-1 0 -10 -3q3 0 6 -1l3 2q1 0 5 4zM211 144q-8 -4 -8 -5q8 0 8 5zM394 351
q6 0 8 2q0 1 -2 1l-2 1zM188 123q2 0 5 3h-7q0 -4 -1 -5q1 0 3 2zM227 272q2 0 2 4l-6 -4h4zM155 99q-2 0 -3 2q-1 -1 -1 -5q-1 -1 -1 -3zM410 356l9 3h-4q-1 0 -2 -1.5t-3 -1.5zM159 296l1 4q-3 0 -3 -2t2 -2zM407 356q-3 0 -5 -1l3 -2q2 2 2 3zM357 333q1 0 2 1q1 2 2 2
l-4 -1l-6 -4q5 2 6 2z" />
    <glyph glyph-name="c" unicode="c" horiz-adv-x="252" 
d="M330 325l-8 -16l10 11v-5q-15 -34 -51 -85t-62 -81q0 -1 -6 -6q-2 -2 -5.5 -6.5t-6.5 -6.5q-34 -34 -66 -50q-15 -7 -32 -10l-5 -1q-54 0 -75 43q-14 23 -14 53l-1 8q0 51 29 121t85 129q17 14 30 21q10 4 16 4q19 0 43 -17l16 -10q15 -12 15 -27q1 -3 1 -9
q0 -12 -10 -32q-9 -15 -13 -28q-7 -14 -9 -15q-9 -3 -13 -3q-9 0 -15 6q-10 6 -10 21q2 6 10 27.5t11 34.5l-2 8q-1 -1 -4 -1q-51 -38 -94 -146q-22 -68 -22 -107q0 -15 5.5 -30t17.5 -15h4q3 0 5 1q31 11 76 59t70 82t63 89v-8l-8 -15l14 16l3 2q3 2 4 2l-16 -27l7 6
q1 2 13 13zM96 275q5 7 8 14q-2 -4 -6.5 -8.5t-5.5 -7.5q-28 -64 -28 -119q0 -23 6 -34q-4 13 -4 34q0 35 18 87q3 14 12 34zM137 356q-23 -30 -30 -59l2 5q16 35 39 65q4 0 4 7zM218 157l39 49q-21 -21 -46 -55zM83 96q3 -1 6 -1q-1 -4 -4 -4q5 0 17 6q-6 -1 -19 -1z
M201 143q-2 -2 -2 -5l-8 -8q1 0 4.5 3.5t4.5 3.5q0 2 6 8l-2 -1q-2 0 -3 -1zM56 174l3 1q2 3 3 4q-1 0 -2 2l-0.5 0.5t-1.5 0.5zM22 141q0 9 -2 9v-4l-1 -1q0 -3 3 -4z" />
    <glyph glyph-name="d" unicode="d" horiz-adv-x="324" 
d="M398 316q0 -3 -1 -6.5t-3 -6.5l-1 -3l-2 -8q0 -1 -1.5 -4t-3.5 -5.5t-2 -3.5l-31 -50q0 -1 -2 -3l-3 -5v-1h-1q-3 -5 -6 -9.5t-5.5 -7t-2.5 -3.5l-2 -3q0 -5 -8 -13q-1 0 -2.5 -2t-2.5 -5l-2 -3q-3 -5 -17 -25t-16 -23l-5 -6q-9 0 -9 -7q-3 -3 -3 -4q0 -3 -1 -3
q-1 -3 -6 -7.5t-6 -4.5q0 3 1 5.5t1 3.5l3 3q5 5 4 6l-8 -6q0 -4 -2 -4l-2 -4q0 -8 2 -8q-9 -12 -30.5 -29t-31.5 -17q-19 0 -39 16l-3 3q-20 19 -20 67v12q1 33 8 68l-18 -22q-2 -6 -10 -14q-8 -11 -13.5 -16.5t-10.5 -9t-8 -6.5q-13 -11 -27 -11q-2 -1 -5 -1q-5 0 -8.5 2
t-7.5 5t-8 5q-26 18 -26 30q0 64 42.5 134.5t100.5 93.5q6 2 13 2t20 -4t18 -4q83 215 84 218q1 4 7 18.5t8 22.5q0 9 9 9q8 0 17.5 -6t11.5 -14q3 -1 3 -17v-8q-3 -24 -19.5 -77t-41 -122.5t-33.5 -100.5q0 -1 -1 -4t-1 -4q0 1 -5 1l3 5l-2 -1q-2 -2 -3 -2q0 1 1 3v2
q0 3 -2 3t-2 -5q-1 -1 -1 -3l1 -1v-2l2 -1q2 0 4 -0.5t2 -1.5q-45 -148 -45 -199q0 -27 3 -27q13 1 53.5 53.5t88 121.5t55.5 80q1 1 4 1l-1 -8q0 -5 -3 -11l2 2q1 1 3 4t4 5l1 2q0 -8 -9 -21zM47 175q16 6 59 72.5t62 104.5q-15 0 -59 -57t-64 -118l1 -5q0 3 1 3zM209 256
l12 41l-7 -10q0 -14 -4 -18l-4 -16q-5 -23 -10 -24l3 -6q-9 -11 -9 -39q8 35 15 56zM195 234q3 6 6 17t5 15l-5 -1l2 -4q-3 -1 -5.5 -11.5t-2.5 -15.5zM56 216q0 3 8 17q-2 0 -4.5 -3.5t-3.5 -7t-1 -4.5v-2t1 0zM116 311q3 3 3 5l4 4l1 1q1 2 2 2l8 7l-8 -4q-1 -2 -3 -2z
M380 286l-2 -6l-3 -7l7 9l2 3v4l5 8zM233 341q3 0 3 2l4 13q-4 -3 -6 -8q0 -1 -0.5 -3t-0.5 -4zM354 263q0 4 1 6l-10 -14q-2 -2 -2 -3q2 0 6 4zM134 345q-8 0 -10 -5l9 1zM160 140q-1 1 -3 -2l-2 -1h-5q1 -1 2 -3l1 -2l2 5l2 -3l3 5v1zM137 159q0 -1 1 -3v-2l-1 -5q3 3 3 5
t-2 3l3 5q-3 0 -4 -3zM244 364l3 10l-5 -1zM231 326q0 2 2 5t2 4l-4 1l-2 -7q2 -1 2 -3zM67 238q2 2 2 7l-6 -5zM230 376h-4l-1 -4l4 1zM91 288q-4 -2 -4 -3l-2 -6zM143 110l3 6q-4 0 -4 -3q0 -2 1 -3zM170 125q0 3 -1 4l-1 -7q2 2 2 3zM236 370q0 3 1 3l3 5l-5 -5
q0 -1 1 -3z" />
    <glyph glyph-name="e" unicode="e" horiz-adv-x="237" 
d="M304 326l5 -3l-3 -5l2 -16q-1 -1 -3 -5q0 -1 -1 -2t-1 -3q1 1 5 7.5t7.5 11.5t5.5 5q1 0 -3 -7.5t-9 -15t-6 -8.5l-24 -34q-124 -174 -194 -174q-38 0 -58 29.5t-20 72.5q0 3 0.5 9.5t0.5 9.5q5 68 48 142.5t100 88.5q21 -2 44.5 -14t23.5 -29v-5q-1 -47 -37.5 -78
t-76.5 -31h-12q-1 0 -3 -3l-1 -2q-6 -14 -14.5 -50.5t-8.5 -62.5v-11q1 -13 6.5 -22.5t12.5 -9.5q17 0 49.5 30.5t55.5 58.5q20 24 59 75.5t52 66.5v-9l4 5v-1l-1 -5q-3 -3 -5 -6zM173 388q-22 -17 -56 -68l-6 -9q23 5 44.5 28.5t21.5 44.5q0 2 -2 2.5t-2 1.5zM71 211
q-3 -20 -3 -32q4 38 22 92q-4 -9 -6 -15l-5 -13l2 2q-1 -5 -2 -6q-4 0 -4 -11q-1 -3 -2 -3q-2 0 -3 -2l3 13l11 35l-3 -3q-13 -42 -14 -61l3 16q2 -2 2 -5zM64 166q0 4 -4 7v-8zM105 316q0 6 7 6l-6 2l-2 -2l-2 -1zM267 246l-1 -3q-2 0 -2 -2q0 -1 2 0t3.5 3t1.5 3zM64 185
q0 -1 -1.5 -2t-1.5 -2l2 -7q1 0 1 11zM114 328q3 2 3 3l-3 2v-5z" />
    <glyph glyph-name="f" unicode="f" horiz-adv-x="245" 
d="M169 129q-2 2 -3 2l4 -9l8 -7l11 -23q1 -2 1 -6.5t2 -7.5q4 -4 4 -9v-7l3 -15q1 -5 1 -17l3 -19v-14q0 -1 -0.5 -3t-0.5 -4l-1 -20q-7 -95 -45 -169q-1 -2 -2 -3q0 -1 -1.5 -4.5t-1.5 -5.5l-4 -3q-2 -2 -6 -11t-6 -11l-19 -24q-3 -5 -9 -5l-18 -10q-7 -4 -13 -4h-5
q-5 0 -15 1.5t-11 1.5q-12 2 -19 5q-25 16 -31 25l-12 26q-1 1 -1.5 5.5t-2.5 5.5v4q0 1 -0.5 3t-0.5 3q-1 2 -2 5.5l-2 7t-3 5.5q-1 0 -1 3v8q0 2 1 4l-1 10q0 1 -1 4t-1 5v2l1 2v13q0 25 2 36v32q0 2 1 8.5t1 9.5q4 25 5 41q4 34 8 52q9 53 25 119q-1 2 -1 6q0 8 7 15
l12 45q25 96 35 127l30 88q25 75 72 170q9 23 35.5 61.5t41.5 38.5q3 0 15 -7.5t15 -10.5q18 -12 19 -13q11 -9 11 -26v-4q0 -18 -8 -48q-2 -9 -6.5 -26.5t-5.5 -20.5q-1 -4 -12 -37l-41 -105q-5 -9 -14.5 -27t-14.5 -27q-15 -35 -65 -113l-22 -35q110 33 206 129l-1 -2
q-1 -2 -2 -6t-1 -6l1 -3v-7l-1 -1l-2 -4l-1 -2v-7q0 -8 -1 -9l-5 -8q-71 -80 -182 -118q11 -7 33 -27q-2 -2 -2 -4q0 -4 5 -4q9 -4 16 -20zM35 -173q0 -9 2 -27q1 -2 1 -7q4 -26 10 -35q3 -7 10 -8q10 0 16 7q3 3 6 6.5t7 8t6 7.5q3 5 8.5 14t6.5 11q2 3 4 8.5t4 8.5l2 4
t1.5 3.5t1.5 3.5t2 3l7 19q21 53 28 143l-2 31q-7 72 -46 103q-15 15 -32 17q-3 -2 -3 -4q-2 -9 -7.5 -33t-9 -41.5t-9 -53.5t-10.5 -80q-4 -44 -4 -65v-44zM234 617q-2 -2 -3 -5t-2 -4l-15 -26v-2q-1 -1 -1 -2q-1 -1 -1 -4l-25 -53q-3 -6 -18 -43q-2 -7 -6 -11
q0 -2 -1.5 -6t-1.5 -7q1 -1 1 -3l-3 -5q0 -4 -4.5 -11.5t-5.5 -11.5q0 -3 -1.5 -5.5t-1.5 -3.5v-1q-1 -2 -1.5 -3.5t-2.5 -8t-5 -14.5l-5 -14q-3 -5 -3 -13l-5 -11l-5 -18q12 16 43 79l28 58q18 40 26 62q6 16 16 44t13 36l5 24q-5 0 -15 -17zM133 284q-11 -5 -14 -21
q4 2 7.5 8.5t3.5 8.5zM151 331q-9 -9 -9 -18q2 2 5 6t5 7l1 3zM186 -6q0 1 2 5v17l-1 5q-2 0 -2 -5l1 -17q-1 -2 -1 -4q0 -3 2 -4q-1 2 -1 3zM190 56l-1 4q0 8 -3 11q0 4 -2 6q0 -3 2 -7v-1q1 -1 1 -2q-2 -2 -2 -4q0 -7 5 -7zM65 138l-4 1l-2 -12q1 0 4 4q2 0 2 7zM189 40
v-6q0 -1 3 -1l-1 7q0 2 2 6l-1 1v2q-3 -1 -3 -9zM58 313q0 -4 -5 -14l5 6q2 0 2 6zM107 329q0 -2 0.5 -5t0.5 -4l3 6q0 1 1 3l1 2q-6 -1 -6 -2zM120 354q1 2 2 6q1 3 2 5l-6 -12q-1 -1 -1 -4zM302 297l-1 -3q-1 -3 -2.5 -6t-2.5 -4q7 4 7 8zM112 397q2 -1 5 -2v6q-5 0 -5 -4
zM192 -50q1 1 1.5 4.5t0.5 4.5l2 8l-3 -5l1 -1v-2l-3 -2q1 -4 1 -7zM151 -182q0 -1 1 -2v-1l5 10q-5 -4 -6 -7zM19 147q0 3 2 7q-1 0 -2 -4t-1.5 -8t-0.5 -5l2 9v1z" />
    <glyph glyph-name="g" unicode="g" horiz-adv-x="364" 
d="M87 -48l-2 -4q3 2 3 3q2 0 2 3q-2 -1 -3 -2zM206 141l2 4l2 2l2 4l1 2q2 0 2 2q-4 -1 -5 -3q-2 -4 -5 -7t-3 -4h4zM139 96q-6 0 -6 -6q4 0 4 2q2 2 2 4zM124 -1q2 2 4 5q-7 -13 -20.5 -38t-20 -38l-17.5 -35t-17 -34.5t-14.5 -30.5t-12.5 -30t-8.5 -26t-6.5 -25.5
t-2 -21.5v-6q0 -4 2 -5l4 2q44 29 107.5 175.5t82.5 226.5l-32 -42q0 -4 -6.5 -10.5t-6.5 -7.5q0 -3 -3 -4q-5 -14 -8 -14l-3 -1l-3 -3q0 -1 -3 -8t-4 -8q0 -2 -1 -3.5t-1 -2.5l-4 -4q-2 1 -4 1q-2 -2 -2 -4l2 -4q0 -1 -2 -3l-3 -2l3 2q-1 -1 -3 -5q3 1 3 4zM202 134
q-2 -1 -4 -5t-3 -5q6 0 6 4q3 3 5 3q0 3 -4 3zM126 77l-4 -8q0 -3 3 -3l1 2q2 3 2 4q-3 0 -3 1l1 1v3zM120 75q-1 -1 -2 -3.5t-2 -3.5q2 0 5 3t3 5l-3 2q-1 0 -1 -3zM202 148q-3 0 -10 -8l4 2l2 2zM135 99q-1 0 -1 3q-1 0 -3 -5q2 0 4 2zM106 73l1 1l2 2l1 1q0 -4 1 -4
q2 0 2.5 3.5t1.5 4.5q-1 1 1 2q1 0 1.5 0.5t0.5 1.5l-6 -3l4 5l3 3q4 6 14 18q14 19 50 60t40 46q2 2 2 5q4 17 9.5 41.5t10.5 49t6 31.5q-6 -11 -9 -14q-1 0 -2 -2l-2.5 -5t-2.5 -4l-5 -6l-4 -6l-3 -5v1q-1 0 -2 -3q-1 -1 -1 -3l-2 -2q-2 -2 -3 -2q-3 0 -3 -3q0 -2 -1 -4
l-5 -9l-5 -5l-8 -10q-1 -1 -6.5 -9t-5.5 -9l3 3l3 1q0 -2 -1 -3q0 -1 -2.5 -3t-2.5 -4q-4 -7 -6 -7q-3 -3 -7.5 -10t-6.5 -9q-2 -5 -16 -22t-17 -19l-8 -9q-2 -2 -6 -4q-1 -1 -4 -6.5t-8 -7.5q0 -1 -4 -3t-5 -3q1 0 -1 -2.5t-1 -2.5q0 -3 -2 -3q-1 0 -9 -5t-12 -6
q-3 -1 -7 -1h-7q-4 -2 -6 -2q-4 0 -7 3q-23 0 -34.5 17t-11.5 41v12q0 42 41 118q3 4 11 16.5t13 18.5q77 92 144 92q32 0 43 -6l4 -2q4 4 16.5 9.5t20.5 6.5q17 0 21 -7q9 -9 10 -14q0 -3 -2 -6q0 -3 7 -17q0 -17 -7 -35q0 -4 -7 -43t-10 -47q66 50 148 91l3 -4
q-1 -6 -1 -17q0 -7 -3 -10q0 -3 -3 -6q-2 0 -8 -3q2 2 2 3l-5 1l-1 1q-1 1 -2 1l-9 -8q2 0 4 1t4 1q5 0 5 -1q0 -7 -11 -7q4 2 4 4q-1 0 -3 -1t-3 -1q-2 0 -3 1q-1 0 -1 -5t-2 -6q-2 -4 -6 -5q0 1 -2 3l-1 -5q-2 -6 -3 -6q-2 -1 -5 -1l-5 1q-1 -5 -2 -5q-1 -1 -1.5 -2
t-2.5 -3l-2 1q-1 2 -2 2l2 -4q-3 -1 -8 -6q1 3 2 5l1 2q-5 -2 -7 -4q-1 0 0 -2l1 -2q-6 0 -6 -4l-4 -2q0 -2 0.5 -3t0.5 -2l-3 -3q-1 1 -7 1l-2 -3q-1 0 -2.5 -2.5t-2.5 -2.5l-5 -5q-5 -6 -6 -5q-3 0 -6.5 -2.5t-3.5 -3.5l-1 -2q-2 -1 -1 -2q-2 0 -5 -1l-3 -1.5t-3 -0.5
q-3 0 -5 -2q-8 -6 -10 -9q-1 -1 -1 -5q1 3 5.5 6.5t4.5 4.5l3 2q1 -1 3 -1l-27 -30q-6 -38 -27.5 -118.5t-36.5 -121.5q-13 -37 -29.5 -74t-43 -87.5t-58.5 -84.5t-62 -40l-9 -2q-4 0 -6 1q-10 0 -18 10q-6 3 -22 8q-22 9 -24 32v4q0 3 0.5 8.5t0.5 7.5q1 6 2 16t3 16
q1 3 3 8.5t2 7.5q1 12 10 30q14 62 80 176l4 6q1 1 3 5l3 6h4q0 6 2 8l8 11q7 11 16.5 25t13.5 19zM46 156q37 28 99.5 118t78.5 108h-4l-4 1q-22 0 -54 -29t-49 -53l-9 -12q-3 -6 -12.5 -20.5t-14.5 -24t-10 -22.5q-2 -4 -2 -8l-3 -5q-16 -47 -16 -53zM50 227q4 3 4 6l1 4
q-1 -1 -5 -10zM72 272q3 0 4 -1l1 4l-2 4l-1 -3q-1 -3 -2 -4zM83 271v8q-2 0 -2 -2t2 -6zM73 261l-2 -4l7 3l-1.5 3t-0.5 2l-1 -1q0 -2 -2 -3zM91 -205q0 4 -2 4q0 -2 -1 -5l-2 -3q0 -2 1 -3q1 1 2 3.5t2 3.5zM140 -104q-1 -1 -2 -3l-1 -2q-1 -1 -1 -5q1 2 4 10zM92 -217
q7 3 7 9l-6 -4q0 -3 -1 -5zM109 -255q1 -1 3 -1l2 4l2 3l6 9q0 2 -2 2l-2 -4q-1 -1 -1 -4q0 -2 -3 -2q-1 0 -2 -3t-3 -4zM104 -267l-1 3q0 -2 -2 -8q3 0 3 5zM107 -257q-1 -1 -2 -6l1 1q1 0 2 1q0 2 -1 4zM182 254l12 10q-10 0 -10 -5zM177 242l3 4l1 4q-4 -1 -8 -7l-2 -4
l3 1q2 2 3 2zM185 273l1 -4q2 0 5 3t5 3q-4 0 -5 -1l-3 -2q-2 0 -3 1zM226 323l-4 1q-3 -3 -3 -5t2 -2z" />
    <glyph glyph-name="h" unicode="h" horiz-adv-x="386" 
d="M261 49q-8 -6 -22 -6h-7q-10 1 -29 15q-13 5 -17 22l-2 3q-1 4 -1 14q0 13 1 18v12q4 36 30.5 106t31.5 100q1 6 1 17q-12 -6 -29 -24t-39 -48.5t-36 -51.5t-37.5 -57.5t-26.5 -40.5q-1 -4 -6 -7q-6 -5 -18 -5q-5 0 -20.5 10.5t-19.5 11.5q-13 4 -13 24q1 15 8 41
q3 10 12 37t19.5 56t12.5 36q84 236 106 325q0 3 8 3h3l2 -1q7 -3 22 -20q5 -5 5 -32q-5 -59 -31.5 -142.5t-84.5 -232.5q23 42 60.5 87.5t65.5 63.5q3 3 6 3q10 6 25 6q5 0 24.5 -9t24.5 -14q0 -1 2.5 -4t2.5 -4q1 -1 4 -11t3 -12q0 -56 -16 -101q-24 -68 -35 -101
q-10 -31 -13 -52v-4q0 -3 1 -3q8 2 45 46t77 97q14 18 89 121q0 -5 2.5 -10.5t2.5 -6.5q0 -2 -1 -4l2 -5q1 1 2 3q1 3 2 3q4 -5 4 -10q-1 -1 -2.5 -6t-3 -9t-2.5 -5q-4 -11 -10 -20.5t-17.5 -25.5t-14.5 -20q0 -1 -2 -3l-2 -1q0 -1 -1.5 -2t-1.5 -2q0 -4 -2 -4l-2 -1l-3 -3
q0 -5 -3 -5q-1 0 -1 3l-10 -11l3 -1q1 3 6 6q-1 -7 -32 -45.5t-40 -47.5q-3 -5 -18 -20q-8 -8 -23.5 -21t-20.5 -18zM306 110q4 0 4 4v8q-1 -2 -5 -6q0 -2 -2 -6l-3 -3q3 0 6 3zM77 264q0 1 -1 2v2l1 2q1 1 1 2q0 2 1 3q1 2 2 3q-1 0 -3 -2q-5 -10 -5 -13q0 -4 1 -5q3 4 3 6
zM255 296q1 0 3 -2l-1 -3q3 0 3 6l1 3l-8 -4q0 -3 -1 -5zM239 135v-4q6 9 6 12q-6 -3 -6 -8zM261 209q2 2 2 7q-6 -6 -6 -10l2 -5v4q0 2 2 4zM87 282l-5 -16q4 4 4 8q1 0 1 8zM433 266q-4 0 -4 -3q-3 -3 -3 -5q0 -1 2 -3q0 4 1 5q2 2 4 6zM258 211l-1 4q-3 -1 -3 -4l-3 -6
q3 2 3 3zM248 263v6l-3 -4l2 -7l1 2v3zM290 98l-7 -7q1 0 4 2l4 4q0 1 2 3zM305 103l-8 -11l2.5 2.5t2.5 2t2 2t2 2.5t2 1q-1 0 -3 1zM292 87q-3 0 -4 -2l-3 -5q7 4 7 7zM246 192q3 2 3 6l-3 -5q0 -1 -1 -1l-1 -2q0 -3 1 -3q1 1 1 5zM262 271l-2 -4l3 5l2 3l-1 3
q-2 -4 -2 -7zM261 197l4 -4q0 3 1 5q-4 0 -5 -1zM108 401q2 0 3 1h1l2 2l1 2q-2 0 -7 -5zM346 161q4 0 4 3l2 3q-1 0 -3.5 -2.5t-2.5 -3.5zM269 228v4q-3 0 -3 -3q1 -1 3 -1zM389 213l-3 -2h1zM390 215q-1 -1 -1 -2q0 1 1 2z" />
    <glyph glyph-name="i" unicode="i" horiz-adv-x="184" 
d="M243 300q2 1 5 3t6 3l2 2l-8 -18l-5 -8l19 24l2 2l2 1q0 -2 -2 -5l-2 -4l-79 -111q-23 -31 -55.5 -62t-57.5 -31q-18 0 -20 5q-2 0 -2.5 0.5t-2 1.5t-3.5 2q-30 14 -30 78q0 34 12 70t32.5 79.5t27.5 64.5q3 10 14 10q2 0 5 -2t4 -2q16 -4 21.5 -12t5.5 -25v-4
q-1 -14 -32 -95l-3 -7q-20 -56 -25 -94l-1 -9q0 -24 2 -24q4 0 8 2q13 8 39 38.5t48.5 60t51.5 69.5t36 49q0 -2 -7 -15l-4 -6l9 7l-1 -7l-16 -27q7 10 18 21l-3 -10zM110 463q0 9 5 15t11 7t11.5 2t6.5 1q9 0 19 -8t10 -17q-3 -11 -15 -23q-6 -9 -20 -9q-2 0 -5 1t-5 1
q-11 6 -13 10q-5 10 -5 20zM141 165l-3 -3q0 -6 -1 -7l-6 -4q-1 0 -3 -7q14 12 14 17q0 1 -0.5 2t-0.5 2zM61 178q1 15 1 19l-3 -2v-12l-1 -4v-6q3 3 3 5zM44 240q1 0 3.5 3.5t2.5 4.5h-1q-1 1 -2 1q-4 0 -6 -7zM93 107q9 5 11 6l7 6q-1 -1 -2.5 -1.5t-2.5 -1.5
q-13 -4 -13 -9zM55 205q0 -1 4 -1q1 0 1 3v5q0 3 1 4q-4 -2 -4 -7zM166 186l2 2q1 3 2.5 6t2.5 4q-8 -4 -8 -7zM42 253v-1q-1 -2 -1 -3l4 8q0 3 -3 3l-2 -2q-1 -3 -1 -4q3 0 3 -1zM70 202q-1 0 -2 3l-1 1q0 -11 -2 -15q5 5 5 11zM66 222q6 0 6 6q-4 0 -4 -2q-2 -2 -2 -4z
M212 270q5 4 6 5t3 4t3 5zM163 183l-4 -2l-2 -7zM74 221q-2 0 -4 -2q1 0 1 -3q1 0 3 5zM64 318q2 1 3 2l2 4q-3 -2 -3 -3q-2 0 -2 -3zM145 173q1 0 2 3l4 4q-2 -2 -4 -2q0 -1 -1 -2.5t-1 -2.5z" />
    <glyph glyph-name="j" unicode="j" horiz-adv-x="137" 
d="M-220 -131q-5 4 -5 10q0 7 1 12q0 5 5 7q1 1 6 1q3 0 3 -2q18 -18 27 -18q25 0 49.5 22t38.5 44q56 86 129 315l5 16q25 78 37 106.5t22 28.5l2 -1h2q17 -6 25 -22q4 -7 4 -23q-8 -43 -39.5 -141t-55.5 -163q-18 -49 -42.5 -91.5t-65 -78.5t-84.5 -40h-6q-41 0 -58 18z
M110 440q-13 10 -13 20q0 3 2 7q11 11 22 15l3 2q4 1 5 3q19 -3 22 -5q13 -8 13 -22q-2 -7 -4 -8q-2 -5 -9 -5l-3 -7q-6 -6 -15 -6q-11 0 -23 6zM-62 -64q2 4 4.5 8t2.5 6l-1 1v2t-3 2l-1 -5q0 -2 -1.5 -5l-2.5 -5l-1 -3q2 0 3 -1zM-100 -109l1 3h-1l-2 1q-2 0 -4 -2l3 -3
q2 0 3 1zM-104 -115q-6 -2 -8 -6l3 1q4 0 5 5z" />
    <glyph glyph-name="k" unicode="k" horiz-adv-x="254" 
d="M311 466q5 -7 5 -13q0 -28 -95 -123q-16 -16 -47 -42t-44 -39q-1 -2 -1 -5t1 -5q2 -3 9.5 -20.5t14.5 -32t17 -31.5t21 -27t21 -10q4 0 8 2q7 0 21 2t21 2q2 0 7 -5q-1 0 -3 -1.5t-4 -1.5q-13 0 -23 -8q-2 -4 -8 -7q-2 0 -2 -1q-2 -2 -3 -2q-15 -9 -38 -9q-42 0 -70.5 36
t-30.5 80l-3 3q-14 -64 -18 -112v-6q0 -5 -2 -5v5q-1 0 -2 -1.5t-3 -1.5q2 -2 3 -2v-4l-3 -2l3 -4q0 -10 -3 -10h-6q-1 -1 -6 -1t-5 1h-6q0 -1 1 -1q2 -1 3 -2h7q0 -6 1 -8l-20 9q-3 0 -7 4q-11 5 -14 13q-5 7 -5 14q0 40 4.5 64.5t23.5 92.5q20 74 63 200.5t59 181.5l6 14
q3 4 8 4q10 0 17 -7q15 -6 15 -16v-24q0 -30 -7 -48q-4 -23 -14 -58.5t-18.5 -62t-23 -69t-18.5 -55.5v-4q87 72 170 161q3 6 11 6q7 0 12 -8zM68 162v7q-4 -1 -4 -12l-3 -6v-4l-1 -4l1 1q1 0 2 0.5t1 1.5v9q4 0 4 7zM50 133q0 -1 -3 -2l1 -5l3 -2q0 3 1 4q1 0 2 0.5t0 1.5
q-2 0 -2 3v6q-1 0 -1 -3zM75 277q0 -2 -1 -3v-1v-4q2 0 2.5 2.5t1.5 2.5l-1 6zM83 264l2 11q-1 0 -4 -14q2 2 2 3zM62 194q3 2 3 11l-2 -4q-1 -2 -1 -7zM28 183l-1 9q0 -3 -2 -10zM47 262l-4 -4q1 -3 2 -3q1 5 2 7zM43 128q2 1 6 13q-2 -2 -2 -5zM63 101q2 2 2 6l-2 -2
l-1 -1q1 -1 1 -3z" />
    <glyph glyph-name="l" unicode="l" horiz-adv-x="207" 
d="M269 319l-5 -7q0 -2 2 -2q3 0 9 9l-1 -6l-7 -11q-7 -11 -15 -22l-7 -12l3 4q3 4 7 9.5t8.5 11t7.5 9.5t3 3v-9q1 0 3 2l2 1q0 -2 -9 -17q-23 -33 -31 -35q4 -2 5 -2q2 4 4 4q-107 -172 -163 -192q-3 -1 -6.5 -3t-10.5 -2q-5 0 -8 2t-9.5 5t-9.5 6q-7 7 -11.5 16.5
t-6 17.5t-2.5 16.5t-1 9.5q0 4 3 10q0 -4 1 -6q2 3 2 11q-3 0 -4 -1l-2 6v12v6q0 2 1 11.5t2 17.5q5 33 5 36q-1 -1 -4 -17.5t-3 -17.5q-4 -28 -4 -41v-19q2 -44 15 -62q-8 0 -13.5 21.5t-6.5 46.5v12q0 43 26 128q14 45 59 170t64 184q5 8 13 8q4 0 6 -5q14 -5 18 -13
t4 -23q2 -3 2 -9q0 -7 -1 -10q-17 -78 -60 -201q-71 -195 -71 -271v-4q3 -12 4 -12t5 2q24 19 62 67t74.5 101t41.5 59q7 10 12 11l-6 -9h4v-5zM48 284l2 15q-3 -4 -7 -21l4 2zM70 225q0 -1 0.5 -5.5t0.5 -8.5q2 2 2 3v4q0 4 2 10q-3 -3 -5 -3zM82 263q-2 -7 -5 -8h7l-2 3
l2 6q2 2 2 6q-2 -1 -4 -7zM113 91q-2 -2 -2 -5l-8 -8q1 0 4.5 3.5t4.5 3.5q0 2 6 8l-2 -1q-2 0 -3 -1zM40 260q-4 -2 -4 -6q0 -3 2 -5q0 1 1 5t1 6zM28 119l-2 -11q0 -2 1 -3l2 5q0 2 -0.5 5t-0.5 4zM43 272q-3 0 -3 -3t1 -3q2 2 2 6zM74 244l2 8q-3 -1 -3 -4zM141 145
l-4 -4q2 2 4 2q0 1 1 2.5t1 2.5q-1 0 -2 -3z" />
    <glyph glyph-name="m" unicode="m" horiz-adv-x="528" 
d="M585 272l-14 -23l-9 -12q-36 -53 -45 -65l-3 -2q-2 -1 -4 -2.5t-4.5 -7t-4.5 -13.5l-1 5q-3 -4 -5 -4l3 -2q-14 -19 -37 -39t-43 -23l-14 2q-4 0 -7 4t-5 4q0 3 2 3q0 6 -4 6h-5q0 -1 2 -3.5t3 -2.5q-2 -2 -3 -2l-3 3q-11 6 -18 25t-7 38q0 39 20.5 125.5t20.5 102.5
q0 4 -1 4q-14 -8 -27.5 -23.5t-24.5 -31t-14 -18.5l-5 -10q0 2 -3 2q-7 -14 -8 -14l-2 -3q0 -2 -9.5 -19t-11.5 -19q-2 -4 -5 -9.5t-7.5 -14t-7.5 -14.5l-1 -3l-2 -2q-2 -2 -4 -2q1 -1 1 -7q-19 -41 -23 -54l-13 -41q-1 -5 -6.5 -20t-7.5 -18q-2 1 -5 1q-5 0 -6 -4l-2 2
l-8 -4l-3 1v4l-2 10l-1 5h-6q-11 0 -18 13v4q0 9 10.5 38t11.5 34q27 108 27 148q0 26 -4 42q-30 -17 -57 -61.5t-55.5 -112t-32.5 -75.5q-5 -2 -6.5 -6t-1 -8t-3 -7t-12.5 -3l-2 3q0 -3 -2 -3q-3 0 -9 3.5t-11 3.5q-3 0 -5 -1q-6 1 -8 2.5t-2.5 3t-0.5 8.5t-1 13
q7 34 27 109t27 122q1 6 2.5 20t3 22t4 16.5t6.5 10.5h7q21 0 32 -18.5t11 -42.5q0 -8 -2 -22q7 12 17 25.5t29 30t36 16.5q27 0 41.5 -16t17.5 -34.5t3 -45.5v-6q0 -2 3 -2q23 49 65.5 91t83.5 42h4q16 -2 32.5 -19t16.5 -33q0 -24 -4 -39q0 -3 -2 -3t-2 2t-1 2
q-2 0 -4.5 -2.5t-2.5 -3.5v-9q3 0 5 4t3 4l1 -3q1 -2 1 -3q0 -3 -2 -5t-3 -6q1 -1 1 -4l-4 -10v-6q0 -5 -3 -13.5t-3 -10.5v-5q-6 -12 -6 -21v-8q0 -5 -3 -13t-3 -10t1 -3l-5 -10q0 -1 0.5 -2.5t0.5 -3.5q0 -8 -3 -17t-3 -14l-4 -21q-2 0 -2 -6q1 0 1 -3q0 -4 -0.5 -9.5
t-0.5 -6.5v-4q0 -3 3 -5q9 0 55 61q15 20 55.5 77.5t63.5 89.5q0 -4 -6 -18l-4 -6h9l-36 -53q8 8 19 22t14 17l5 2l-22 -31q6 4 8 7l9 12l1 -9l-9 -19q-2 -4 -3 -4zM424 244q-6 -6 -6 -15l-1 -3q0 -1 -1 -4v-3q8 8 8 25zM423 177l3 15l-3 1q1 -7 1 -9q0 -1 -3 -1l-3 -5l1 -3
q2 0 4 2zM325 332q2 4 4 7l-7 -7q-1 -1 -3 -4t-4 -4l-4 -7q1 0 2 1.5t2 1.5q0 3 3 4q6 5 7 8zM406 188q7 0 7 2q-1 4 -1 6q-6 0 -6 -8zM270 227l3 2l3 8q-3 -1 -3 -3l-3 1q-1 -1 -1 -3q0 -1 0.5 -2.5t0.5 -2.5zM274 244q0 -5 6 -5q0 2 0.5 4.5t0.5 3.5q-4 -2 -7 -3zM138 286
l-8 -5q2 -2 2 -4q6 6 6 9zM525 190q1 2 5 9l5 8q-10 -12 -10 -17zM452 359q3 0 4 -4q2 0 2 6q-4 0 -6 -2zM258 200h-7l4 -4q3 2 3 4zM420 262q4 4 4 6q0 1 -2 3q-1 -2 -1 -5t-1 -4zM411 223v-10q2 4 2 7t-2 3zM462 361v6q-2 -2 -2 -4v-5q2 0 2 3zM140 292q3 0 3 2z" />
    <glyph glyph-name="n" unicode="n" horiz-adv-x="343" 
d="M407 340q0 -2 -6 -16l-8 -11l13 12l1 -5l-13 -25q23 30 25 32l-11 -25l11 15v-9l-28 -49l-14 -19l-5 -6l2 4q1 3 1 5q0 1 -1.5 -1.5t-3.5 -5t-2 -3.5t1 -1l1 -1q0 -1 -3 -6q-2 -3 -4.5 -5t-4.5 -2l-1 -1q0 -3 -1 -3l-2 -3q-4 -7 -3 -7l2 2q2 2 5 4l2 3q-37 -55 -67 -91
q-39 -50 -69 -55q-2 0 -5.5 0.5t-4.5 0.5q-4 0 -7 1t-5.5 3t-3.5 2q-28 17 -30 49v17q0 5 1 7v6q0 7 2 17q0 5 12 47q38 121 40 134l1 16q0 3 -1 3q-15 -6 -51 -53.5t-72 -115.5q-6 -10 -12.5 -28.5t-13.5 -30.5l-3 -9q-5 -13 -26 -13q-6 1 -11.5 6.5t-9.5 10t-5 4.5
q-6 0 -7 4q0 1 -2.5 2.5t-2.5 2.5t2 7q48 174 67 261q3 9 9 9q8 0 20 -8q16 -13 17 -20q0 -2 0.5 -7.5t1.5 -10.5v-5q0 -20 -11 -61q18 31 43 58.5t44 36.5q12 8 26 8q17 -7 25.5 -11t18 -14t11.5 -23q3 -9 3 -30q0 -28 -24 -103q-3 -9 -10 -31t-12 -37t-9 -32.5t-5 -29.5
q0 -6 1 -6q5 0 24 22t44 56.5t48 66.5t43.5 61.5t22.5 32.5zM214 128l-2 -2q-1 -3 -1 -4l3 -5q0 -1 -1.5 -5t-1.5 -7l3 2l1 3q0 7 1 11v3l1 1q1 0 1 5q3 9 4 10v5q-3 0 -4 -4q0 -5 -1 -5t-3 -2q0 2 2 7l1 5l1 2v3q2 0 2 4q2 0 2 5l1 2l1 1q0 1 3 3q0 2 -3 2l-2 6v-5h-4
q0 -2 1 -3q-4 0 -4 -4l4 1q0 -1 -2 -2.5t-2 -3.5q0 -3 -2 -4l1 -4q0 -1 -2 -2l-1 -1v-14q3 -3 3 -4zM333 183q1 1 8 9l2 3q2 3 4 5q-3 -3 -7 -5.5t-5.5 -4.5t-1.5 -7zM330 180q-1 0 -2.5 -1.5t-2.5 -3.5t-2 -3l1 1v2l-1 -1l-3 -3l3 1l-3 -5q4 0 10 13zM231 199q-3 -3 -3 -6
l-3 2l4 -4q1 0 3 2l1 8q-2 0 -2 -2zM371 263l-1 -3q-1 -2 -2 -4.5t-2 -3.5q7 4 7 8zM305 144q-1 0 -2 -1q-2 -1 -3 -1q-2 -2 -2 -5l-8 -8q1 0 4.5 3.5t4.5 3.5q0 2 6 8zM254 275l-2 -3v-1q0 -2 -5 -12l5 7v0q2 0 2 5v4zM392 269q0 -1 -2 -3l-2 -2v-1l-4 -5l5 2zM242 262
q-3 -1 -6 -6q0 -1 -1 -3q-2 -4 -2 -6q2 8 9 15zM377 268q0 1 2 2t2 3q-3 -3 -6 -5l-3 -2l-1 -1q5 0 6 3zM224 156q-2 -3 -2 -7q1 1 1 2z" />
    <glyph glyph-name="o" unicode="o" 
d="M216 323q0 -54 -41.5 -122t-93.5 -87q-17 -7 -27 -7q-4 0 -26 9q-4 0 -8.5 4t-5.5 7q-10 13 -10 31q1 30 15 84q0 1 0.5 2.5t0.5 2.5t0.5 2t0.5 2t1 3q24 83 75 147q0 2 -3 2q-11 0 -11 10q0 4 4 7q7 4 25 4q7 0 17 -0.5t12 -0.5q33 -4 54 -34t21 -66zM72 155
q31 28 58.5 83t30.5 102q-1 24 -13 38q-5 0 -32 -64q-46 -112 -52 -162q0 1 5 1q1 0 1 1zM156 185l-1 -3q-1 -1 -3 -4q1 0 4 4l6 6q0 2 -2 7l6 2q4 5 5 11q1 3 6 8.5t6 8.5q14 30 14 32l4 12q-8 -24 -30 -56q-1 0 -3 -4l-2 -2q-3 -1 -3 -7l-8 -11q-13 -22 -34 -41
q-13 -13 -33.5 -24t-36.5 -11q2 -1 6 -1q16 0 41 16t37 30l14 17q1 0 2.5 4.5t4.5 5.5zM191 266l1 2v3q2 1 3.5 5.5t1.5 5.5q-2 0 -2 2q1 4 5 8q-9 -3 -9 -19q-6 -3 -6 -14l5 2v2q1 2 1 3zM180 239q0 4 1 5q-1 0 -3 -3l-3 -7q-4 -11 -8 -14l5 2q0 1 3.5 6.5t4.5 10.5z
M170 234q1 1 2.5 3.5t2.5 3.5l-1 12l-2 -6q1 -2 2 -3q-5 -7 -7 -13q3 0 3 3zM197 351q0 2 -0.5 5.5t-0.5 4.5l-5 2q0 -6 6 -12zM198 368q-1 9 -6 14v-4zM157 217l1 -1q1 -1 1 -3q2 2 2 7q-4 -2 -4 -3z" />
    <glyph glyph-name="p" unicode="p" horiz-adv-x="309" 
d="M175 139q-3 -5 -4 -6q-2 -2 -6 -2q-1 -1 0.5 -1.5t2.5 -0.5q-3 -1 -3 -2q-2 0 -2 -3l-5 -5q-7 -1 -10 -3q-2 -2 -5 -3t-4 -2q-3 -3 -12 -6q-3 0 -3 -2q-3 -3 -5 -3l-10 1q-32 8 -47 30q-8 -18 -23 -79l-17 -85q-1 -4 -2.5 -13t-2.5 -13q-1 -1 -1 -4q0 -1 0.5 -5t0.5 -6
q0 -5 -3 -5q-1 0 -1 -3v-9q0 -10 -5 -14q-7 0 -22 9.5t-16 15.5q-4 16 -4 36q0 10 2 30q9 79 34 166.5t63.5 199t53.5 163.5q5 5 11 5q12 -1 18 -16q6 -8 7 -20l2 -19q-3 -23 -19 -76l-4 -12l2 3q42 51 72 59q2 0 5 0.5t4 0.5q22 0 34 -8q0 -2 4 -2q13 -3 22 -27t9 -43v-16
q0 2 55 23q50 16 84 22q1 0 -3 -4q-4 -3 -4 -4q0 -3 -2.5 -6t-2.5 -4q0 -3 -3.5 -8.5t-4.5 -5.5q-4 0 -4 -2q2 -2 6 -2q0 -1 -1 -3l-1 -2q-70 -19 -125 -52q-36 -116 -101 -165q-10 -10 -11 -10q-2 0 -4 -3q-2 0 -5 -3l-10 -6q2 3 7 7q8 4 15 12q5 4 8 11q10 7 11 9q0 2 1 3
zM225 315q4 14 6 48v11q-2 21 -6 30q-47 -43 -86.5 -102t-58.5 -116q46 69 145 129zM197 244q-85 -69 -92 -97q9 1 31 18.5t33 31.5q5 8 11 16t10.5 14.5t9.5 15.5q0 1 1 2q1 2 1 3zM12 1q0 -3 1 -4q-1 -2 -1 -8l1 -3q5 8 5 13q0 1 3 6v5q1 1 1 3q0 3 1 4l3 3v1q-3 2 -3 4
t1 3q2 2 2 10q0 1 1.5 3t2.5 5l2 2q-2 0 -7 -5q2 2 2 7q-2 4 -2 8q-2 -2 -2 -3q0 -2 2 -5q0 -4 -2 -6q-1 -1 -1 -5q-2 0 -2 -2l-2 -4h4q-1 0 -1.5 -5.5l-1 -11t-1.5 -5.5l-2 4q-1 2 -1 6q-2 -4 -2 -7q0 -1 1 -2v-2q1 1 1 -0.5v-2.5zM152 129q0 -3 3 -3q5 2 5 8q-4 -3 -5 -3
l2 3q2 2 2 4h-1l-2 -1q-1 -4 -6 -6l-13 -13q3 2 15 11zM37 102q3 1 6 6.5t4 6.5q-2 3 -2 6q-3 -2 -3 -5zM205 164v-3l6 8q0 1 2 4l2 3l4 8l-11 -13q0 -1 -3 -7zM-10 65q-3 -16 -3 -18l6 12zM207 271q-6 -2 -8 -6q6 0 9 3q0 2 -1 3zM106 142q-2 -2 -3 -2q9 0 13 6zM33 88
q-3 -4 -5 -4l3 -6q2 2 2 6v4zM287 326q-1 -1 0 -1h2l5 4q2 0 2 2h-3zM405 365q1 1 3 1q-2 1 -4.5 1.5t-3.5 0.5q0 -3 5 -3zM5 -45q2 0 2 3v5q-2 0 -2 -8zM284 316q0 -1 2 -3l3 6q-1 -1 -3 -1t-2 -2zM13 -43q2 0 4 2l-1 1v3zM8 -65q-2 5 -2 7l-1 -5zM206 258q0 2 -1 3
q0 -2 -2 -4q1 0 2 1h1z" />
    <glyph glyph-name="q" unicode="q" horiz-adv-x="321" 
d="M413 340l-8 -17l8 10q0 -4 -5.5 -16t-7.5 -12q-6 -3 -12.5 -11t-6.5 -14l-3 -4q2 0 7 5q-4 -9 -10 -12v4l-2 -2q-2 -2 -4 -5l-2 -2l-6 -11q0 -2 1 -3l-32 -37q-2 -3 -6 -5.5t-7 -7.5q-1 0 -4 -3q-6 -9 -22.5 -25.5t-33.5 -31.5t-19 -18q4 -20 4 -35v-7q0 -4 -1 -4
q-3 0 -3 -8l2 -8q0 -2 2 -4q1 -5 1 -7v-4l-1 -3q0 -2 -1 -3l1 -11l-3 -6v-5q-1 2 -1 6q-3 0 -3 -11l2 3q0 -1 0.5 -3.5t0.5 -4.5v-5l-3 2q0 -1 1 -3t1 -4q0 -6 -2 -10v-1q0 -2 -2 -18l-6 -23q0 -5 -2.5 -11t-2.5 -9q-5 -16 -5 -17l-1 -2q-1 -2 -1 -3q-3 -5 -3 -6v-1l1 -2
l-3 -5l-1 -3l-1 -4q0 -9 -3 -9q0 -3 -1 -4q-1 0 -6 -10.5t-5 -12.5q-17 -34 -28 -45q0 -3 -3 -5l-12 -14l-4 -3q-1 -2 -9.5 -7t-10.5 -5q-4 -1 -13 -1q-29 0 -43.5 21.5t-14.5 51.5l1 23q0 4 2 11.5t2 12.5v4q8 41 19 84t26.5 87t25 70t27 70t19.5 50l-16 -28q-2 -5 -9 -13
q-3 -10 -12 -19l-11 -16q-5 -3 -6 -10l-4 -5q-2 -2 -21 -29l-16 -16q-17 -17 -29 -18q-1 -1 -6 -1q-10 0 -19 2q-6 2 -10 6q-24 4 -30 42l-2 25q0 6 2 26q4 21 5 22q0 7 15 42t22 38q0 1 1 4l1 3q2 3 6.5 7.5t5.5 6.5q0 9 16 20q1 1 6 10q66 62 108 67q2 0 5.5 0.5t5.5 0.5
q20 0 37 -7q7 3 7 6q18 15 20 21q8 10 38 10q12 0 14.5 -4t2.5 -16q0 -6 -4 -9q-2 -6 -8 -25t-11 -29q-8 -21 -36 -106t-33 -99q1 0 4 3q43 33 109 105q13 13 31.5 35.5t30 36t14.5 13.5l1 -1h2l-9 -11q2 1 4.5 2.5t4.5 3t3 1.5l-5 -10l-12 -17q5 3 11 10q11 11 12 9z
M45 142h2.5t0.5 1q28 30 75.5 104t66.5 98q1 4 3.5 6.5t3.5 6.5l7 9h-14q-14 -1 -42.5 -26.5t-49.5 -58.5l-3 -5q-50 -78 -50 -135zM193 115l-5 -15q-20 -64 -45 -149l-2 -6q-26 -93 -26 -123q0 -11 3 -11q1 0 1 2l1 2l6 9q70 137 70 235v23q0 1 -0.5 5t-0.5 5zM201 152
l9 16q3 8 7.5 21t6.5 19l1 2q1 2 1.5 4t1.5 3q1 0 2 2l1 2v8l17 52zM219 -67l8 46q-1 -1 -3 -8l-3 -7q0 -6 -1 -7q-1 -5 -1.5 -9t-2.5 -9v-8l1 -5q0 1 1 4zM216 -81q-1 0 -4.5 -3.5t-3.5 -4.5l-5 -1q0 -21 -8 -29q7 2 7 12q1 2 3 5t2 4l5 7q0 2 2 5.5t2 4.5zM82 -109
q-3 -4 -3 -13q5 5 5 7q0 1 -0.5 3t-1.5 3zM86 -132v9q-1 -2 -3 -6.5t-3 -7.5l2 1zM296 203q-3 -3 -3 -4l-8 -8q1 0 4.5 3t4.5 3q0 1 7 8q-1 0 -2 -1q-1 0 -3 -1zM163 -170q1 1 1 3v1l-1 2q-2 -2 -2 -3t1 -1q0 -1 1 -2z" />
    <glyph glyph-name="r" unicode="r" horiz-adv-x="198" 
d="M35 73q2 2 2 4q-1 -1 -2 -1h-6q-1 2 -3.5 3t-3.5 2q-6 0 -8 2q-2 0 -4 -1t-5 -1q-5 0 -5 3q-3 0 -3 11q0 3 1 4q0 5 2 11v18q1 4 4 5l1 14q10 49 32.5 127t30.5 113q4 20 4 21q0 2 2 5l3 3q4 6 13 7q1 0 2.5 -0.5l4.5 -1.5t7 -1q14 0 15 -9q7 -7 7 -20v-12q0 -7 -3 -31
q20 26 55 49t57 23q13 0 18 -11q0 -1 0.5 -2t0.5 -2q0 -2 -3 -2q-21 -8 -35 -16q-6 0 -6 -4l-8 -7q-7 0 -7 -6l-23 -25q-2 -2 -5.5 -5t-3.5 -4q-3 -3 -7 -8t-6 -7q0 -2 -3 -2q0 -1 -2 -4t-2 -5q-5 -3 -5 -9l-4 -4q0 -1 -1 -4l-3 -2q0 -1 -1 -2.5t-1 -2.5q1 -1 -2 -2l-3 -1
q0 -1 -0.5 -3t-0.5 -3q-5 -3 -5 -11q-11 -14 -14 -19l-2 2q0 -3 1 -3q0 -3 -3 -3q0 -1 -1 -3v-2v-4q0 -2 -1 -3q-1 0 -1 -3q-2 0 -5 -5q0 4 1 4v3l1 1q-1 0 -1 1l-2 1l1 3q0 1 1 3v2q2 2 2 5q-1 0 -3 -2.5t-3 -5.5l-2 -4q-2 -6 -2 -8q-2 0 -2 -5q0 -1 -1.5 -4.5t-2.5 -6
t-1 -3.5l1 2l2.5 5t3.5 4q2 8 3 8q0 5 2 5q-1 -9 -2 -13l4 3q-1 -4 -5 -6v-5q0 -3 -3 -3q-1 -7 -3 -7l-1 4q-7 -3 -7 -11l-1 -6q3 6 3 11q3 0 3 -2q0 -3 -3 -6v-1q-1 -1 -1 -2q0 -2 2 -2l-2 -2l-7 -12q0 -6 -2 -8v-7q-2 -2 -4 -9q-1 -15 -4 -15l-2 -10q0 -1 -1 -4.5t-1 -7.5
l-1 -3q2 7 3 8q4 0 4 13q3 10 3 12l4 12q0 2 1 4.5t1 3.5q0 2 1.5 4t1.5 3l4 8q0 2 2 8q0 2 4 6l-1 -7q0 -2 -1 -6l-2 -3q-3 -3 -3 -8q1 -1 1 -3v-2l-1 -2l-3 2q0 -2 -3 -5q2 -2 2 -5l1 2q1 1 3 4t3 4q0 -5 -3 -8l-1 -5q-3 -2 -3 -4q0 -3 -1 -4l-6 -13v-9q2 1 2 3q-1 1 -1 3
q0 1 1 3v2q2 0 3 1l1 -3v-3l-1 -3q0 -3 3 -3q0 6 3 6q0 -2 -1.5 -4.5t-1.5 -3.5l-1 -8q-1 -1 -4 -7t-3 -8l-2 4l-3 -4v7q-1 0 -1 -1l-2 -1q0 4 1 5q0 2 2 2q1 4 2 6l3 2q-1 2 -10 -10q0 -5 -3 -7q0 -6 -3 -9l-2 -2q-1 -3 -2 -4v-3zM32 99l2 4q7 9 7 10l2 5q1 0 1 4
q-1 0 -2 -2t-2 -4.5t-2 -3.5q0 -2 -1 -3l-2.5 -2.5t-2.5 -3.5v-4zM38 94q-2 -4 -2 -6q1 -1 4 2q4 4 5 4l2 4q-1 0 -9 -4zM171 366q10 10 12 13q-9 -2 -12 -13zM37 130q0 2 -3 2q-2 -12 -2 -17zM65 185l-3 -1v-1q-1 -1 -1 -2q0 -2 -0.5 -5.5t-0.5 -6.5zM132 323q-1 0 -2 -4
l-1 -3l-4 -4l6 3q0 1 0.5 4t0.5 4zM35 201l3 -1l1 4q-4 0 -4 -3zM143 357q7 6 9 7q-5 0 -5 -3zM145 319q-3 0 -3 2q0 -1 -1 -2l-1 -3z" />
    <glyph glyph-name="s" unicode="s" horiz-adv-x="232" 
d="M6 107q11 18 11 19q0 4 10.5 14.5t15.5 14.5q-1 -2 -6 -7.5t-8.5 -9.5t-3.5 -6q4 5 17 18q2 0 3 1l1 4q0 2 1 3l3 4q15 15 43 35l-4 8q-41 84 -41 131q0 52 47 91t96 39l11 -6h10q15 0 28 -23t13 -37q0 -25 -23 -46l-2 1l-2 1l-2 -2q-1 -3 -4 -5.5t-7 -2.5t-6.5 1.5
t-3.5 2.5l-1 2q-1 0 -2 -2v-2q-11 4 -11 8q0 1 7 25t7 35q-1 7 -5 7h-4q-30 0 -57 -23t-27 -55q0 -27 40 -111q13 8 53.5 30t67 39.5t40.5 33.5q2 0 2 2q0 -12 -15.5 -23.5t-22.5 -13.5q4 0 9 3t12 8.5t13 9.5l-7 -6q-3 0 -3 -4l-4 -2q9 4 11 4t3 -1q-5 -2 -12 -9.5
t-11 -11.5q6 0 15.5 6t11.5 9q0 -3 -2.5 -6t-6 -5.5t-8 -5t-8.5 -4.5t-7.5 -3.5t-5 -2.5t-1.5 -2q-11 0 -20 -16q8 0 13 7l5 6q3 0 26 10q0 -5 -41 -30l-94 -54q6 -16 8 -35q1 -5 1 -14q0 -49 -37 -82.5t-80 -33.5h-6q-21 2 -35.5 12.5t-14.5 25.5q0 19 7 32zM35 78
q4 -3 15 -3q25 1 41.5 22t16.5 47q0 12 -2 18q-19 -13 -45.5 -42t-26.5 -36q0 -4 1 -6zM160 200l-2 -1q11 -34 7 -60q-2 -15 -6 -24l-1 -5q10 18 10 44q0 23 -8 46zM143 231l3 2q-8 14 -12 23q8 -23 9 -25zM134 225l-7 15q0 -2 2 -10zM141 140l-6 -4q0 -3 4 -3q2 2 2 7z
M155 105l-5 -11q2 0 3 4q2 2 2 7zM86 319v8q0 -1 -1.5 -2.5t-1.5 -2.5zM132 88v9q-2 -4 -2 -5q1 -1 2 -4zM140 105l2 5q-5 -8 -5 -13q3 5 3 8z" />
    <glyph glyph-name="t" unicode="t" horiz-adv-x="220" 
d="M130 357q2 15 8 23l3 4v9q1 0 3 1l3 2q-61 -169 -63 -265q0 -9 5 -9q3 0 5 1q44 24 184 206l11 14q2 2 3.5 5t2.5 4l4 4q3 0 6.5 -8t3.5 -14v-5q-3 -5 -6 -6v-12q-2 -4 -5 -6.5t-6 -8.5l-5 -5q-1 -3 -11 -13q-6 -6 -8 -11q-6 -2 -9 -5q2 0 3 1l1 1v-5l-3 -3q-7 0 -7 -4
l4 -1q0 -4 -5 -4q-3 0 -3 -2q0 -1 1 -3q-1 0 -2.5 -2t-3 -4.5t-2.5 -3.5t-4 -6t-5 -5q-1 1 -1 -0.5v-2.5q-5 0 -5 -5l-8 -8q0 -1 -2.5 -4t-3.5 -5q0 -2 -3 -3l-2 -1q0 -3 -2 -3q-2 -7 -4 -7l-2 -1q-4 -2 -4 -4q-1 0 -4 -4q-1 0 -4 -4t-3 -5l-4 -5q-2 -2 -6.5 -8t-7.5 -9
q2 1 5.5 5.5t6.5 4.5l3 3q2 3 3 4q7 7 9 11q0 1 2.5 3t5.5 3l2 2q2 2 4 9q6 3 6 4l1 3l6 9q1 -2 1 -4q2 8 7 11l31 42l2 2q1 3 3 5.5t4 2.5q0 5 4 9q2 1 2.5 3t1.5 3q0 1 10 7l-51 -69q-59 -77 -76 -85q-4 -7 -17 -18l-3 -3q-4 -3 -12 -8.5t-10 -6.5q-3 -1 -7 -4t-9 -4
l-6 -2q-6 -3 -10 -3q-14 0 -19 5q-9 0 -12 3q-7 4 -8 5q-6 3 -11 8q-2 1 -3.5 4t-2.5 3l-4 9q-1 1 -1 4q-2 12 -2 15v6q0 1 -1 4t-1 5t1 3q-1 3 -1 4q1 5 2 6v5q0 4 1 6q-3 3 -3 4q0 2 1.5 5.5t1.5 5.5l1 13l-1 1v2t1 4q0 13 5 23q2 4 4 5l-2 4q0 5 2 11q3 4 3 14v5q1 3 3 8
t3 8q17 70 70 205h-43q-24 0 -33 8q-13 8 -16 15q0 2 -6 5.5t-6 5.5q0 6 4 6q90 0 117 1q22 55 42 108l7 15q3 3 6 3q14 0 19.5 -6.5t6.5 -21.5q0 -2 1.5 -4t3.5 -4l1 -2v-5q-4 -30 -10 -42l-12 -42q4 0 14 -0.5t16 -0.5q47 -2 64 -26q1 -4 1 -8l1 -3q1 -1 1 -3q-1 1 -14 1
h-97q-11 -34 -33 -91l-1 4l27 72q-3 -5 -18 -42t-35.5 -99.5t-30.5 -112.5t-10 -64l-1 -21l4 34q6 43 22.5 103.5t24.5 79.5z" />
    <glyph glyph-name="u" unicode="u" horiz-adv-x="342" 
d="M225 84q-22 0 -40 17.5t-18 48.5v6q2 36 12 73q-22 -42 -52 -78.5t-54 -36.5h-5q-51 11 -58 47v11q-1 3 -1 9q0 53 36 133q13 31 38.5 63.5t37.5 32.5q42 0 42 -13l-2 -5q-76 -138 -84 -226l2 -6q6 1 79 120.5t90 119.5q22 0 32 -13q0 -3 -0.5 -4.5t-0.5 -2.5q0 -2 4 -6
l4 -3q-48 -126 -63 -246v-4q0 -6 3 -6q12 1 65.5 70.5t92.5 126.5l10 15l12 17l3 -6q2 -5 4 -12t2 -9l1 -7l-3 -5q-2 -5 -8 -16t-15 -25.5t-24 -36.5t-33 -47q-26 -35 -57.5 -65.5t-51.5 -30.5zM245 257l17 60q-18 -43 -29 -99l-1 -14zM69 178l2 6l-2 -2q-2 -4 -4 -4
q4 -2 5 -5q0 1 1 2.5t2.5 4.5t2.5 7q-2 -1 -3.5 -4.5t-3.5 -4.5zM287 148q4 1 6 6v7q-1 -1 -6 -13zM76 192q0 4 4 14q-3 -4 -4 -7.5t-1.5 -5t-3.5 -1.5v-4q1 2 5 4zM207 138l-2 9l2 3q-4 0 -4 -8zM200 182l-6 -1q0 -1 2 -2t2 -3q2 2 2 6zM73 168l1 5q-1 0 -1.5 -1.5
t-1.5 -1.5q0 -10 2 -10v8zM204 171q3 9 3 10q-3 -7 -6 -7q1 -3 3 -3zM216 127q0 1 -1 1l-1 2l-1 -7q3 3 3 4zM235 316l-2 -3q-2 0 -2 -3q4 0 4 6z" />
    <glyph glyph-name="v" unicode="v" horiz-adv-x="234" 
d="M29 171h-4q0 -1 -1 -3q0 -4 3 -6l8 -6q0 2 -3 7t-3 8zM163 225q2 2 6 9t5 8l-5 -5q-1 0 -3 -4t-4 -5q0 -1 1 -3zM205 285h4q-35 -93 -83 -171q-1 -1 -3.5 -4.5t-4.5 -5.5q0 -2 -3 -5q-2 -1 -5.5 -5.5t-6.5 -6.5q-10 -7 -26 -7q-5 0 -15 8t-13 9q-30 0 -30 57q1 27 6 57.5
t10.5 51t16.5 57t16 55.5q0 3 6 28l5 28q0 1 0.5 5t1 7t3 5.5t5.5 2.5q30 0 30 -10l3 -1q4 -1 8 -3t5 -5q3 -3 3 -21q0 -24 -3 -39q-7 -45 -33 -134.5t-27 -109.5q0 -2 2 -2t2 -1q10 6 55.5 106t51.5 125q-3 7 -3 19q0 36 27 36q3 0 12 -5.5t10 -5.5q7 -2 7 -21
q0 -14 -5 -29q31 -27 77 -35q1 0 2.5 -0.5t2.5 -1.5l-2 -5q-3 -5 -5.5 -11t-3.5 -9q-2 -6 -12 -6q-34 0 -73 31l-2 -5q-1 -4 -3 -7t-3 -3q-2 -1 -2 -4l-1 -1q2 0 4 2l-3 -8l-4 2q9 18 9 26q0 2 -1 3l-14 -37q-3 -1 -3 -2q0 -8 -8 -24l-2 -4v7q-3 0 -3 -4q-2 0 -2 -4
q0 -1 2 -3q0 -5 -2 -5q0 -2 2 -4l-8 -21q7 14 10 21l11 27l3 2v5z" />
    <glyph glyph-name="w" unicode="w" horiz-adv-x="419" 
d="M376 241q1 2 3 7t4 8l1 -3q0 -2 -2 -5l-2 -3v-3l-1 -2q-9 -32 -22 -53l-2 -4q-31 -60 -41 -72l-2 -1q-1 -1 -1 -2q-2 -4 -13 -10q-7 -7 -20 -7h-12q-26 0 -39.5 26.5t-13.5 55.5l1 14q3 33 29 155q-9 -14 -17 -31t-14.5 -33.5t-8.5 -21.5l-2 -6q-7 -11 -10 -14
q0 -6 -3 -11l-4 -4q-1 0 -4 -3.5t-3 -4.5q0 5 6 9q0 3 -2 5l1 1q1 2 2 2l1 2q1 3 2.5 6.5t2.5 4.5q-5 -3 -10 -16q0 -1 -2 -3l3 1q2 0 -3 -5l-5 -8q0 -1 -0.5 -4t-0.5 -4q0 2 2 2v-5q-2 -3 -6 -13q-3 -2 -3 -7q-24 -45 -29 -53q-1 -3 -6 -8q-3 -5 -5.5 -7t-6 -3t-7.5 -4
q-18 -18 -24 -18q-2 -2 -6 -2h-13q-4 0 -8 2q-1 0 -5.5 2t-9.5 4t-6 2q-12 1 -18.5 16.5t-6.5 34.5v5q0 14 -1 22q5 54 38 155.5t33 107.5l2 14q2 1 2 3q2 4 9 4q2 0 10.5 -3t10.5 -3q2 -1 5.5 -2t5 -1.5t4 -1.5t3.5 -2t3 -2.5t2.5 -3.5t1 -4.5t0.5 -5.5v-17
q-2 -32 -37 -141.5t-38 -142.5q10 3 50 75l15 32q82 163 100 169q2 1 5 1t7.5 -3.5t6.5 -3.5q41 -18 45 -23q10 -12 10 -35v-5q-1 -18 -16 -89.5t-16 -96.5v-13q2 -7 3 -7q2 0 7 7q33 57 82 193l6 19q-2 4 -2 14q0 2 1 5.5t1 4.5q3 23 20 23q8 -1 20.5 -8t12.5 -13
q1 -2 1 -6q0 -7 -4 -18q31 -27 77 -35q1 0 2.5 -0.5t2.5 -1.5l-2 -5q-2 -5 -4.5 -10.5t-3.5 -8.5q-2 -6 -12 -6q-39 0 -73 29q-4 -8 -24 -56l-2 5q4 11 22 53q0 1 -2 3q-3 -7 -29 -72t-43 -96q6 10 44 92zM268 136q0 -6 6 -8q-2 5 -2 6v7l-4 2q-2 0 -2 -3q0 -4 2 -4z
M241 181q-1 -1 -1 -3v-12l3 5v1l-1 1v2q1 1 1 4v6q0 -1 -1 -2t-1 -2zM195 245q3 4 3 10l-8 -16q5 1 5 6zM272 160q1 2 1 8v13l-2 -6l1 -3v-3q-1 -4 -2 -9v-3q0 1 2 3zM269 149l-1 1v3l-5 1l-2 -3q1 -1 4 -1q1 -1 4 -1zM257 182q4 0 4 -3l1 5l1 3l-2 -1zM278 201v5l-1 2l-5 2
q5 -5 6 -9z" />
    <glyph glyph-name="x" unicode="x" horiz-adv-x="244" 
d="M53 418q9 8 30 8q17 0 28 -17l30 -97l27 35q67 82 100 98q2 1 4.5 3.5t5 4t5.5 1.5t8 1.5t7 1.5q4 0 7 -1q4 -12 4 -13q0 -6 -11 -6q-2 -1 -4 -1q1 -4 3 -4h4l-3 -3l-8 -6q-23 -22 -78.5 -90t-55.5 -79q24 -105 58 -148l5 -5q0 -1 -3 -4q-2 -3 -4 -3h-6l3 -1v-5
q-4 1 -6 3q0 1 -3 1q0 -4 -5 -4t-12 -3q-2 -1 -6 -1q-23 0 -31 12q-20 22 -41 90q-51 -76 -64 -84l-9 -6q-3 0 -4 1q-1 4 -1 5h-3q-2 -1 -3 -1t-4 5l-3 5q-3 -6 -9 -6q-2 0 -3 1q-7 0 -15 8q0 4 2 6q15 1 31 26q11 17 29 41t25 35l13 20v4q0 2 -1 3l-28 106q-1 5 -10 27
t-9 29q0 3 4 6t5 3t3 -1zM169 295q0 -1 -1 -1q-2 -1 -3 -2q-2 -2 -2 -4q-2 -2 -2 -4q-1 -1 -1 -3v-4q0 -3 -1 -3l-6 -6l2 -6l7 11q1 1 2 5l1 2l5 1q1 1 1 3q-2 0 -4 2l6 2l5 7l-6 -4q1 2 5 6l10 10l3 6l-3 -4l-4 -2l-6 -6q-2 -5 -8 -6zM167 184l-1 -1v-2q0 -3 1 -4
q3 -3 3 -12q0 -3 1 -3q0 -1 1 -4l1 -2q-2 0 -2 -11q1 0 3 2q5 -5 7 -5l-4 6q1 0 3 -2l1 -2q1 0 4 -4q0 1 -2 4.5t-3 3.5q-3 0 -3 2h3q0 2 1 3q-3 0 -3 1l-1 4l-3 5q-1 1 -1 7l-2 3q-2 4 -2 7q-2 6 -2 10q-1 1 -4 1q4 0 4 -7zM161 89q0 1 -1 3l-2 2l-3 2l-14 22l5 -11
q0 -3 3 -9t5 -7l4 -3q2 0 3 1zM230 360q-7 -6 -20 -21t-14 -16l-1 -6q6 11 16 20zM191 116v7h-5q-1 -1 -1 -4l2 -6q0 -1 3 -7v1q-1 1 -1 2q0 2 2 2q1 -1 1 -4q0 3 3 6l-5 -1q1 1 1 4zM188 127l3 -1l-9 6l-3 -2l3 -2q1 -1 6 -1zM163 288q5 3 9 3l-10 -7zM249 388q2 -1 3 -1
q0 2 3 5q-6 -3 -6 -4z" />
    <glyph glyph-name="y" unicode="y" horiz-adv-x="343" 
d="M208 87q1 6 2 11l-9 -13q-18 -24 -63.5 -115t-47.5 -124q0 -5 3 -5t13 13q42 52 99 222q2 0 2 2l-1 1v2t1 3t1 3zM173 -124q0 -3 5 -3q0 -2 -2 -4t-2 -3l5 4q1 2 6 7q6 9 7 15q4 0 4 13q-1 -1 -4.5 -9.5t-5.5 -10.5l-4 -7l-4 4q-1 0 -3 -2.5t-2 -3.5zM187 115q3 0 3 2
l21 27q6 10 9 10v5q-5 -5 -33 -44zM361 262l-2 -4l24 17q9 5 9 7q-1 0 -3 -1.5t-5 -3l-5 -2.5q-5 -5 -8 -5q-2 0 -3 -1l-1 -2q-1 -3 -3 -3q-1 0 -3 -2zM198 92q2 0 3 2t1 4l1 1l5 5q2 4 5 8q1 1 1 4q-7 -7 -7 -9q0 -1 -2 -3q-1 0 -3.5 -4t-2.5 -5l-9 -12q1 0 1.5 1t1.5 1
q5 5 5 7zM229 37v6q1 2 1 5v5q-6 -1 -7 -1q0 -12 6 -15zM203 -83l4 7q7 5 7 25l-4 -11q-1 -3 -2.5 -8.5t-3.5 -8.5q-1 -1 -1 -4zM226 -15v5q0 -1 -0.5 -2.5t-1.5 -3t-2 -2.5l-1 -2q-1 -2 -1 -3t1.5 -2.5t1.5 -2.5q2 2 3 8v5zM173 55l-3 -2q0 -1 -2 -3.5t-3 -5.5q0 -1 -2 -3
q-1 -1 -1 -3q-3 -2 -3 -4l1 -1v-2q1 3 3.5 7t3.5 6q1 3 6 11zM46 159q0 2 2 6v-6q0 -3 3 -3q0 3 -2 6l1 3q0 2 -3 5q0 -4 -4 -4q1 -1 2 -4q1 -2 1 -3zM244 29l-5 -3q2 -1 2 -6l-2 -5q1 0 1.5 1t2 3t2.5 3q0 6 -1 7zM222 -45q-3 -2 -3.5 -6t-1.5 -4q0 -6 1 -6q4 10 4 16z
M184 -109l1 6l-4 -3q1 -9 3 -9q2 2 2 3q0 3 -2 3zM216 -25l-4 -6l5 -7q0 1 -0.5 5t-0.5 8zM222 -4l-6 -12q6 0 6 12zM82 238q-4 -7 -5 -14q0 2 -1 4v3q0 1 1 2l2.5 2.5zM230 67q0 2 0.5 7t0.5 8q0 -2 -1 -4t-1.5 -3.5t-0.5 -2.5l-1 -2q0 -3 3 -3zM50 153q-4 0 -6 2l3 -4
q3 0 3 -6q0 -2 1 -3q0 -2 3 -3q-4 8 -4 14zM53 170l-1 3q-2 3 -2 5v1q1 1 1 2q-1 -1 -2 -3l-1 -1v-5q1 0 2 -1zM174 100l-5 -3l-1 -3q0 -2 4 -2l-1 4q3 0 3 4zM199 -69l-2 -5l1 -2v-3q2 4 2 6v3zM222 170l-8 -8q7 2 7 5zM185 72q3 0 3 3q0 1 -2 3q0 -1 -0.5 -2.5t-0.5 -3.5z
M55 155q3 24 16 61l6 3q-14 -39 -18 -66l-2 -14l2 -3q9 4 37.5 44.5t72.5 96t86 89.5q5 5 29 5h6q12 0 12 -10q0 -5 -4 -8q0 -3 2.5 -13t2.5 -12q0 -8 -3 -38q0 -23 -4 -35l7 6l5 5q55 52 108 66q2 0 6.5 0.5t7.5 0.5h9q3 -1 3 -2v-1l-1 -2l5 -5q0 -2 -2 -5l-1 -4l1 -1
q0 -1 1 -2q-104 -64 -156 -128q-25 -156 -78.5 -271t-103.5 -116q-5 0 -9.5 1.5t-7 3.5t-8 6t-9.5 7q-29 1 -29 43v4q1 34 20 80t37 74q3 4 14.5 25.5t20.5 30.5q0 10 5 10q23 38 83 106q2 10 6 10q-1 1 -1 5l13 91q-20 -21 -72 -96t-93 -107q-4 -5 -12 -5q-4 0 -8.5 1
t-8.5 2.5t-7.5 2.5t-4.5 2l-2 1q-7 0 -10 3l-4 3q-16 13 -19 35v29q0 32 10.5 72.5t25.5 65.5q0 5 6 13q17 34 28 45q2 5 8.5 13t7.5 9q12 19 38 40t43 21q30 0 30 -10q0 -2 -3 -5q0 -6 -6 -12l-1 -1l-3 -3q-1 0 -3 -5q-60 -77 -97 -165q0 4 1 9t2 9l1 4q22 44 52 91
q4 6 20 29q-18 -18 -44 -62t-35 -69l-11 -29l-4 -9q-2 -6 -2 -7v-5q0 -1 -1 -3q-5 -15 -9 -40l-1 -11q1 1 1 6z" />
    <glyph glyph-name="z" unicode="z" horiz-adv-x="239" 
d="M200 140q1 0 3 1t3 0l2 -4q1 -3 1 -9v-6h-1l-2 1q-2 0 -2 -2q0 -3 -6 -3h-4l-2 -3q-3 -1 -5 -2.5t-4 -1.5q-2 -1 -7.5 -1.5t-7.5 -2.5l-2 -1l-3 -3q-2 1 -3 1l-6 -5l-1 1h-2l-3 -2q-2 0 -3.5 -1t-2.5 -1l-9 -3q-1 0 -5 -1.5t-6 -1.5q-2 -1 -7 -2.5t-11.5 -3t-8.5 -2.5
q-5 0 -5 -2q0 -3 -15 -3q-2 0 -3 1h-26q-2 0 -5 2h5q0 3 3 3q-2 2 -4 3h-1v1q-2 0 -6 -3l-5 -4q-11 4 -15 8q0 3 -6 3q-11 8 -13 17q0 2 -1.5 3t-1.5 3l-2 2q-2 3 -2 5q3 16 4 17q0 6 3 6q6 19 7 20q0 2 3 2t3 -2q2 1 5 4h-5q11 22 90 109q0 1 2.5 3.5l5 5t2.5 1.5q0 4 8 8
q0 7 7 7q2 3 4 5l3 3l9 8l5 5q51 54 57 66q0 1 0.5 3t0.5 3q0 4 -9 4q-32 0 -62 -19q-6 -2 -12 -5q-5 0 -6 -4l-24 -17h-8q-1 0 -3 -1t-3 -1q-3 0 -4.5 2t-2.5 2q-7 0 -10 3l-9 10q-3 0 -5.5 5t-2.5 7q0 5 3.5 9.5t11 9.5t8.5 6q47 30 102 35q3 1 12 1h5q11 0 27.5 -4.5
t21.5 -8.5l7 -7q5 -2 12 -16q3 -4 3 -9v-7q-3 -18 -17 -41.5t-23 -32.5l-5 -5q0 -1 -3.5 -4t-4.5 -6q-2 0 -3.5 -3t-2.5 -3q-10 -7 -10 -10q0 -2 -4 -6l-19 -19l-7 -7t-6 -8q-6 -9 -8 -9q-4 -5 -17.5 -19.5t-26 -27.5t-26 -28t-22 -26t-9.5 -15q5 0 5 -2l6 1q9 6 23 6
q5 0 8 3q53 16 89 18h10q8 0 12 -1q-4 0 -5 -1l-10 -3q-5 -2 -3 -4l-9 -3h9l5 5l4 -2l6 2q1 1 2.5 1h3.5zM151 267q2 0 2 -2l-7 -10l2 1h2q-2 -4 -4 -4l-5 -3l-6 -7q-2 -2 -4 -8q-2 -2 -5 -3l-3 -1q0 -1 -1 -2.5t-2 -3.5l-1 -2q-3 -3 -4 -3q-3 0 -3 -4q0 -1 -2 -2.5t-3 -2.5
l-1 -2l-3 -4q-3 -4 -5 -8l-3 -4l50 53l5 7q2 1 4.5 3.5t5.5 6t5 5.5l1 1q1 1 2.5 3t2.5 3l10 10l5 5l4 4q-3 0 -6 -3q0 -3 -1 -3q-7 0 -7 -1q-2 0 -2 -4q0 -3 1 -3q-2 -1 -5 -1l-3 -6q-3 0 -5 -2.5t-4 -2.5q0 2 -0.5 3t-0.5 2l-9 -6h1q1 1 2 1zM39 151q0 1 3 1l1 2l2.5 2.5
t3.5 1.5q0 1 1 2t1 3q-1 0 -2.5 -2t-2.5 -3h-4q0 -1 -2 -4l-3 -2q-4 -11 -9 -13q6 0 6 1q5 3 5 11zM43 139h-4l1 1q2 1 2 3l-3 -3l-3 -1q-1 0 -2 -1.5t-3 -1.5q0 -2 -1.5 -4t-1.5 -4l3 3q2 1 3.5 4t1.5 4v-8q-2 0 -2 -6q6 9 8 11zM170 114q7 5 7 11l-3 -3q-8 0 -8 -5h4
q0 -2 -3 -3l-2 -1q3 0 5 1zM74 160q0 1 2 3q2 1 2 3q-11 0 -11 -8q2 2 7 2zM180 117q1 2 6 3t6 2l-3 3h-7q-2 -4 -2 -8zM64 167q-6 0 -6 -4q3 3 8 3q6 2 6 7q-3 -3 -6 -3zM26 143q-2 -2 -3.5 -6t-2.5 -6q0 -6 3 -6v8q0 2 1.5 5.5t1.5 4.5zM197 324q-1 0 -4 -3t-5 -3
q0 -1 2 -2t2 -2q0 1 1.5 2t1.5 2q2 2 2 6zM137 267q3 0 3 7l-7 -7h4zM67 155q-2 0 -4 -1.5t-3 -1.5v-4zM49 148q2 2 5.5 5t3.5 2l3 3h-4zM188 130q-4 0 -8 -2h5q3 0 3 2zM9 159q3 3 3 5z" />
    <glyph glyph-name="braceleft" unicode="{" horiz-adv-x="245" 
d="M312 731q-58 -11 -95.5 -48t-37.5 -90q0 -10 1 -15q0 -2 0.5 -6t0.5 -6q10 -96 10 -137q-2 -31 -13.5 -49.5t-42.5 -31.5q50 -24 50 -61q0 -36 -41.5 -121.5t-41.5 -119.5q0 -30 24 -49t55 -19q17 0 34 7l2 -3q9 0 9 -17q0 -14 -18 -20.5t-34 -6.5q-52 0 -94 33.5
t-42 79.5q0 27 10 50q6 16 27 54t34.5 69.5t13.5 51.5t-15 27q-8 5 -27 8.5t-22 6.5q-16 23 -16 38q0 2 3 3l20 12q45 25 53 35q8 13 8 23q0 32 -7 84.5t-7 82.5q0 58 46 104q63 56 116 56q13 0 18 -2t14 -12q5 -3 5 -11z" />
    <glyph glyph-name="bar" unicode="|" horiz-adv-x="283" 
d="M100 80q4 80 10 246t9 226v2l7 133q5 11 15 17q10 5 16 5q2 0 3 -0.5t3 -1t4 -0.5q16 -4 16 -19v-52q2 -16 2 -45v-12q0 -9 -2 -27q0 -26 -2.5 -79.5t-2.5 -65.5l-11 -336q-1 -9 -3.5 -26t-2.5 -20q-5 -2 -5 -10q-2 -8 -5 -10q-4 -2 -8 -9l-17 -7q0 -6 -4 -6l-7 4
q-15 13 -15 75q-1 2 -1 9q0 6 1 9z" />
    <glyph glyph-name="braceright" unicode="}" horiz-adv-x="255" 
d="M42 -17q45 0 73 25t28 69q0 28 -19 87t-19 86q0 22 13 41.5t33 29.5q-20 7 -33 25.5t-13 40.5q0 8 1 12q3 27 28 64q7 12 38.5 53.5t45.5 72t14 65.5q0 18 -10 30.5t-20.5 17t-30.5 11.5l-4 1q-4 1 -6.5 2.5t-2.5 3.5v10q0 16 18 16h4q68 -5 95 -40q18 -26 18 -56
q0 -38 -19.5 -81t-43 -74t-43 -63.5t-19.5 -50.5q0 -22 33 -22q5 0 10.5 0.5t9.5 0.5q20 0 23 -9q3 -8 3 -13q0 -6 -3 -11q-1 -2 -5 -5t-5 -4q-5 -3 -17 -9.5t-18.5 -10.5t-15 -11t-12.5 -15t-4 -18q0 -31 21.5 -92.5t21.5 -94.5q0 -40 -18 -72l-5 -8q-28 -34 -85 -34
q-9 0 -23 2q-12 2 -21 9t-13 13t-3 6z" />
    <glyph glyph-name="asciitilde" unicode="~" horiz-adv-x="405" 
d="M326 255h-5q-29 1 -55 17q-13 7 -36.5 21t-32.5 19q-3 2 -15 6.5t-14 5.5q-3 1 -9 1q-16 0 -32 -10q-35 -27 -60 -52q-9 -9 -17 -9q-11 0 -19 14q-2 2 -5.5 9t-8.5 11q-5 2 -5 9q0 2 2 10q3 18 23 38q46 48 98 49q16 0 46 -8q13 -4 24 -9.5t28.5 -16.5t21.5 -13l42 -19
q3 -1 9 -1q19 0 27 13l30 40l4 4q1 0 5 -4l16 -26v-2l-1 -2q0 -4 7 -9q2 -3 2 -7q0 -2 -2 -10l-13 -29l-14 -18q-15 -22 -41 -22z" />
    <glyph glyph-name="exclamdown" unicode="&#xa1;" horiz-adv-x="215" 
d="M58 99h-8q-17 0 -26 6q-6 7 -6 15q0 4 1 6q5 19 13 48.5t13 48.5l54 193q0 1 8 19q3 5 14 29l11 18q1 1 2 4l1 3q1 2 8 19q0 3 3 3q5 0 5 -3v-9l2 2v3q0 -1 0.5 -3t0.5 -3v-5q1 1 1 4q5 11 7 20q0 -8 -2 -26v-6q2 2 2 3l12 42l6 11q1 0 1 -3q-2 -10 -6.5 -35t-6.5 -39
q-9 -40 -27 -124q-4 -16 -12.5 -49.5t-12.5 -49.5l-20 -87q0 -8 -3 -14q-2 -6 -2 -8q0 -3 1 -5q1 -1 1 -4q0 -7 -7 -10q-21 -9 -28 -14zM168 643q21 0 32 -7q2 -1 6 -5q1 -1 3 -3.5t3.5 -4.5t2.5 -4q1 -4 1 -11v-4q-1 -7 -5 -16q-5 -16 -33 -16q-14 0 -21 8q-14 13 -14 29
q0 9 3 18q7 16 22 16z" />
    <glyph glyph-name="cent" unicode="&#xa2;" horiz-adv-x="318" 
d="M123 69l3 -17l-4 8v1q0 -8 2 -16q0 -1 -1.5 0.5t-3.5 6t-4 10.5t-3.5 16.5t-1.5 22.5q0 26 1 40q0 6 1.5 18t1.5 18q0 3 -1 3l-18 6q-9 6 -11 8q-5 2 -9 9q-12 14 -15 23q-8 13 -11 26q-3 18 -3 35q0 46 15 101q10 45 40.5 94.5t65.5 75.5q2 1 31 11q3 5 5 13
q3 11 7 29.5t6 25.5q3 6 5 14q1 6 7 9l4 4q5 3 7 3q1 0 3 -0.5t3 -0.5q4 0 10 -4t9 -5q2 -2 2 -5q1 0 1 -3q1 2 1 3v-8q1 2 3 2q0 -7 -2 -8q-1 -19 -8 -45q0 -1 -0.5 -2.5t-0.5 -2.5l-3 -15q0 -4 -2 -10q20 -9 32 -21.5t17 -31.5t6 -32.5t1 -39.5v-8q0 -5 -2 -12t-2 -9
q0 -13 -11 -18q-11 -8 -22 -8q-7 0 -18 8q-9 3 -9 17q0 12 2.5 29t2.5 28q0 31 -7 39q-5 0 -5 4q-1 -2 -1 -4q-6 -27 -29 -132.5t-33 -155.5q-1 -1 -1 -3t2 -2l3 1h4q20 4 45 28l4 2q0 -1 -0.5 -2.5t-0.5 -3.5l-2 -6q1 0 4 2l3 1q2 0 3 -1q1 -2 -13 -16q-1 -3 -3.5 -5.5
t-5.5 -5t-4 -4.5q0 -3 2 -3q0 -4 -11 -7q-5 0 -19 -4t-14 -8q-1 -2 -2 -7.5t-1 -6.5q-2 -6 -3.5 -15.5t-2.5 -12.5q-2 -6 -2 -19v-5q0 -2 -2 -3l-2 -4q-1 -3 -1 -10l-3 6v1q0 7 -3 10q-2 -2 -2 -5q0 -4 -2 -4l-3 -1q-6 0 -6 5q0 8 -1 10l-3 -12v8q-2 -2 -3 -2l-2 2l-2 -26
q0 2 -1 4q0 -15 2 -23v-5l-4 4v2q-1 2 -1 6v-7zM105 274q0 -15 1 -22q3 -16 14 -28q5 14 10 41q8 43 55 237q-26 -11 -53 -97t-27 -131zM121 92q0 -6 1 -7q0 6 -1 7z" />
    <glyph glyph-name="sterling" unicode="&#xa3;" horiz-adv-x="351" 
d="M267 211q9 1 19 9q2 1 4 1q3 0 3 -2q2 0 5 0.5t4 0.5q3 -1 3 -2l-1 -1v-2q-2 -2 -2 -4q2 0 3 1q1 0 2 0.5t5 0.5l-2 -4l-21 -20l5 -6q2 1 3 1q1 -1 4 -1l-3 -4q-5 -4 -11 -6.5t-10.5 -3.5t-12 -2t-11.5 -2q-15 -4 -31 -4q-3 0 -9 0.5t-8 0.5q-18 3 -49 7q-5 0 -15.5 2.5
t-15.5 2.5t-11 -2q-8 -1 -24 -9l-5 -3q-6 -3 -10 -8q-5 -7 -13 -11l-6 -2l-3 3q-1 0 -2 -0.5t-2 -0.5q-5 0 -6 3q-1 -1 -2 1q-1 0 -1.5 0.5t-1.5 0.5h-1q-1 -1 -2 -1q-1 3 -4.5 3.5t-5.5 2.5h-6h-5q-8 0 -11 5q0 3 2 7l4 8v4q2 1 15 19q3 6 10.5 22.5t11.5 25.5q1 2 7 19
q4 4 9.5 20t11.5 34.5t7 22.5q-4 -1 -9 -2t-11.5 -2t-9.5 -2q-25 0 -43 8q-8 3 -21 18q-3 3 -3 5q0 4 5 7q12 2 97 15q9 2 10 9q4 10 13.5 42t19 59.5t18.5 39.5q23 31 57 53l20 10h14q1 0 28 -3l34 -8q13 -4 24 -17q9 -12 9 -32v-41q0 -16 -13 -20q-8 -2 -11 -2
q-14 0 -24.5 10.5t-10.5 23.5l-3 21q0 8 -7 12l-3 6q-3 6 -6 6q-5 0 -26 -17q-18 -17 -47 -75l-18 -65q0 -3 2 -3q72 0 110 -21q0 -6 -8 -6q-1 0 -3 -1.5t-4 -1.5q-1 0 -5 2q-2 1 -7 1q-7 0 -11 -1q-10 0 -22 -3q-7 -1 -18 -3.5t-14 -3.5q-22 -5 -23 -5q-8 -1 -10 -8
q-16 -63 -39 -120q0 -4 3 -4q5 1 15 1q15 0 44 -7.5t43 -7.5q26 0 50 6z" />
    <glyph glyph-name="currency" unicode="&#xa4;" horiz-adv-x="345" 
d="M309 480q2 17 4 51q0 2 0.5 6.5t0.5 6.5q0 13 -5 28q-4 8 -5 9h-8q-15 -6 -39 -37q-8 -9 -22 -29l-26 -44l-13 -27q0 -4 2 -4q26 4 36 4h7q4 0 11.5 0.5t11.5 0.5q24 0 41 -6q4 -1 15 -5q14 -10 19 -15q1 -1 3 -6h-6q-1 0 -3 -1h-2l-11 -2q2 0 2 -2q-25 -4 -38 -6
q-4 0 -7.5 -0.5t-8 -1.5t-7.5 -1q-14 0 -19 -6l-3 -2q-3 0 -52 -9q-6 0 -12 -2q-6 0 -8 -7l-9 -29v-1q-1 -1 -1 -2q0 -2 3 -2l53 10q36 6 54 6q11 0 17 -1q7 -1 26 -8q1 0 4 -2.5t5 -3.5q-1 -3 -3 -3h-7q-6 -1 -26 -8q-4 -2 -19 -7l-2 -2q0 -3 -1 -3l-12 -3q-1 0 -3 -2h1
q1 -1 2 -1h9l-3 -2q-2 0 -5.5 -0.5t-5.5 -0.5q-39 -13 -92 -25q-7 -1 -9 -11q-2 -24 -2 -36q0 -21 7.5 -45.5t21.5 -24.5q42 0 118 86q5 8 10 8q6 0 6 -3t1 -3q2 0 6 3t5 3q4 0 6 -1q0 -2 -1 -4q-1 -1 -3 -3.5t-3 -4.5l-2 -8l-7 -14q0 -2 3 -2l-5 -7q-5 -7 -7 -9
q-22 -28 -37 -39q-7 -4 -9 -8q-8 -12 -34 -18q-2 -1 -26 -7q-4 0 -12.5 -2t-10.5 -2q-1 0 -4 0.5t-4 0.5h-2q-2 1 -4 1q-3 -1 -9 -1q-14 0 -31 18q-24 23 -33 77l-2 34q0 3 -2 3l-12 -1q-6 0 -14 2h-7q-8 0 -11 2q-24 4 -32 18q-2 3 -5 16q0 7 7 7q4 0 14 -2h16q10 2 17 3.5
t16 4.5t18 5q2 0 2 3l9 34q0 2 -3 5q-23 2 -31 7q-1 1 -7 3q-9 1 -15 10t-6 18q0 17 8 19q10 2 17 2q5 -1 15 -1t15 1q16 0 29 5q4 0 4 3q84 179 155 200q3 2 5 2q7 -4 24 -7q35 -5 42 -8q39 -23 39 -74q0 -2 -0.5 -6t-0.5 -6q-2 -32 -12 -54l-5 -10q-8 -16 -27 -16h-4
q-8 2 -19 11q-7 3 -9 20z" />
    <glyph glyph-name="yen" unicode="&#xa5;" horiz-adv-x="316" 
d="M179 297l35 -1q34 -2 51 -2h2q2 -1 3 -1q9 -1 13 -11q0 -3 -3 -3q-2 0 -6.5 -0.5t-6.5 -0.5q-4 -1 -10 -2t-11 -2l-10 -2q-1 0 -7 -2t-9 -4q-2 0 -4 -3t-4 -3q0 -2 4 -2q-4 0 -31 -6l-12 -3q-10 -4 -11 -12q-6 -28 -7 -30q-1 -4 -7 -21q-3 -3 -3 -9q-1 -1 -1 -3l-2 3
q0 -1 -0.5 -2t-0.5 -3q-1 1 -1 4q0 -3 -2.5 -10.5t-2.5 -9.5q0 -1 -1 -2v-1v4l-1 2v-10l-3 4q-2 0 -4 -2l-2 -1q-1 0 -1.5 1t-1.5 1q-5 0 -13 -8q-2 1 -2 3q-2 2 -3 2t-4 -4.5t-8 -4.5h-4l-3 16q-2 10 -2 16q0 8 2.5 23t2.5 20q2 16 4 22q0 5 -5 5q-3 0 -7.5 0.5t-8.5 1
t-8 1.5q-22 2 -29 4q-4 1 -8.5 3t-10 5t-8.5 4q-1 3 -6 7t-5 7t3 7q0 2 6 2q10 2 40 4l51 6q3 0 5 2q1 4 1 11q0 3 0.5 10t0.5 10v5q0 1 2 3l1 1q-51 -3 -52 -3q-24 0 -36 4q-18 4 -33 24q-4 4 -4 10q0 5 3 11q0 3 4 3q23 6 37 7h75q5 2 5 7l-21 198q0 6 5 8q14 13 28 13
q4 0 13 -3q10 -3 17.5 -16t9.5 -25q0 -4 2 -31t4 -41q6 -64 7 -71q7 4 26.5 32.5t42.5 64.5t27 41q3 6 11.5 16.5t10.5 13.5q6 6 14 6q2 1 8 1q5 0 5 -2q2 -2 4 -2t4 1t3 1q2 1 4 1v-4q0 -3 -3 -7t-3 -6l2 -4q0 -3 -9 -21l-3 -4q-3 -10 -7 -14q0 -11 -32 -56l-9 -14l-7 -12
q3 3 8 11q5 7 39 58q0 4 4 8q-1 0 -1 -5t-1 -6q-4 -6 -11.5 -19t-13.5 -21q-35 -49 -61 -88l-2 -4q7 0 17.5 -1.5t15.5 -1.5q31 -2 54 -18q9 -4 9 -8q0 -1 -18 -10q-3 -7 -28.5 -12t-41.5 -5l-39 -3q-4 0 -4 -5q-4 -12 -8 -32q0 -4 3 -4z" />
    <glyph glyph-name="brokenbar" unicode="&#xa6;" horiz-adv-x="283" 
d="M117 412q-3 24 -3 47q0 31 7 110.5t8 126.5q10 16 28 18q23 0 31 -24q4 -8 4 -23q0 -6 -1 -18t-1 -16q0 -6 -7 -74.5t-7 -98.5v-16q0 -9 2 -27q0 -2 -5 -2q0 -1 0.5 -6.5t0.5 -7.5q-3 0 -3 2q0 -2 -1 -3q0 -3 -1 -3q-7 -2 -7 -6v-6q-14 -8 -19 -8q-1 0 -1.5 -2t-1.5 -2
h-4q-5 0 -12 17t-7 22zM101 30l-3 20q2 70 12 209l2 30q0 44 29 44q21 0 31 -23q2 -6 2 -15q0 -36 -5 -108.5t-5 -101.5q0 -16 1 -24q0 -4 1 -13.5t1 -14.5q0 -2 -2 -2q-4 0 -4 -2q2 -8 2 -10q-2 0 -6 -4q-5 -2 -5 -7q0 -2 -4.5 -6.5t-6.5 -5.5h-8l-8 -2q-5 -3 -6 -3
q-5 0 -11 15.5t-7 23.5z" />
    <glyph glyph-name="section" unicode="&#xa7;" horiz-adv-x="327" 
d="M0 141q3 33 18 60.5t43 34.5q6 1 16 1h7l1 -1h2q-6 -4 -8 -5q1 -3 2 -4q-17 -46 -17 -62q0 -18 17 -51q6 -10 22 -10q24 0 36.5 20t12.5 45t-12 55q-4 10 -13 27t-12 23l-18 39q-3 8 -12 8q-6 0 -6 3q-5 4 -7 6q-3 21 -3 35q0 28 13.5 56t35.5 39q2 1 7 2.5t7 2.5
q0 7 -11 17.5t-11 15.5q-7 7 -13 24.5t-6 29.5q0 55 50 99l5 4q29 23 52 23q7 0 9 1l7 1q6 1 9 1q23 0 37.5 -1.5t29.5 -13t15 -32.5q0 -9 -1 -13q-3 -25 -9 -45q-3 -16 -18 -17q-3 -1 -9 -1q-10 0 -21 6l-3.5 3.5t-3.5 4.5q-1 1 -1 4t1 4q6 15 6 32q0 6 -2 18q-3 9 -13 18
h-1l-2 1q-6 0 -31 -18q-37 -36 -45 -76q-1 -3 -1 -10q0 -16 8 -27l9 -13.5t11 -15.5q41 -41 54 -67q11 -19 11 -46q-2 -22 -18.5 -40.5t-38.5 -23.5l-15 -2q-2 0 -2 -6q4 -10 18.5 -36t25 -51.5t10.5 -47.5q0 -51 -33 -79l-28 -15q-14 -8 -28 -8q-4 0 -14 2h-27l-42 3h-13
q-4 0 -11.5 4t-9.5 6l-13 27q-2 8 -2 11zM179 388q-1 20 -19 48q-2 3 -3 3q-2 0 -5 -3q-10 -13 -20 -43q-2 -10 -2 -14q0 -16 11 -32q2 -4 6 -4t9 5q22 17 23 40z" />
    <glyph glyph-name="dieresis" unicode="&#xa8;" horiz-adv-x="129" 
d="M13 794q5 3 14 3q11 0 19 -8t8 -18q0 -8 -8 -16t-17 -10q-4 -3 -11 -3q-15 0 -20 14q-2 1 -2 6q0 9 5.5 19t11.5 13zM81 749q0 5 1 7q0 1 -1.5 2t-1.5 2l-1 2v3q0 5 3.5 10.5t6.5 8.5t10 8l6 5h4q12 0 24 -8q1 -4 1 -15q0 -28 -19 -34q-1 0 -3 -0.5t-4 -0.5q-23 0 -26 10
z" />
    <glyph glyph-name="copyright" unicode="&#xa9;" horiz-adv-x="482" 
d="M251 451q3 0 9 -0.5t8 -0.5q36 -3 62 -17q12 -5 18 -24q2 -12 2 -18q0 -3 -0.5 -9.5t-0.5 -9.5l-1 -20q-1 -2 -1 -7l-1 -6q0 -11 -11 -17q-11 -9 -22 -9q-6 -2 -10 -2q-7 0 -20 10v62q0 10 -9 19q-3 1 -7 1t-7 -1q-4 -2 -8 -8.5t-6 -8.5q-19 -31 -32.5 -72.5t-13.5 -74.5
v-22q0 -33 9.5 -46.5t41.5 -13.5q12 0 20 2q2 0 14 6l11 11q2 2 3.5 4t2.5 3l1 1q6 0 6 -16q-2 -3 -5 -9t-5 -8q-1 -2 -6 -5t-6 -5q-4 -6 -18 -11q-26 -13 -48 -13q-16 0 -29 4q-18 7 -31.5 25.5t-13.5 37.5q-5 16 -5 37q-2 16 -2 31q4 62 37.5 131t73.5 69zM451 380
q2 0 2 -13v-15q0 -1 -1.5 -4.5t-1.5 -5.5q0 -3 -8 -48q0 -1 -1 -2.5t-1 -3.5q2 2 5 3l7 35q1 2 1 6q0 1 1 3t2 5.5t1.5 5.5t1.5 4q-2 0 -2 3q0 4 3 7q0 -7 -3 -21t-3 -16q-1 -7 -4.5 -21.5t-4.5 -22.5l-9 -31v-2l1 -1l-2 -4q-1 3 -2 3q0 -6 -3 -9q2 4 2 12l-10 -22
q-3 -7 -10 -21.5t-10 -22.5q0 -9 -11 -22l-30 -49q-3 -4 -9 -11.5t-11 -13.5t-10 -11q-10 -13 -24 -25q-11 -11 -24 -19l-46 -29q-30 -17 -68 -17q-44 0 -87 36l-14 15q-10 12 -11 21q0 2 -3 2q-10 25 -11 30q-14 34 -14 106q0 91 18 142q4 11 13 31.5t11 24.5q0 5 1 8
q0 1 3 10l7 11v4q0 5 3 8q3 1 3 4q4 13 7 16q2 2 3.5 4.5t3 5.5l2.5 5l41 54q24 24 25 24q4 2 7 4q13 11 26 17l27 14q17 5 20 5q1 1 13 3q4 0 4 -3q5 0 13 4q3 3 7 3q2 -2 3 -2l4 2l2 -1h2l-3 -1q0 -3 2 -3h7q4 1 11 1q24 0 49 -17q10 -6 22 -16q13 -9 20 -19l9 -15
q18 -41 22 -45q3 -3 3 -10l3 -6q2 -5 3.5 -11.5t2.5 -8.5q0 -1 1 -7.5t2 -10.5v-4l-1 -4l1 -3v-8v-7q0 -1 -1 -3l-1 -2q-1 1 -1 5q-3 -1 -3 -11v4q-3 -16 -3 -17q0 -11 -1 -17v-4l1 -2q3 1 4.5 8.5t2 14.5t1.5 7zM312 548q-5 0 -11 3q-9 3 -10 3q-12 0 -28 2h-5
q-6 0 -31 -10l-5 -3q-3 -2 -8 -5.5t-8 -6.5l-10 -10q5 5 5 11q-9 -3 -11 -7l-18 -18q-4 -6 -7 -9l18 3v-4q0 -2 -3 -5q-36 -59 -55 -113l-9 -21q-4 -11 -5 -15q0 -1 -1 -4.5t-1 -5.5q-1 -7 -5 -19.5t-5 -16.5v-12q-2 -21 -4 -30q-3 -33 -3 -35q0 -1 3 -58q8 -74 40 -108
q23 -27 54 -27q78 0 140 105q7 10 17.5 29.5t12.5 22.5q0 3 5.5 12.5t6.5 11.5q16 42 20 57q9 39 13 103v5q0 24 -12 74q-5 26 -30.5 59t-49.5 42zM434 430v-10q2 -3 2 -8v-8q-2 -8 -2 -24q0 -3 -0.5 -9.5t-0.5 -10.5q-5 -34 -6 -37q0 1 2.5 4t2.5 5l2 11q0 3 1 11t1 12v2
l1 2q4 4 4 17q0 22 -7.5 64t-16.5 46q5 -16 6 -17q1 -5 3 -14.5t4 -14.5q1 -2 4 -21zM383 531q2 0 2 -2q5 -3 5 -5q0 -1 -0.5 -1.5t-0.5 -1.5q3 -2 13 -16q-6 25 -26 34l-13 7q9 -8 9 -9q9 -3 11 -6zM412 518l-2 3q-6 11 -12 18l-9 10q-1 -1 -1 -3q0 -3 3.5 -6.5t8.5 -7.5
l5 -5q2 -5 7 -9zM364 566l15 -10q-9 12 -27 19q0 -3 6 -6zM426 252q-4 -2 -7 -12t-4 -12q4 3 4 6l3 9t4 9z" />
    <glyph glyph-name="guillemotleft" unicode="&#xab;" horiz-adv-x="343" 
d="M297 428q5 3 12 3q0 -2 3 -6.5t5 -3.5q5 -1 5 -7q0 -11 -19 -28.5t-63 -48.5l-43 -31q8 -5 27 -18t29 -20.5t23 -19.5t19 -24t6 -25q0 -10 -21 -10q-26 3 -81.5 49.5t-55.5 59.5q0 17 14 32t36 31t30 25q7 12 30 31.5t35 19.5q4 0 5.5 -1.5t2 -4t1.5 -3.5zM174 428
q8 3 10 3q3 0 4.5 -5t5.5 -5q5 -1 5 -8t-8.5 -17t-24.5 -22.5t-30.5 -23.5t-33.5 -24.5t-28 -19.5q6 -4 23 -15.5t24.5 -16.5t20.5 -16t19.5 -19t11.5 -18.5t5 -21.5q0 -10 -21 -10q-25 4 -81 50.5t-56 58.5q0 17 14 32t36 31t30 25q7 12 30 31.5t35 19.5q4 0 5.5 -1.5t2 -4
t1.5 -3.5z" />
    <glyph glyph-name="registered" unicode="&#xae;" horiz-adv-x="482" 
d="M451 380q2 0 2 -13v-15q0 -1 -1.5 -4.5t-1.5 -5.5q0 -3 -8 -48q0 -1 -1 -2.5t-1 -3.5q2 2 5 3l7 35q1 2 1 6q0 1 1 3t2 5.5t1.5 5.5t1.5 4q-2 0 -2 3q0 4 3 7q0 -7 -3 -21t-3 -16q-1 -7 -4.5 -21.5t-4.5 -22.5l-9 -31v-2l1 -1l-2 -4q-1 3 -2 3q0 -6 -3 -9q2 4 2 12
l-10 -22q-3 -7 -10 -21.5t-10 -22.5q0 -9 -11 -22l-30 -49q-3 -4 -9 -11.5t-11 -13.5t-10 -11q-10 -13 -24 -25q-11 -11 -24 -19l-46 -29q-30 -17 -68 -17q-44 0 -87 36l-14 15q-10 12 -11 21q0 2 -3 2q-10 25 -11 30q-14 34 -14 106q0 91 18 142q4 11 13 31.5t11 24.5
q0 5 1 8q0 1 3 10l7 11v4q0 5 3 8q3 1 3 4q4 13 7 16q2 2 3.5 4.5t3 5.5l2.5 5l41 54q24 24 25 24q4 2 7 4q13 11 26 17l27 14q17 5 20 5q1 1 13 3q4 0 4 -3q5 0 13 4q3 3 7 3q2 -2 3 -2l4 2l2 -1h2l-3 -1q0 -3 2 -3h7q4 1 11 1q24 0 49 -17q10 -6 22 -16q13 -9 20 -19
l9 -15q18 -41 22 -45q3 -3 3 -10l3 -6q2 -5 3.5 -11.5t2.5 -8.5q0 -1 1 -7.5t2 -10.5v-4l-1 -4l1 -3v-8v-7q0 -1 -1 -3l-1 -2q-1 1 -1 5q-3 -1 -3 -11v4q-3 -16 -3 -17q0 -11 -1 -17v-4l1 -2q3 1 4.5 8.5t2 14.5t1.5 7zM312 548q-5 0 -11 3q-9 3 -10 3q-12 0 -28 2h-5
q-6 0 -31 -10l-5 -3q-3 -2 -8 -5.5t-8 -6.5l-10 -10q5 5 5 11q-9 -3 -11 -7l-18 -18q-4 -6 -7 -9l18 3v-4q0 -2 -3 -5q-36 -59 -55 -113l-9 -21q-4 -11 -5 -15q0 -1 -1 -4.5t-1 -5.5q-1 -7 -5 -19.5t-5 -16.5v-12q-2 -21 -4 -30q-3 -33 -3 -35q0 -1 3 -58q8 -74 40 -108
q23 -27 54 -27q78 0 140 105q7 10 17.5 29.5t12.5 22.5q0 3 5.5 12.5t6.5 11.5q16 42 20 57q9 39 13 103v5q0 24 -12 74q-5 26 -30.5 59t-49.5 42zM434 430v-10q2 -3 2 -8v-8q-2 -8 -2 -24q0 -3 -0.5 -9.5t-0.5 -10.5q-5 -34 -6 -37q0 1 2.5 4t2.5 5l2 11q0 3 1 11t1 12v2
l1 2q4 4 4 22q0 21 -7.5 61t-16.5 44q5 -16 6 -17q1 -5 3 -14.5t4 -14.5q1 -2 4 -21zM383 531q2 0 2 -2q5 -3 5 -5q0 -1 -0.5 -1.5t-0.5 -1.5q3 -2 13 -16q-6 25 -26 34l-13 7q9 -8 9 -9q9 -3 11 -6zM412 518l-2 3q-6 11 -12 18l-9 10q-1 -1 -1 -3q0 -3 3.5 -6.5t8.5 -7.5
l5 -5q2 -5 7 -9zM364 566l15 -10q-9 12 -27 19q0 -3 6 -6zM426 252q-4 -2 -7 -12t-4 -12q4 3 4 6l3 9t4 9zM244 475q14 6 27 6q16 0 32 -10l19 -11q10 -4 19 -19q0 -6 5.5 -21t5.5 -23q-2 -18 -7 -34q-5 -8 -10 -24q-6 -12 -10 -14q-2 -2 -4.5 -7t-5.5 -7q-3 -7 -11 -13
q-13 -14 -33 -31q-2 -2 -21 -13q-3 -2 -3 -6q19 -41 58 -75q3 -3 22 -14q0 -1 1.5 -2.5t1.5 -2.5q0 -2 -3 -2q-7 -3 -21 -3h-16q-27 1 -48 24q-5 4 -27 26l-5 4q-1 -2 -1 -6q-4 -24 -13 -58q0 -1 -0.5 -2t-0.5 -2q0 -2 -1 -5l-1 -2q0 -16 -17 -20q-6 -2 -11 -2q-9 0 -17 6
q-12 8 -12 20v10q13 298 108 333zM297 427v7q0 8 -4 8l-6 -2q-48 -30 -65 -135q21 0 45 37q30 41 30 85z" />
    <glyph glyph-name="macron" unicode="&#xaf;" horiz-adv-x="182" 
d="M29 771l76 -1h-8h23q20 -2 27 -6t9 -8q1 -2 11 -12q-1 0 -3 -1q5 0 5 -5q0 -4 1 -5l-15 3l2 -3l-31 -2h-14q-1 0 -17 -1.5t-24 -1.5q-18 0 -31 4q-12 1 -20 12q-7 13 -8 18q0 4 1 5q0 4 16 4z" />
    <glyph glyph-name="degree" unicode="&#xb0;" horiz-adv-x="257" 
d="M281 600l1 4q1 3 3 4q-3 -34 -48.5 -63t-82.5 -29q-43 0 -68.5 24.5t-25.5 74.5q0 45 37.5 79.5t84.5 34.5h15q45 0 45 -20l-2 -3q-1 -4 -2.5 -7t-0.5 -3t3 -3l2 -1q0 1 -0.5 2.5t-0.5 3.5q2 -3 9.5 -14t10 -14.5t8 -13t7.5 -15.5t4 -14t2 -16q0 -1 -0.5 -5t-0.5 -6z
M173 563q30 0 45 14t15 36q0 40 -34 79q-37 -15 -54.5 -34.5t-17.5 -57.5q6 -37 46 -37z" />
    <glyph glyph-name="acute" unicode="&#xb4;" horiz-adv-x="97" 
d="M66 822q8 0 13 -7q11 0 11 -19v-2l-1 -2q-5 -21 -17 -38q-1 -1 -3 -4t-4 -5l-11 -9q-2 0 -4 -3q-3 -6 -9 -11l1 5l-7 -11l-1 2q-2 2 -4 2l-4 -6l-12 -9q3 7 3 12t10 34l22 59l1 1v2q1 9 16 9z" />
    <glyph glyph-name="paragraph" unicode="&#xb6;" horiz-adv-x="275" 
d="M194 336l3 -3l-9 -7l-4 -3q0 6 -7 6q0 -2 -1 -3l-1 -1q0 -1 2 -2t2 -3q-3 2 -4 3q-2 -1 -2 -5q-13 6 -13 18q0 2 1 8.5t1 7.5q6 32 11 48q2 12 8 35t7 29l25 100q2 10 13 48q0 5 3 8q0 4 -6 8h-15q-4 -16 -17.5 -65t-17.5 -64q0 -2 1 -3l3 -4q3 -3 3 -8q0 -8 -6 -11
l-7 -5l-4 -6l-1 -2v-2q0 -2 -8 -33t-16 -71l-6 -21l-5 -5q-2 0 -2 -2l-3 2l-3 1q0 -3 1 -3v-1q-1 -1 -1 -2q-2 0 -3 -1l-2 2t-3 2l1 -3q-4 -4 -7 -4q-7 1 -9 6q-3 3 -3 8v12v7q0 23 10 65l11 46q-10 1 -16 1q-21 0 -37 4q-8 0 -22.5 8.5t-21.5 17.5q-10 14 -10 31
q0 42 31.5 77.5t75.5 56.5q33 15 78 15q34 0 46 -6q7 -3 14 -13t11 -13l9 -4q8 -8 8 -13q0 -1 -2 -7l-64 -254q-4 -2 -5 -2l-5 -10v-2l-1 -1v-4q-3 0 -3 -6q-1 -1 -1 -3q-2 0 -2 3q0 2 1.5 6.5t1.5 6.5l-1 -2q-1 -2 -1 -4q-2 -1 -2 -4zM153 620q-38 -11 -65.5 -36t-34.5 -53
v-4q0 -11 10 -17t22 -6q4 -1 13 -1h23q3 0 3 3q14 47 31 108q1 1 1 4q0 2 -3 2z" />
    <glyph glyph-name="periodcentered" unicode="&#xb7;" horiz-adv-x="201" 
d="M98 265l7 2q3 -1 9 -2t9 -2l7 -11q1 -4 1 -12q0 -18 -8 -29q-3 -6 -8 -7l-18 -9q-2 -1 -7 -1q-12 0 -22 9t-10 22q3 40 40 40z" />
    <glyph glyph-name="cedilla" unicode="&#xb8;" horiz-adv-x="145" 
d="M78 -13q-16 3 -17 3q-6 2 -10 5q-11 7 -21 11l-10 5q1 2 9 2h5q5 0 19 -2h7q4 0 18 4q7 1 12 10t5 17t-5 11q-4 3 -14 3q-16 0 -22 10q-1 2 -1 6q0 3 2 5q18 13 45 49q6 7 18 7q18 0 18 -12q-2 -11 -17 -31q-5 -4 -5 -7l6 -6q17 -8 20 -27v-5q0 -18 -13.5 -35t-31.5 -20
q-3 -1 -9.5 -2t-7.5 -1z" />
    <glyph glyph-name="guillemotright" unicode="&#xbb;" horiz-adv-x="343" 
d="M45 204q-5 -3 -12 -3q0 2 -3 6.5t-5 3.5q-5 1 -5 7q0 11 19 28.5t63 48.5l43 31q-8 5 -27 18t-29 20.5t-23 19.5t-19 24t-6 25q0 10 21 10q26 -3 81.5 -49.5t55.5 -59.5q0 -17 -14 -32t-36 -31t-30 -25q-7 -12 -30 -31.5t-35 -19.5q-4 0 -5.5 1.5t-2 4t-1.5 3.5zM168 204
q-8 -3 -10 -3q-3 0 -4.5 5t-5.5 5q-5 1 -5 8t8.5 17t24.5 22.5t30.5 23.5t33.5 24.5t28 19.5q-6 4 -23 15.5t-24.5 16.5t-20.5 16t-19.5 19t-11.5 18.5t-5 21.5q0 10 21 10q25 -4 81 -50.5t56 -58.5q0 -17 -14 -32t-36 -31t-30 -25q-7 -12 -30 -31.5t-35 -19.5
q-4 0 -5.5 1.5t-2 4t-1.5 3.5z" />
    <glyph glyph-name="questiondown" unicode="&#xbf;" horiz-adv-x="320" 
d="M157 96q-38 0 -65 23q-30 21 -30 57q0 21 16 46q6 10 58 81t80 122t28 86q0 6 -2 18v8h7l10 -5t12 -4q3 0 5.5 -1t4 -1.5t3 -2.5t1.5 -3t1 -4l2 -4q4 -5 6.5 -17t3.5 -15q1 -4 1 -13q0 -54 -51 -127q-44 -63 -112 -153q-14 -17 -20 -36v-4q0 -6 8 -7q31 0 90 21
q10 7 11 8q7 5 14 5q9 0 15 -8t6 -17q0 -1 -0.5 -4t-0.5 -4q-3 -11 -21 -21q-24 -24 -81 -24zM279 648l27 -9q8 -5 11 -14q1 -1 2.5 -3t3 -4.5t2.5 -3.5q6 -10 6 -22q0 -8 -11 -13q-10 0 -18 3l-3 3q-12 6 -16 11q-3 3 -16 18q-2 1 -7 11q0 23 19 23z" />
    <glyph glyph-name="Agrave" unicode="&#xc0;" horiz-adv-x="484" 
d="M381 868q1 1 2 4l1 3q0 5 4 6l19 5q3 0 4 -3q17 -23 24 -49l8 -32q0 -4 2 -10t2 -7q0 -6 -7 -6q-3 0 -5 2q-3 0 -3 2q-3 0 -3 -1l-2 -4q-2 0 -2 2l-2 6l-1 -1v-2l-5 2q-1 0 -1 1l-1 2q-8 2 -11 10q-5 6 -11 20l-8 24q0 14 -4 26zM361 60l6 11q0 1 -6 -3l-2 -3l-18 -60
l-7 -11l-5 12l-2 -4l-3 -1q0 -1 -1.5 -4l-2.5 -5l-1 -2h4q2 0 2 -3q-2 -2 -2 -4t-2 -2q0 3 -5 3l-6 -2l-2 -2l-2 -1q0 -2 2 -3q0 -2 -3 -2l-2 -4q0 -2 -6 -2q-11 0 -11 7l-5 14q0 7 1 10q7 24 45 158.5t57 203.5q-79 -10 -172 -34q-69 -184 -101 -298q-10 -31 -29 -31
q-20 -10 -24 -10q-2 0 -6.5 4t-11.5 4q-13 0 -13 12q0 3 1.5 9t1.5 8l6 14q18 66 71 206l21 56q-51 -18 -79 -35q-2 -1 -7 -6q-10 -5 -18 -5q-1 -4 -6 -4q-6 0 -6 4l3 1q-11 3 -24 21l-1 2l-3 3q0 2 -0.5 6t-0.5 6q2 4 2 8q20 29 166 67q90 220 192 325q19 19 46 35.5
t47 16.5t33 -20q0 -5 9 -9q13 -9 17 -29q2 -28 2 -43q0 -87 -35 -230h42q25 0 32 -14q4 -6 7 -9.5t4 -4.5l2 -1q-1 -4 -5 -6.5t-8 -3.5t-9.5 -1.5t-6.5 -0.5l-70 -5q-9 -39 -29.5 -111t-27.5 -100l-3 -15q-5 -21 -7 -28q-6 -12 -6 -17q-4 -10 -4 -15q-6 -9 -8 -25
q-2 -8 -7 -20.5t-6 -18.5l-6 -10q-2 0 -2 7q1 5 3 11.5t2 7.5l1 3zM441 699q-99 -62 -204 -311q65 13 91 15h10q1 0 2.5 1t2.5 1q49 6 53 6q44 172 49 266l1 17q-1 3 -5 5zM400 209q-6 -14 -6 -25l-1 -2l-1 -2q3 0 3 2q2 4 2 7l20 71q-8 -16 -8 -21q-3 -3 -3 -8q-2 -2 -2 -5
q0 -1 -4 -17zM314 6l8 16q0 1 -3 1q-1 0 -6 -6.5t-5 -8.5l-1 -3q2 0 3 4l3 4q0 -3 1 -7zM372 85q2 15 4 22q0 3 1.5 9t1.5 11q-13 -45 -14 -48q4 6 7 6zM390 151q0 4 1 5q-2 0 -3 1l2 7q2 7 3 11l-3 -4v-1l-4 -15q0 -1 -1 -5t-1 -6l1 -3q0 5 5 10zM320 7q-4 0 -7 -5
q0 -5 4 -5q2 0 2 2q3 1 3 5q0 1 -2 3zM423 326q-1 -8 -4 -12q4 -1 9 21l-3 -4q-2 -4 -2 -5zM453 431q1 1 1 8q-7 -7 -7 -9l-1 -6l2.5 2.5l3.5 3.5zM320 31l4 -3v5q0 4 -4 6q-1 -1 -1 -4l-4 -2l3 -1q2 0 2 -1zM353 148l-2 -10l-1 -1v-2v-4q0 -3 1 -3l4 20q0 2 -1 5
q0 -4 -1 -5zM426 288l-3 -3q-1 -3 -2 -6.5t-1 -4.5l1 -3q1 0 5 17zM302 7q0 -9 -4 -13q0 -2 2 -4l3 11q0 4 -1 6zM344 41v-8q0 -5 1 -6q0 2 0.5 4t0.5 3v9q0 -2 -2 -2zM483 546v-4l4 3l-1 3q-3 0 -3 -2zM477 543l1 -3l2 2l1 2l-1 3q-3 0 -3 -4zM324 58q0 2 -1 4q-2 -2 -2 -4
v-4q3 3 3 4zM397 164q-4 0 -4 -4l-2 -5q5 7 6 9zM471 511l-4 -1v-4q3 0 3 2zM440 354q-1 0 -2 -2l-1 -3q0 -1 1 -2v-1q2 2 2 8zM315 64l-2 -11q2 0 2 4v7zM390 226q0 -3 -2 -9q3 3 3 6q0 1 -1 3zM387 136q0 -4 1 -4l2 6z" />
    <glyph glyph-name="Aacute" unicode="&#xc1;" horiz-adv-x="484" 
d="M461 886q8 0 13 -7q11 0 11 -19l-1 -2v-2q-5 -21 -17 -38q-1 -1 -3 -4t-4 -5l-11 -9q-3 0 -4 -3q-3 -6 -9 -11l1 5l-7 -11l-2 2q-1 2 -3 2l-4 -6l-12 -9q3 7 3 12t10 34l22 59v1q1 1 1 2q1 9 16 9zM361 60l6 11q0 1 -6 -3l-2 -3l-18 -60l-7 -11l-5 12l-2 -4l-3 -1
q0 -1 -1.5 -4l-2.5 -5l-1 -2h4q2 0 2 -3q-2 -2 -2 -4t-2 -2q0 3 -5 3l-6 -2l-2 -2l-2 -1q0 -2 2 -3q0 -2 -3 -2l-2 -4q0 -2 -6 -2q-11 0 -11 7l-5 14q0 7 1 10q7 24 45 158.5t57 203.5q-79 -10 -172 -34q-69 -184 -101 -298q-10 -31 -29 -31q-20 -10 -24 -10q-2 0 -6.5 4
t-11.5 4q-13 0 -13 12q0 3 1.5 9t1.5 8l6 14q18 66 71 206l21 56q-51 -18 -79 -35q-2 -1 -7 -6q-10 -5 -18 -5q-1 -4 -6 -4q-6 0 -6 4l3 1q-11 3 -24 21l-1 2l-3 3q0 2 -0.5 6t-0.5 6q2 4 2 8q20 29 166 67q90 220 192 325q19 19 46 35.5t47 16.5t33 -20q0 -5 9 -9
q13 -9 17 -29q2 -28 2 -43q0 -87 -35 -230h42q25 0 32 -14q4 -6 7 -9.5t4 -4.5l2 -1q-1 -4 -5 -6.5t-8 -3.5t-9.5 -1.5t-6.5 -0.5l-70 -5q-9 -39 -29.5 -111t-27.5 -100l-3 -15q-5 -21 -7 -28q-6 -12 -6 -17q-4 -10 -4 -15q-6 -9 -8 -25q-2 -8 -7 -20.5t-6 -18.5l-6 -10
q-2 0 -2 7q1 5 3 11.5t2 7.5l1 3zM441 699q-99 -62 -204 -311q65 13 91 15h10q1 0 2.5 1t2.5 1q49 6 53 6q44 172 49 266l1 17q-1 3 -5 5zM400 209q-6 -14 -6 -25l-1 -2l-1 -2q3 0 3 2q2 4 2 7l20 71q-8 -16 -8 -21q-3 -3 -3 -8q-2 -2 -2 -5q0 -1 -4 -17zM314 6l8 16
q0 1 -3 1q-1 0 -6 -6.5t-5 -8.5l-1 -3q2 0 3 4l3 4q0 -3 1 -7zM372 85q2 15 4 22q0 3 1.5 9t1.5 11q-13 -45 -14 -48q4 6 7 6zM390 151q0 4 1 5q-2 0 -3 1l2 7q2 7 3 11l-3 -4v-1l-4 -15q0 -1 -1 -5t-1 -6l1 -3q0 5 5 10zM320 7q-4 0 -7 -5q0 -5 4 -5q2 0 2 2q3 1 3 5
q0 1 -2 3zM423 326q-1 -8 -4 -12q4 -1 9 21l-3 -4q-2 -4 -2 -5zM453 431q1 1 1 8q-7 -7 -7 -9l-1 -6l2.5 2.5l3.5 3.5zM320 31l4 -3v5q0 4 -4 6q-1 -1 -1 -4l-4 -2l3 -1q2 0 2 -1zM353 148l-2 -10l-1 -1v-2v-4q0 -3 1 -3l4 20q0 2 -1 5q0 -4 -1 -5zM426 288l-3 -3
q-1 -3 -2 -6.5t-1 -4.5l1 -3q1 0 5 17zM302 7q0 -9 -4 -13q0 -2 2 -4l3 11q0 4 -1 6zM344 41v-8q0 -5 1 -6q0 2 0.5 4t0.5 3v9q0 -2 -2 -2zM483 546v-4l4 3l-1 3q-3 0 -3 -2zM477 543l1 -3l2 2l1 2l-1 3q-3 0 -3 -4zM324 58q0 2 -1 4q-2 -2 -2 -4v-4q3 3 3 4zM397 164
q-4 0 -4 -4l-2 -5q5 7 6 9zM471 511l-4 -1v-4q3 0 3 2zM440 354q-1 0 -2 -2l-1 -3q0 -1 1 -2v-1q2 2 2 8zM315 64l-2 -11q2 0 2 4v7zM390 226q0 -3 -2 -9q3 3 3 6q0 1 -1 3zM387 136q0 -4 1 -4l2 6z" />
    <glyph glyph-name="Acircumflex" unicode="&#xc2;" horiz-adv-x="484" 
d="M361 60l6 11q0 1 -6 -3l-2 -3l-18 -60l-7 -11l-5 12l-2 -4l-3 -1q0 -1 -1.5 -4l-2.5 -5l-1 -2h4q2 0 2 -3q-2 -2 -2 -4t-2 -2q0 3 -5 3l-6 -2l-2 -2l-2 -1q0 -2 2 -3q0 -2 -3 -2l-2 -4q0 -2 -6 -2q-11 0 -11 7l-5 14q0 7 1 10q7 24 45 158.5t57 203.5q-79 -10 -172 -34
q-69 -184 -101 -298q-10 -31 -29 -31q-20 -10 -24 -10q-2 0 -6.5 4t-11.5 4q-13 0 -13 12q0 3 1.5 9t1.5 8l6 14q18 66 71 206l21 56q-51 -18 -79 -35q-2 -1 -7 -6q-10 -5 -18 -5q-1 -4 -6 -4q-6 0 -6 4l3 1q-11 3 -24 21l-1 2l-3 3q0 2 -0.5 6t-0.5 6q2 4 2 8q20 29 166 67
q90 220 192 325q19 19 46 35.5t47 16.5t33 -20q0 -5 9 -9q13 -9 17 -29q2 -28 2 -43q0 -87 -35 -230h42q25 0 32 -14q4 -6 7 -9.5t4 -4.5l2 -1q-1 -4 -5 -6.5t-8 -3.5t-9.5 -1.5t-6.5 -0.5l-70 -5q-9 -39 -29.5 -111t-27.5 -100l-3 -15q-5 -21 -7 -28q-6 -12 -6 -17
q-4 -10 -4 -15q-6 -9 -8 -25q-2 -8 -7 -20.5t-6 -18.5l-6 -10q-2 0 -2 7q1 5 3 11.5t2 7.5l1 3zM441 699q-99 -62 -204 -311q65 13 91 15h10q1 0 2.5 1t2.5 1q49 6 53 6q44 172 49 266l1 17q-1 3 -5 5zM400 209q-6 -14 -6 -25l-1 -2l-1 -2q3 0 3 2q2 4 2 7l20 71
q-8 -16 -8 -21q-3 -3 -3 -8q-2 -2 -2 -5q0 -1 -4 -17zM314 6l8 16q0 1 -3 1q-1 0 -6 -6.5t-5 -8.5l-1 -3q2 0 3 4l3 4q0 -3 1 -7zM372 85q2 15 4 22q0 3 1.5 9t1.5 11q-13 -45 -14 -48q4 6 7 6zM390 151q0 4 1 5q-2 0 -3 1l2 7q2 7 3 11l-3 -4v-1l-4 -15q0 -1 -1 -5t-1 -6
l1 -3q0 5 5 10zM320 7q-4 0 -7 -5q0 -5 4 -5q2 0 2 2q3 1 3 5q0 1 -2 3zM423 326q-1 -8 -4 -12q4 -1 9 21l-3 -4q-2 -4 -2 -5zM453 431q1 1 1 8q-7 -7 -7 -9l-1 -6l2.5 2.5l3.5 3.5zM320 31l4 -3v5q0 4 -4 6q-1 -1 -1 -4l-4 -2l3 -1q2 0 2 -1zM353 148l-2 -10l-1 -1v-2v-4
q0 -3 1 -3l4 20q0 2 -1 5q0 -4 -1 -5zM426 288l-3 -3q-1 -3 -2 -6.5t-1 -4.5l1 -3q1 0 5 17zM302 7q0 -9 -4 -13q0 -2 2 -4l3 11q0 4 -1 6zM344 41v-8q0 -5 1 -6q0 2 0.5 4t0.5 3v9q0 -2 -2 -2zM483 546v-4l4 3l-1 3q-3 0 -3 -2zM477 543l1 -3l2 2l1 2l-1 3q-3 0 -3 -4z
M324 58q0 2 -1 4q-2 -2 -2 -4v-4q3 3 3 4zM397 164q-4 0 -4 -4l-2 -5q5 7 6 9zM471 511l-4 -1v-4q3 0 3 2zM440 354q-1 0 -2 -2l-1 -3q0 -1 1 -2v-1q2 2 2 8zM315 64l-2 -11q2 0 2 4v7zM390 226q0 -3 -2 -9q3 3 3 6q0 1 -1 3zM387 136q0 -4 1 -4l2 6zM446 864q6 0 8 -2
l13 -13q1 -3 8 -13t9 -13q5 -10 7 -15q1 -2 1 -5q0 -1 -0.5 -3t-0.5 -4q0 -4 1 -5q2 -2 2 -6v-4q-1 -3 -6 -8l-5 -5l-40 46q0 1 -1 3q-1 4 -2 4l-46 -46q-2 -2 -11 -2q-9 3 -13 15q-1 2 -1 5q1 6 8 16q5 7 37 36q14 19 32 19z" />
    <glyph glyph-name="Atilde" unicode="&#xc3;" horiz-adv-x="484" 
d="M361 60l6 11q0 1 -6 -3l-2 -3l-18 -60l-7 -11l-5 12l-2 -4l-3 -1q0 -1 -1.5 -4l-2.5 -5l-1 -2h4q2 0 2 -3q-2 -2 -2 -4t-2 -2q0 3 -5 3l-6 -2l-2 -2l-2 -1q0 -2 2 -3q0 -2 -3 -2l-2 -4q0 -2 -6 -2q-11 0 -11 7l-5 14q0 7 1 10q7 24 45 158.5t57 203.5q-79 -10 -172 -34
q-69 -184 -101 -298q-10 -31 -29 -31q-20 -10 -24 -10q-2 0 -6.5 4t-11.5 4q-13 0 -13 12q0 3 1.5 9t1.5 8l6 14q18 66 71 206l21 56q-51 -18 -79 -35q-2 -1 -7 -6q-10 -5 -18 -5q-1 -4 -6 -4q-6 0 -6 4l3 1q-11 3 -24 21l-1 2l-3 3q0 2 -0.5 6t-0.5 6q2 4 2 8q20 29 166 67
q90 220 192 325q19 19 46 35.5t47 16.5t33 -20q0 -5 9 -9q13 -9 17 -29q2 -28 2 -43q0 -87 -35 -230h42q25 0 32 -14q4 -6 7 -9.5t4 -4.5l2 -1q-1 -4 -5 -6.5t-8 -3.5t-9.5 -1.5t-6.5 -0.5l-70 -5q-9 -39 -29.5 -111t-27.5 -100l-3 -15q-5 -21 -7 -28q-6 -12 -6 -17
q-4 -10 -4 -15q-6 -9 -8 -25q-2 -8 -7 -20.5t-6 -18.5l-6 -10q-2 0 -2 7q1 5 3 11.5t2 7.5l1 3zM441 699q-99 -62 -204 -311q65 13 91 15h10q1 0 2.5 1t2.5 1q49 6 53 6q44 172 49 266l1 17q-1 3 -5 5zM400 209q-6 -14 -6 -25l-1 -2l-1 -2q3 0 3 2q2 4 2 7l20 71
q-8 -16 -8 -21q-3 -3 -3 -8q-2 -2 -2 -5q0 -1 -4 -17zM314 6l8 16q0 1 -3 1q-1 0 -6 -6.5t-5 -8.5l-1 -3q2 0 3 4l3 4q0 -3 1 -7zM372 85q2 15 4 22q0 3 1.5 9t1.5 11q-13 -45 -14 -48q4 6 7 6zM390 151q0 4 1 5q-2 0 -3 1l2 7q2 7 3 11l-3 -4v-1l-4 -15q0 -1 -1 -5t-1 -6
l1 -3q0 5 5 10zM320 7q-4 0 -7 -5q0 -5 4 -5q2 0 2 2q3 1 3 5q0 1 -2 3zM423 326q-1 -8 -4 -12q4 -1 9 21l-3 -4q-2 -4 -2 -5zM453 431q1 1 1 8q-7 -7 -7 -9l-1 -6l2.5 2.5l3.5 3.5zM320 31l4 -3v5q0 4 -4 6q-1 -1 -1 -4l-4 -2l3 -1q2 0 2 -1zM353 148l-2 -10l-1 -1v-2v-4
q0 -3 1 -3l4 20q0 2 -1 5q0 -4 -1 -5zM426 288l-3 -3q-1 -3 -2 -6.5t-1 -4.5l1 -3q1 0 5 17zM302 7q0 -9 -4 -13q0 -2 2 -4l3 11q0 4 -1 6zM344 41v-8q0 -5 1 -6q0 2 0.5 4t0.5 3v9q0 -2 -2 -2zM483 546v-4l4 3l-1 3q-3 0 -3 -2zM477 543l1 -3l2 2l1 2l-1 3q-3 0 -3 -4z
M324 58q0 2 -1 4q-2 -2 -2 -4v-4q3 3 3 4zM397 164q-4 0 -4 -4l-2 -5q5 7 6 9zM471 511l-4 -1v-4q3 0 3 2zM440 354q-1 0 -2 -2l-1 -3q0 -1 1 -2v-1q2 2 2 8zM315 64l-2 -11q2 0 2 4v7zM390 226q0 -3 -2 -9q3 3 3 6q0 1 -1 3zM387 136q0 -4 1 -4l2 6zM417 842q18 0 40 -22
q5 -3 9 -3q8 0 29 21l7 -11q0 -21 -14 -27q-11 -19 -36 -19q-8 0 -20 5q-2 1 -10.5 10t-13.5 9q-2 0 -4 -1q-14 -10 -21 -16q-8 -8 -15 -8q-6 0 -10 5t-4 11q0 20 14 28l31 16q3 2 18 2z" />
    <glyph glyph-name="Adieresis" unicode="&#xc4;" horiz-adv-x="484" 
d="M391 835q5 3 14 3q11 0 19 -8t8 -18q0 -8 -8 -16t-17 -10q-4 -3 -11 -3q-15 0 -20 14q-2 1 -2 6q0 9 5.5 19t11.5 13zM459 790q0 5 1 7q0 1 -1.5 2t-1.5 2t-0.5 3l-0.5 2q0 5 3.5 10.5t6.5 8.5t10 8l6 5h4q12 0 24 -8q1 -4 1 -15q0 -28 -19 -34q-1 0 -3 -0.5t-4 -0.5
q-23 0 -26 10zM361 60l6 11q0 1 -6 -3l-2 -3l-18 -60l-7 -11l-5 12l-2 -4l-3 -1q0 -1 -1.5 -4l-2.5 -5l-1 -2h4q2 0 2 -3q-2 -2 -2 -4t-2 -2q0 3 -5 3l-6 -2l-2 -2l-2 -1q0 -2 2 -3q0 -2 -3 -2l-2 -4q0 -2 -6 -2q-11 0 -11 7l-5 14q0 7 1 10q7 24 45 158.5t57 203.5
q-79 -10 -172 -34q-69 -184 -101 -298q-10 -31 -29 -31q-20 -10 -24 -10q-2 0 -6.5 4t-11.5 4q-13 0 -13 12q0 3 1.5 9t1.5 8l6 14q18 66 71 206l21 56q-51 -18 -79 -35q-2 -1 -7 -6q-10 -5 -18 -5q-1 -4 -6 -4q-6 0 -6 4l3 1q-11 3 -24 21l-1 2l-3 3q0 2 -0.5 6t-0.5 6
q2 4 2 8q20 29 166 67q90 220 192 325q19 19 46 35.5t47 16.5t33 -20q0 -5 9 -9q13 -9 17 -29q2 -28 2 -43q0 -87 -35 -230h42q25 0 32 -14q4 -6 7 -9.5t4 -4.5l2 -1q-1 -4 -5 -6.5t-8 -3.5t-9.5 -1.5t-6.5 -0.5l-70 -5q-9 -39 -29.5 -111t-27.5 -100l-3 -15q-5 -21 -7 -28
q-6 -12 -6 -17q-4 -10 -4 -15q-6 -9 -8 -25q-2 -8 -7 -20.5t-6 -18.5l-6 -10q-2 0 -2 7q1 5 3 11.5t2 7.5l1 3zM441 699q-99 -62 -204 -311q65 13 91 15h10q1 0 2.5 1t2.5 1q49 6 53 6q44 172 49 266l1 17q-1 3 -5 5zM400 209q-6 -14 -6 -25l-1 -2l-1 -2q3 0 3 2q2 4 2 7
l20 71q-8 -16 -8 -21q-3 -3 -3 -8q-2 -2 -2 -5q0 -1 -4 -17zM314 6l8 16q0 1 -3 1q-1 0 -6 -6.5t-5 -8.5l-1 -3q2 0 3 4l3 4q0 -3 1 -7zM372 85q2 15 4 22q0 3 1.5 9t1.5 11q-13 -45 -14 -48q4 6 7 6zM390 151q0 4 1 5q-2 0 -3 1l2 7q2 7 3 11l-3 -4v-1l-4 -15q0 -1 -1 -5
t-1 -6l1 -3q0 5 5 10zM320 7q-4 0 -7 -5q0 -5 4 -5q2 0 2 2q3 1 3 5q0 1 -2 3zM423 326q-1 -8 -4 -12q4 -1 9 21l-3 -4q-2 -4 -2 -5zM453 431q1 1 1 8q-7 -7 -7 -9l-1 -6l2.5 2.5l3.5 3.5zM320 31l4 -3v5q0 4 -4 6q-1 -1 -1 -4l-4 -2l3 -1q2 0 2 -1zM353 148l-2 -10l-1 -1
v-2v-4q0 -3 1 -3l4 20q0 2 -1 5q0 -4 -1 -5zM426 288l-3 -3q-1 -3 -2 -6.5t-1 -4.5l1 -3q1 0 5 17zM302 7q0 -9 -4 -13q0 -2 2 -4l3 11q0 4 -1 6zM344 41v-8q0 -5 1 -6q0 2 0.5 4t0.5 3v9q0 -2 -2 -2zM483 546v-4l4 3l-1 3q-3 0 -3 -2zM477 543l1 -3l2 2l1 2l-1 3
q-3 0 -3 -4zM324 58q0 2 -1 4q-2 -2 -2 -4v-4q3 3 3 4zM397 164q-4 0 -4 -4l-2 -5q5 7 6 9zM471 511l-4 -1v-4q3 0 3 2zM440 354q-1 0 -2 -2l-1 -3q0 -1 1 -2v-1q2 2 2 8zM315 64l-2 -11q2 0 2 4v7zM390 226q0 -3 -2 -9q3 3 3 6q0 1 -1 3zM387 136q0 -4 1 -4l2 6z" />
    <glyph glyph-name="Aring" unicode="&#xc5;" horiz-adv-x="484" 
d="M361 60l6 11q0 1 -6 -3l-2 -3l-18 -60l-7 -11l-5 12l-2 -4l-3 -1q0 -1 -1.5 -4l-2.5 -5l-1 -2h4q2 0 2 -3q-2 -2 -2 -4t-2 -2q0 3 -5 3l-6 -2l-2 -2l-2 -1q0 -2 2 -3q0 -2 -3 -2l-2 -4q0 -2 -6 -2q-11 0 -11 7l-5 14q0 7 1 10q7 24 45 158.5t57 203.5q-79 -10 -172 -34
q-69 -184 -101 -298q-10 -31 -29 -31q-20 -10 -24 -10q-2 0 -6.5 4t-11.5 4q-13 0 -13 12q0 3 1.5 9t1.5 8l6 14q18 66 71 206l21 56q-51 -18 -79 -35q-2 -1 -7 -6q-10 -5 -18 -5q-1 -4 -6 -4q-6 0 -6 4l3 1q-11 3 -24 21l-1 2l-3 3q0 2 -0.5 6t-0.5 6q2 4 2 8q20 29 166 67
q90 220 192 325q19 19 46 35.5t47 16.5t33 -20q0 -5 9 -9q13 -9 17 -29q2 -28 2 -43q0 -87 -35 -230h42q25 0 32 -14q4 -6 7 -9.5t4 -4.5l2 -1q-1 -4 -5 -6.5t-8 -3.5t-9.5 -1.5t-6.5 -0.5l-70 -5q-9 -39 -29.5 -111t-27.5 -100l-3 -15q-5 -21 -7 -28q-6 -12 -6 -17
q-4 -10 -4 -15q-6 -9 -8 -25q-2 -8 -7 -20.5t-6 -18.5l-6 -10q-2 0 -2 7q1 5 3 11.5t2 7.5l1 3zM441 699q-99 -62 -204 -311q65 13 91 15h10q1 0 2.5 1t2.5 1q49 6 53 6q44 172 49 266l1 17q-1 3 -5 5zM400 209q-6 -14 -6 -25l-1 -2l-1 -2q3 0 3 2q2 4 2 7l20 71
q-8 -16 -8 -21q-3 -3 -3 -8q-2 -2 -2 -5q0 -1 -4 -17zM314 6l8 16q0 1 -3 1q-1 0 -6 -6.5t-5 -8.5l-1 -3q2 0 3 4l3 4q0 -3 1 -7zM372 85q2 15 4 22q0 3 1.5 9t1.5 11q-13 -45 -14 -48q4 6 7 6zM390 151q0 4 1 5q-2 0 -3 1l2 7q2 7 3 11l-3 -4v-1l-4 -15q0 -1 -1 -5t-1 -6
l1 -3q0 5 5 10zM320 7q-4 0 -7 -5q0 -5 4 -5q2 0 2 2q3 1 3 5q0 1 -2 3zM423 326q-1 -8 -4 -12q4 -1 9 21l-3 -4q-2 -4 -2 -5zM453 431q1 1 1 8q-7 -7 -7 -9l-1 -6l2.5 2.5l3.5 3.5zM320 31l4 -3v5q0 4 -4 6q-1 -1 -1 -4l-4 -2l3 -1q2 0 2 -1zM353 148l-2 -10l-1 -1v-2v-4
q0 -3 1 -3l4 20q0 2 -1 5q0 -4 -1 -5zM426 288l-3 -3q-1 -3 -2 -6.5t-1 -4.5l1 -3q1 0 5 17zM302 7q0 -9 -4 -13q0 -2 2 -4l3 11q0 4 -1 6zM344 41v-8q0 -5 1 -6q0 2 0.5 4t0.5 3v9q0 -2 -2 -2zM483 546v-4l4 3l-1 3q-3 0 -3 -2zM477 543l1 -3l2 2l1 2l-1 3q-3 0 -3 -4z
M324 58q0 2 -1 4q-2 -2 -2 -4v-4q3 3 3 4zM397 164q-4 0 -4 -4l-2 -5q5 7 6 9zM471 511l-4 -1v-4q3 0 3 2zM440 354q-1 0 -2 -2l-1 -3q0 -1 1 -2v-1q2 2 2 8zM315 64l-2 -11q2 0 2 4v7zM390 226q0 -3 -2 -9q3 3 3 6q0 1 -1 3zM387 136q0 -4 1 -4l2 6zM410 821v5l4 9
q7 9 23.5 19.5t32.5 10.5t30 -12.5t14 -27.5q0 -21 -22.5 -34t-44.5 -13q-16 0 -26 7q-11 5 -11 36zM444 827q-2 -2 -2 -8q0 -2 0.5 -5.5t0.5 -5.5q0 -4 -1 -5q26 0 35 15q1 1 1 4q0 2 -7 9q-5 3 -10 3q-8 0 -17 -7z" />
    <glyph glyph-name="AE" unicode="&#xc6;" horiz-adv-x="688" 
d="M721 358h-11q3 -3 3 -7q0 -3 10 -10h-114l-65 -4q-9 -4 -29 -4l-40 -3q-1 0 -27 -5q-5 0 -6 -3l-1 -8q-44 -136 -44 -210q0 -23 18.5 -35t48.5 -12q41 0 86 14t59 31q13 21 19 21q2 -5 4 -5l-2 -2q-1 -2 -2.5 -4.5t-1.5 -4.5q2 0 3 2t3 2l-3 -4q0 -1 -1 -3v-2h13l3 3
q0 -2 -6 -10l3 2q1 -2 1 -3q-5 -2 -5 -4q1 0 3 0.5l2 0.5l2 1l2 1q1 0 -3.5 -4.5t-10 -8.5t-6.5 -5l-5 -4l-3 -2q-2 0 -5 -2.5t-3 -3.5q-7 -7 -15 -7q0 -5 -3 -5l-3 -3l3 1q4 0 7 3l12 6l-14 -12q-38 -24 -67 -24q-18 -11 -56 -11q-58 0 -96 19.5t-50 71.5q-1 3 -1 10v18
q0 20 6 49.5t10.5 47.5t15 54t11.5 39q-98 -13 -175 -38q-53 -139 -84 -253q-10 -31 -29 -31q-20 -10 -24 -10q-2 0 -6.5 4t-11.5 4q-13 0 -13 12q0 3 1.5 9t1.5 8l6 14q10 37 69 207l3 7q-40 -16 -59 -27q-2 -1 -7 -6q-10 -5 -18 -5q-1 -4 -6 -4q-6 0 -6 4l3 1
q-11 3 -24 21l-1 2l-3 3q0 2 -0.5 6t-0.5 6q2 4 2 8q18 27 147 62q102 259 211 370q19 19 46 35.5t47 16.5t33 -20q0 -5 9 -9q12 -8 16 -26h23q14 0 42 1.5t41 1.5h30q26 0 41 -5q11 0 15 -4h5q19 0 51 -22l6 -10q1 -1 3.5 -2.5t2.5 -3.5l2 -4q-1 -1 -2 -3.5t-3 -4.5
q-3 0 -4.5 0.5t-2.5 1.5l-1 1q-1 0 -2 -2l-2 -1l-5 5h-4q-2 -3 -4 -3q1 -2 7 -2q0 -4 -4 -4q-10 0 -12 6l-2 -3q-5 0 -11 4q-4 5 -5 5q-2 -3 -6 -3h-7q-5 0 -7 -5h16q6 0 5 -1q3 0 7 -1t5 -1q3 -1 6 -1l-4 -2q-2 0 -4.5 -0.5t-3.5 -0.5q-4 0 -4 2q-21 2 -31 2h-16
q-10 0 -30 1.5t-31 1.5q-2 0 -4 -1.5t-3 -1.5h20q-6 -4 -8 -4h-21q-7 0 -18.5 -0.5t-16.5 -0.5h-41q-4 0 -6 -2q-2 -80 -41 -237q-1 -4 -2 -6.5t-1 -5.5q49 5 110 5h5q132 0 151 -23zM343 365q25 4 42 5l4 15q1 5 11 43t12.5 50t10 45t10.5 52.5t7 48t5 53.5l1 17q-1 3 -5 5
q-105 -66 -212 -330l-10 -25q53 12 109 19h10q1 0 2.5 1t2.5 1zM563 647h-13q-2 0 -4 3l-4 -4h6q7 0 10 -3h-4q-4 0 -4 -2q-2 0 -6 0.5t-8 0.5t-4 1h-10l-6 -3q1 0 3 -0.5t3 -0.5h19q2 -1 5 -1q1 0 3 0.5t4 0.5t3 -1h8l-2 1q-1 1 -1 2q0 2 2 6zM372 228q1 0 3 -2l2.5 2.5
t1.5 2.5q0 11 4 18q2 11 6 20q-3 0 -5 -4.5t-2 -6.5q-2 -2 -2 -8q-3 -3 -3 -6q0 -1 2 -3q0 -1 -3 -5.5t-4 -7.5zM362 217q4 9 6 19q0 -1 -3.5 -8t-3.5 -11q-2 -6 -3 -11l-6 -27q8 25 10 38zM361 200l-3 -4v-1v-4l-3 -11v-1q-2 -3 -3 -9h2l2 -1l1 10l1 4q1 4 2 9t1 8zM367 82
q5 17 7 24q0 4 2 9.5t2 9.5l-2 -5q-1 -6 -3.5 -13t-3.5 -10q-2 -8 -5 -10q2 -5 3 -5zM380 269q-1 -8 -4 -12q4 -1 9 21l-3 -4q-2 -4 -2 -5zM373 218l-3 -3q-1 -3 -2 -6.5t-1 -4.5l1 -3q1 0 5 17zM363 184q-4 0 -4 -9q1 0 4 9zM346 155q3 4 3 10q-3 0 -3 -10zM347 179
q0 -3 -2 -9q3 3 3 6v1q-1 1 -1 2zM396 286v4l-3 -8z" />
    <glyph glyph-name="Ccedilla" unicode="&#xc7;" horiz-adv-x="396" 
d="M59 -136q-16 3 -17 3q-6 2 -10 5q-11 7 -21 11l-10 5q1 2 9 2h5q5 0 19 -2h7q4 0 18 4q7 1 12 10t5 17q0 9 -5 11q-5 3 -14 3q-16 0 -22 10q-1 2 -1 6q0 3 2 5q17 12 42 46q-40 17 -60.5 62t-20.5 96v14q9 143 93 306.5t199 247.5q2 5 17.5 9t23.5 4q1 0 3.5 0.5t4.5 0.5
q4 0 7 -3l3 3l1 2q2 0 5 -2l2 -1l20 -1q6 0 26 -8q2 -3 3 -3q28 -12 45.5 -49t17.5 -77v-7q0 -13 -3 -28q-2 -34 -27 -91q-19 -3 -23 -7q-18 2 -31 18t-13 36q17 17 21 76v12q0 39 -19 66q-22 14 -29 14q-57 -24 -121 -126t-102 -197q-51 -127 -51 -211v-13q0 -108 74 -115
q29 2 102 68.5t154 165.5l14 15q13 15 25.5 28t13.5 13q2 0 2 -4l-2 -16q0 -2 -2 -3t-4 -1h-2v-7l4 -4q0 -1 -3 -3h-6q3 -3 3 -6l-7 -14v-2q-1 -1 -1 -2q-5 -2 -5 -9q-6 0 -6 -7q-2 0 -3.5 -2t-2.5 -4l-1 -2l-8 -9q-1 -1 -2 -3l-3 -3q-4 -5 -7 -9q0 -4 -3 -4q-2 -1 -4 -6
q-31 -37 -31 -38q-9 -9 -10 -14q4 0 4 5q1 2 10 12t17 19l7 9l8 7q-1 -3 -8.5 -13t-14 -18t-7.5 -8q0 -2 -3.5 -6t-4.5 -7q-7 -6 -7 -7q-2 0 -2 -2q-1 -1 -2 -3q0 2 -2 2v-8q-5 0 -10 -7q-8 -5 -9 -9l-15 -14q-39 -39 -47 -46l-12 -10l-4 -1l-3 -3q-4 -4 -18 -13.5
t-42.5 -21.5t-52.5 -12h-16q-4 -8 -15 -24q-5 -4 -5 -7l6 -6q17 -8 20 -27v-5q0 -18 -13.5 -35t-31.5 -20q-3 -1 -9.5 -2t-7.5 -1zM73 240v-4q1 1 1 5q0 1 1.5 6t2.5 7l3 14q3 2 3 6l7 23q0 5 7 23l2 9q1 0 1 2q0 1 0.5 1.5t0.5 1.5l17 41q0 2 8 16l12 29l-4 -5l-13 -29
q-2 -4 -2 -7l-5 -7q-3 -4 -13 -27q0 -2 -2 -6.5t-2 -7.5l-3 -5q0 -1 -1 -3t-1 -4l-3 -7q0 -16 -6 -16q-1 -1 -1 -5v-13l-3 4q0 -7 1 -12q-6 -2 -6 -9q0 -3 1 -4q0 -3 -1 -3q-1 -1 -1 -4t-2 -4q0 -1 -1 -3q0 -1 1 -1q0 -1 1 -2zM92 48q0 2 -4.5 6.5t-6.5 9.5l-4 8q0 1 -4 9.5
t-4 13.5v16l-3 -5q-1 4 -1 14v6l2 -3v5q-3 1 -3 4v21q-3 -11 -3 -22q0 -24 9.5 -49.5t21.5 -33.5zM70 210v24q-3 -3 -3 -12v-12l-1 -3v-5q2 6 4 8zM65 193l-3 -7q-1 -6 -1 -12l3 4q0 2 0.5 7t0.5 8zM339 132h-7l4 -4q2 2 3 4zM340 139q0 2 2 3q-5 0 -5 -6q3 0 3 3z" />
    <glyph glyph-name="Egrave" unicode="&#xc8;" horiz-adv-x="371" 
d="M263 381q132 0 151 -23h-11q3 -3 3 -7q0 -3 10 -9h-14q-18 0 -52 -2t-50 -2q-2 0 -5 -0.5t-4 -0.5h-10q0 -2 -4 -2q8 -2 24 -2h14q-30 -10 -66 -10q-55 -7 -81 -9q-1 0 -27 -5q-5 0 -6 -3l-1 -8q-1 -3 -8.5 -26t-9 -29t-7.5 -26t-8 -29.5t-5.5 -26t-4.5 -30t-1 -27.5
q0 -23 18.5 -35t48.5 -12q41 0 86 14t59 31q13 21 19 21q2 -5 4 -5l-1 -2q-2 -2 -3.5 -4.5t-1.5 -4.5q1 0 3 2t3 2l-3 -4v-3l-1 -2h13l3 3q0 -2 -6 -10l3 2q1 -2 1 -3q-5 -2 -5 -4h2q2 1 3 1t2 1t2 1t-3.5 -4.5t-10 -8.5t-6.5 -5l-5 -4l-3 -2q-2 0 -5 -2.5t-3 -3.5
q-7 -7 -15 -7q0 -5 -3 -5l-3 -3l3 1q4 0 7 3l13 7q-1 0 -7 -6t-8 -7q-38 -24 -67 -24q-18 -11 -56 -11q-128 0 -150 91q-1 3 -1 10v18q0 21 6 50t11.5 49t15.5 53t12 39q-9 18 -9 26q0 4 1 5q6 17 25 17q62 164 67 213q-3 2 -3 9q3 19 31 19q12 0 25.5 -8.5t14.5 -19.5
q1 -2 1 -11q0 -25 -21 -91q0 -1 -1 -4q-15 -47 -26 -80q-2 -4 -7 -20q49 5 99 5h5zM70 683q0 5 5 8.5t7 3.5q8 -4 13 -4q25 -3 51 -3q17 0 50.5 1.5t49.5 1.5h37q31 0 49 -5q13 0 19 -3h5q23 0 62 -22q2 0 4 -2.5t3 -3.5l3 -3h-3q1 -1 5 -2.5t5 -3.5h-3l3 -4
q-1 -1 -1.5 -3.5t-0.5 -3.5h-4q-5 0 -9 2h-1q-1 0 -2.5 -1t-2.5 -1l-5 4h-6q-2 -3 -4 -3q1 -1 8 -1q0 -4 -5 -4q-7 0 -8 1t-3 1l-3 3l-3 -2q-5 0 -13 3q-4 5 -6 5q-2 -3 -7 -3h-9q-6 0 -8 -4h19q7 0 6 -1q4 0 8.5 -1t6.5 -1q4 -1 7 -1l-5 -2q-2 0 -5 -0.5t-4 -0.5q-5 0 -5 2
q-26 2 -38 2h-19q-13 0 -37.5 1.5t-36.5 1.5q-1 0 -5 -1.5t-5 -1.5h26q-8 -4 -10 -4h-25q-8 0 -22 -0.5t-21 -0.5h-49q-5 0 -8 -3h-5q-7 0 -11 6q0 1 -1.5 4t-1.5 5q-7 0 -7 7q-7 8 -12 11q-2 2 -3 4.5t-1.5 4.5t-0.5 3q0 2 -2 4t-2 4q0 1 -1.5 3t-1.5 3zM253 799
q0 14 -4 26q1 1 2 4l1 3q0 5 4 6l19 5q3 0 4 -3q17 -23 24 -49l8 -32q0 -4 2 -10t2 -7q0 -6 -7 -6q-3 0 -5 2q-3 0 -3 2q-3 0 -3 -1l-2 -4q-2 0 -2 2l-2 6l-1 -1v-2l-5 2q-1 0 -1 1l-1 2q-8 2 -11 10q-5 6 -11 20zM326 640q0 2 2 6h-15q-3 0 -6 3l-4 -4h7q8 0 12 -3h-5
q-4 0 -4 -2q-3 0 -8 0.5t-10 0.5q-4 0 -4 1h-13l-7 -3q2 0 4 -0.5t3 -0.5h24q2 -1 5 -1q1 0 4 0.5t5 0.5t4 -1h9l-1 1q-2 1 -2 2z" />
    <glyph glyph-name="Eacute" unicode="&#xc9;" horiz-adv-x="371" 
d="M263 381q132 0 151 -23h-11q3 -3 3 -7q0 -3 10 -9h-14q-18 0 -52 -2t-50 -2q-2 0 -5 -0.5t-4 -0.5h-10q0 -2 -4 -2q8 -2 24 -2h14q-30 -10 -66 -10q-55 -7 -81 -9q-1 0 -27 -5q-5 0 -6 -3l-1 -8q-1 -3 -8.5 -26t-9 -29t-7.5 -26t-8 -29.5t-5.5 -26t-4.5 -30t-1 -27.5
q0 -23 18.5 -35t48.5 -12q41 0 86 14t59 31q13 21 19 21q2 -5 4 -5l-1 -2q-2 -2 -3.5 -4.5t-1.5 -4.5q1 0 3 2t3 2l-3 -4v-3l-1 -2h13l3 3q0 -2 -6 -10l3 2q1 -2 1 -3q-5 -2 -5 -4h2q2 1 3 1t2 1t2 1t-3.5 -4.5t-10 -8.5t-6.5 -5l-5 -4l-3 -2q-2 0 -5 -2.5t-3 -3.5
q-7 -7 -15 -7q0 -5 -3 -5l-3 -3l3 1q4 0 7 3l13 7q-1 0 -7 -6t-8 -7q-38 -24 -67 -24q-18 -11 -56 -11q-128 0 -150 91q-1 3 -1 10v18q0 21 6 50t11.5 49t15.5 53t12 39q-9 18 -9 26q0 4 1 5q6 17 25 17q62 164 67 213q-3 2 -3 9q3 19 31 19q12 0 25.5 -8.5t14.5 -19.5
q1 -2 1 -11q0 -25 -21 -91q0 -1 -1 -4q-15 -47 -26 -80q-2 -4 -7 -20q49 5 99 5h5zM70 683q0 5 5 8.5t7 3.5q8 -4 13 -4q25 -3 51 -3q17 0 50.5 1.5t49.5 1.5h37q31 0 49 -5q13 0 19 -3h5q23 0 62 -22q2 0 4 -2.5t3 -3.5l3 -3h-3q1 -1 5 -2.5t5 -3.5h-3l3 -4
q-1 -1 -1.5 -3.5t-0.5 -3.5h-4q-5 0 -9 2h-1q-1 0 -2.5 -1t-2.5 -1l-5 4h-6q-2 -3 -4 -3q1 -1 8 -1q0 -4 -5 -4q-7 0 -8 1t-3 1l-3 3l-3 -2q-5 0 -13 3q-4 5 -6 5q-2 -3 -7 -3h-9q-6 0 -8 -4h19q7 0 6 -1q4 0 8.5 -1t6.5 -1q4 -1 7 -1l-5 -2q-2 0 -5 -0.5t-4 -0.5q-5 0 -5 2
q-26 2 -38 2h-19q-13 0 -37.5 1.5t-36.5 1.5q-1 0 -5 -1.5t-5 -1.5h26q-8 -4 -10 -4h-25q-8 0 -22 -0.5t-21 -0.5h-49q-5 0 -8 -3h-5q-7 0 -11 6q0 1 -1.5 4t-1.5 5q-7 0 -7 7q-7 8 -12 11q-2 2 -3 4.5t-1.5 4.5t-0.5 3q0 2 -2 4t-2 4q0 1 -1.5 3t-1.5 3zM276 837q1 9 16 9
q8 0 13 -7q11 0 11 -19v-2l-1 -2q-5 -21 -17 -38q-1 -1 -3 -4t-4 -5l-11 -9q-2 0 -4 -3q-3 -6 -9 -11l1 5l-7 -11l-1 2q-2 2 -4 2l-4 -6l-12 -9q3 7 3 12t10 34l22 59l1 1v2zM326 640q0 2 2 6h-15q-3 0 -6 3l-4 -4h7q8 0 12 -3h-5q-4 0 -4 -2q-3 0 -8 0.5t-10 0.5q-4 0 -4 1
h-13l-7 -3q2 0 4 -0.5t3 -0.5h24q2 -1 5 -1q1 0 4 0.5t5 0.5t4 -1h9l-1 1q-2 1 -2 2z" />
    <glyph glyph-name="Ecircumflex" unicode="&#xca;" horiz-adv-x="371" 
d="M263 381q132 0 151 -23h-11q3 -3 3 -7q0 -3 10 -9h-14q-18 0 -52 -2t-50 -2q-2 0 -5 -0.5t-4 -0.5h-10q0 -2 -4 -2q8 -2 24 -2h14q-30 -10 -66 -10q-55 -7 -81 -9q-1 0 -27 -5q-5 0 -6 -3l-1 -8q-1 -3 -8.5 -26t-9 -29t-7.5 -26t-8 -29.5t-5.5 -26t-4.5 -30t-1 -27.5
q0 -23 18.5 -35t48.5 -12q41 0 86 14t59 31q13 21 19 21q2 -5 4 -5l-1 -2q-2 -2 -3.5 -4.5t-1.5 -4.5q1 0 3 2t3 2l-3 -4v-3l-1 -2h13l3 3q0 -2 -6 -10l3 2q1 -2 1 -3q-5 -2 -5 -4h2q2 1 3 1t2 1t2 1t-3.5 -4.5t-10 -8.5t-6.5 -5l-5 -4l-3 -2q-2 0 -5 -2.5t-3 -3.5
q-7 -7 -15 -7q0 -5 -3 -5l-3 -3l3 1q4 0 7 3l13 7q-1 0 -7 -6t-8 -7q-38 -24 -67 -24q-18 -11 -56 -11q-128 0 -150 91q-1 3 -1 10v18q0 21 6 50t11.5 49t15.5 53t12 39q-9 18 -9 26q0 4 1 5q6 17 25 17q62 164 67 213q-3 2 -3 9q3 19 31 19q12 0 25.5 -8.5t14.5 -19.5
q1 -2 1 -11q0 -25 -21 -91q0 -1 -1 -4q-15 -47 -26 -80q-2 -4 -7 -20q49 5 99 5h5zM70 683q0 5 5 8.5t7 3.5q8 -4 13 -4q25 -3 51 -3q17 0 50.5 1.5t49.5 1.5h37q31 0 49 -5q13 0 19 -3h5q23 0 62 -22q2 0 4 -2.5t3 -3.5l3 -3h-3q1 -1 5 -2.5t5 -3.5h-3l3 -4
q-1 -1 -1.5 -3.5t-0.5 -3.5h-4q-5 0 -9 2h-1q-1 0 -2.5 -1t-2.5 -1l-5 4h-6q-2 -3 -4 -3q1 -1 8 -1q0 -4 -5 -4q-7 0 -8 1t-3 1l-3 3l-3 -2q-5 0 -13 3q-4 5 -6 5q-2 -3 -7 -3h-9q-6 0 -8 -4h19q7 0 6 -1q4 0 8.5 -1t6.5 -1q4 -1 7 -1l-5 -2q-2 0 -5 -0.5t-4 -0.5q-5 0 -5 2
q-26 2 -38 2h-19q-13 0 -37.5 1.5t-36.5 1.5q-1 0 -5 -1.5t-5 -1.5h26q-8 -4 -10 -4h-25q-8 0 -22 -0.5t-21 -0.5h-49q-5 0 -8 -3h-5q-7 0 -11 6q0 1 -1.5 4t-1.5 5q-7 0 -7 7q-7 8 -12 11q-2 2 -3 4.5t-1.5 4.5t-0.5 3q0 2 -2 4t-2 4q0 1 -1.5 3t-1.5 3zM260 817
q14 19 32 19q6 0 8 -2l13 -13q2 -3 9 -13t8 -13q5 -10 7 -15q1 -2 1 -5q0 -1 -0.5 -3t-0.5 -4q0 -4 1 -5q2 -2 2 -6v-4q-1 -3 -6 -8l-5 -5l-40 46q0 1 -1 3q-1 4 -2 4l-46 -46q-2 -2 -11 -2q-9 3 -13 15q-1 2 -1 5q1 6 8 16q5 7 37 36zM326 640q0 2 2 6h-15q-3 0 -6 3l-4 -4
h7q8 0 12 -3h-5q-4 0 -4 -2q-3 0 -8 0.5t-10 0.5q-4 0 -4 1h-13l-7 -3q2 0 4 -0.5t3 -0.5h24q2 -1 5 -1q1 0 4 0.5t5 0.5t4 -1h9l-1 1q-2 1 -2 2z" />
    <glyph glyph-name="Edieresis" unicode="&#xcb;" horiz-adv-x="371" 
d="M263 381q132 0 151 -23h-11q3 -3 3 -7q0 -3 10 -9h-14q-18 0 -52 -2t-50 -2q-2 0 -5 -0.5t-4 -0.5h-10q0 -2 -4 -2q8 -2 24 -2h14q-30 -10 -66 -10q-55 -7 -81 -9q-1 0 -27 -5q-5 0 -6 -3l-1 -8q-1 -3 -8.5 -26t-9 -29t-7.5 -26t-8 -29.5t-5.5 -26t-4.5 -30t-1 -27.5
q0 -23 18.5 -35t48.5 -12q41 0 86 14t59 31q13 21 19 21q2 -5 4 -5l-1 -2q-2 -2 -3.5 -4.5t-1.5 -4.5q1 0 3 2t3 2l-3 -4v-3l-1 -2h13l3 3q0 -2 -6 -10l3 2q1 -2 1 -3q-5 -2 -5 -4h2q2 1 3 1t2 1t2 1t-3.5 -4.5t-10 -8.5t-6.5 -5l-5 -4l-3 -2q-2 0 -5 -2.5t-3 -3.5
q-7 -7 -15 -7q0 -5 -3 -5l-3 -3l3 1q4 0 7 3l13 7q-1 0 -7 -6t-8 -7q-38 -24 -67 -24q-18 -11 -56 -11q-128 0 -150 91q-1 3 -1 10v18q0 21 6 50t11.5 49t15.5 53t12 39q-9 18 -9 26q0 4 1 5q6 17 25 17q62 164 67 213q-3 2 -3 9q3 19 31 19q12 0 25.5 -8.5t14.5 -19.5
q1 -2 1 -11q0 -25 -21 -91q0 -1 -1 -4q-15 -47 -26 -80q-2 -4 -7 -20q49 5 99 5h5zM70 683q0 5 5 8.5t7 3.5q8 -4 13 -4q25 -3 51 -3q17 0 50.5 1.5t49.5 1.5h37q31 0 49 -5q13 0 19 -3h5q23 0 62 -22q2 0 4 -2.5t3 -3.5l3 -3h-3q1 -1 5 -2.5t5 -3.5h-3l3 -4
q-1 -1 -1.5 -3.5t-0.5 -3.5h-4q-5 0 -9 2h-1q-1 0 -2.5 -1t-2.5 -1l-5 4h-6q-2 -3 -4 -3q1 -1 8 -1q0 -4 -5 -4q-7 0 -8 1t-3 1l-3 3l-3 -2q-5 0 -13 3q-4 5 -6 5q-2 -3 -7 -3h-9q-6 0 -8 -4h19q7 0 6 -1q4 0 8.5 -1t6.5 -1q4 -1 7 -1l-5 -2q-2 0 -5 -0.5t-4 -0.5q-5 0 -5 2
q-26 2 -38 2h-19q-13 0 -37.5 1.5t-36.5 1.5q-1 0 -5 -1.5t-5 -1.5h26q-8 -4 -10 -4h-25q-8 0 -22 -0.5t-21 -0.5h-49q-5 0 -8 -3h-5q-7 0 -11 6q0 1 -1.5 4t-1.5 5q-7 0 -7 7q-7 8 -12 11q-2 2 -3 4.5t-1.5 4.5t-0.5 3q0 2 -2 4t-2 4q0 1 -1.5 3t-1.5 3zM329 738
q-23 0 -26 10q0 5 1 7q0 1 -1.5 2t-1.5 2t-0.5 3l-0.5 2q0 5 3.5 10.5t6.5 8.5t10 8l6 5h4q12 0 24 -8q1 -4 1 -15q0 -28 -19 -34q-1 0 -3 -0.5t-4 -0.5zM218 761q0 9 5.5 19t11.5 13q5 3 14 3q11 0 19 -8t8 -18q0 -8 -8 -16t-17 -10q-4 -3 -11 -3q-15 0 -20 14q-2 1 -2 6z
M326 640q0 2 2 6h-15q-3 0 -6 3l-4 -4h7q8 0 12 -3h-5q-4 0 -4 -2q-3 0 -8 0.5t-10 0.5q-4 0 -4 1h-13l-7 -3q2 0 4 -0.5t3 -0.5h24q2 -1 5 -1q1 0 4 0.5t5 0.5t4 -1h9l-1 1q-2 1 -2 2z" />
    <glyph glyph-name="Igrave" unicode="&#xcc;" horiz-adv-x="162" 
d="M163 792q1 1 2 4l1 3q0 5 4 6l19 5q3 0 4 -3q17 -23 24 -49l8 -32q0 -4 2 -10t2 -7q0 -6 -7 -6q-3 0 -5 2q-3 0 -3 2q-3 0 -3 -1l-2 -4q-2 0 -2 2l-2 6l-1 -1v-2l-5 2q-1 0 -1 1l-1 2q-8 2 -11 10q-5 6 -11 20l-8 24q0 14 -4 26zM57 50v-4l-1 2l-2 4v-11q-4 0 -4 -1l3 -9
q-1 0 -5 3.5t-4 5.5v-3l1 -2q0 -3 -5 -5q-1 1 -4 1q2 0 2 -3q0 -4 -3 -4t-5 1l-6 -2q-2 2 -7 2q-3 0 -3 -1q-9 10 -9 38q0 18 4 43.5t8 44t10 45t7 30.5q8 34 45 165q9 30 29.5 93.5t33 109t15.5 74.5q1 11 10 14q1 1 4 1q4 0 10 -3.5t9 -4.5q24 -9 24 -38q0 -2 -0.5 -5.5
t-0.5 -5.5q-1 -20 -5.5 -43t-11.5 -49.5t-12 -43.5t-15 -47t-12 -38q-48 -150 -74 -279q-1 -4 -4.5 -16.5t-4.5 -19.5q0 -2 -2 -4l-3 -11q0 3 -4 11q-1 -1 -1 -5v-6l-2 3v1l1 2q0 2 -1 5t-1 4l-1 -3v-25l-3 4q-1 0 -1 -3q0 -2 0.5 -6.5t0.5 -5.5zM51 153q-1 1 4 3l-2 4
q-5 0 -6.5 -6t-2.5 -6h6q1 1 1 5z" />
    <glyph glyph-name="Iacute" unicode="&#xcd;" horiz-adv-x="162" 
d="M234 820q8 0 13 -7q11 0 11 -19v-2l-1 -2q-5 -21 -17 -38q-1 -1 -3 -4t-4 -5l-11 -9q-2 0 -4 -3q-3 -6 -9 -11l1 5l-7 -11l-1 2q-2 2 -4 2l-4 -6l-12 -9q3 7 3 12t10 34l22 59l1 1v2q1 9 16 9zM57 50v-4l-1 2l-2 4v-11q-4 0 -4 -1l3 -9q-1 0 -5 3.5t-4 5.5v-3l1 -2
q0 -3 -5 -5q-1 1 -4 1q2 0 2 -3q0 -4 -3 -4t-5 1l-6 -2q-2 2 -7 2q-3 0 -3 -1q-9 10 -9 38q0 18 4 43.5t8 44t10 45t7 30.5q8 34 45 165q9 30 29.5 93.5t33 109t15.5 74.5q1 11 10 14q1 1 4 1q4 0 10 -3.5t9 -4.5q24 -9 24 -38q0 -2 -0.5 -5.5t-0.5 -5.5q-1 -20 -5.5 -43
t-11.5 -49.5t-12 -43.5t-15 -47t-12 -38q-48 -150 -74 -279q-1 -4 -4.5 -16.5t-4.5 -19.5q0 -2 -2 -4l-3 -11q0 3 -4 11q-1 -1 -1 -5v-6l-2 3v1l1 2q0 2 -1 5t-1 4l-1 -3v-25l-3 4q-1 0 -1 -3q0 -2 0.5 -6.5t0.5 -5.5zM51 153q-1 1 4 3l-2 4q-5 0 -6.5 -6t-2.5 -6h6q1 1 1 5
z" />
    <glyph glyph-name="Icircumflex" unicode="&#xce;" horiz-adv-x="162" 
d="M57 50v-4l-1 2l-2 4v-11q-4 0 -4 -1l3 -9q-1 0 -5 3.5t-4 5.5v-3l1 -2q0 -3 -5 -5q-1 1 -4 1q2 0 2 -3q0 -4 -3 -4t-5 1l-6 -2q-2 2 -7 2q-3 0 -3 -1q-9 10 -9 38q0 18 4 43.5t8 44t10 45t7 30.5q8 34 45 165q9 30 29.5 93.5t33 109t15.5 74.5q1 11 10 14q1 1 4 1
q4 0 10 -3.5t9 -4.5q24 -9 24 -38q0 -2 -0.5 -5.5t-0.5 -5.5q-1 -20 -5.5 -43t-11.5 -49.5t-12 -43.5t-15 -47t-12 -38q-48 -150 -74 -279q-1 -4 -4.5 -16.5t-4.5 -19.5q0 -2 -2 -4l-3 -11q0 3 -4 11q-1 -1 -1 -5v-6l-2 3v1l1 2q0 2 -1 5t-1 4l-1 -3v-25l-3 4q-1 0 -1 -3
q0 -2 0.5 -6.5t0.5 -5.5zM51 153q-1 1 4 3l-2 4q-5 0 -6.5 -6t-2.5 -6h6q1 1 1 5zM206 786q6 0 8 -2l13 -13q1 -3 8 -13t9 -13q5 -10 7 -15q1 -2 1 -5q0 -1 -0.5 -3t-0.5 -4q0 -4 1 -5q2 -2 2 -6v-4q-1 -3 -6 -8l-5 -5l-40 46q0 1 -1 3q-1 4 -2 4l-46 -46q-2 -2 -11 -2
q-9 3 -13 15q-1 2 -1 5q1 6 8 16q5 7 37 36q14 19 32 19z" />
    <glyph glyph-name="Idieresis" unicode="&#xcf;" horiz-adv-x="162" 
d="M148 762q5 3 14 3q11 0 19 -8t8 -18q0 -8 -8 -16t-17 -10q-4 -3 -11 -3q-15 0 -20 14q-2 1 -2 6q0 9 5.5 19t11.5 13zM216 717q0 5 1 7q0 1 -1.5 2t-1.5 2v2q-1 2 -1 3q0 5 3.5 10.5t6.5 8.5t9 8l7 5h4q12 0 24 -8q1 -4 1 -15q0 -28 -19 -34q-1 0 -3 -0.5t-4 -0.5
q-23 0 -26 10zM57 50v-4l-1 2l-2 4v-11q-4 0 -4 -1l3 -9q-1 0 -5 3.5t-4 5.5v-3l1 -2q0 -3 -5 -5q-1 1 -4 1q2 0 2 -3q0 -4 -3 -4t-5 1l-6 -2q-2 2 -7 2q-3 0 -3 -1q-9 10 -9 38q0 18 4 43.5t8 44t10 45t7 30.5q8 34 45 165q9 30 29.5 93.5t33 109t15.5 74.5q1 11 10 14
q1 1 4 1q4 0 10 -3.5t9 -4.5q24 -9 24 -38q0 -2 -0.5 -5.5t-0.5 -5.5q-1 -20 -5.5 -43t-11.5 -49.5t-12 -43.5t-15 -47t-12 -38q-48 -150 -74 -279q-1 -4 -4.5 -16.5t-4.5 -19.5q0 -2 -2 -4l-3 -11q0 3 -4 11q-1 -1 -1 -5v-6l-2 3v1l1 2q0 2 -1 5t-1 4l-1 -3v-25l-3 4
q-1 0 -1 -3q0 -2 0.5 -6.5t0.5 -5.5zM51 153q-1 1 4 3l-2 4q-5 0 -6.5 -6t-2.5 -6h6q1 1 1 5z" />
    </font>
</defs>
</svg>
