<?xml version="1.0" standalone="no"?>
<!DOCTYPE svg PUBLIC "-//W3C//DTD SVG 1.1//EN" "http://www.w3.org/Graphics/SVG/1.1/DTD/svg11.dtd" >
<svg xmlns="http://www.w3.org/2000/svg">
<metadata>Generated by IcoMoon</metadata>
<defs>
<font id="custom-icons" horiz-adv-x="1024">
<font-face units-per-em="1024" ascent="960" descent="-64" />
<missing-glyph horiz-adv-x="1024" />
<glyph unicode="&#x20;" d="" horiz-adv-x="512" />
<glyph unicode="&#xe01b;" d="M438.836 746.447h-130.571c-15.427 0-27.978-12.553-27.978-27.977v-111.921c0-5.148 4.178-9.325 9.325-9.325s9.325 4.178 9.325 9.325v111.921c0 5.149 4.196 9.325 9.325 9.325h130.571c5.148 0 9.325 4.178 9.325 9.325s-4.178 9.325-9.325 9.325zM1035.734 746.447h-130.571c-5.148 0-9.325-4.18-9.325-9.325s4.18-9.325 9.325-9.325h130.571c5.131 0 9.325-4.178 9.325-9.325v-111.921c0-5.148 4.178-9.325 9.325-9.325s9.325 4.178 9.325 9.325v111.921c0 15.426-12.553 27.978-27.978 27.978zM1054.386 298.776c-5.149 0-9.325-4.178-9.325-9.325v-111.919c0-5.148-4.196-9.325-9.325-9.325h-130.571c-5.148 0-9.325-4.18-9.325-9.325s4.18-9.325 9.325-9.325h130.571c15.427 0 27.977 12.553 27.977 27.978v111.921c0 5.148-4.178 9.325-9.325 9.325zM289.613 298.776c-5.148 0-9.325-4.178-9.325-9.325v-111.919c0-15.427 12.553-27.977 27.978-27.977h130.571c5.148 0 9.325 4.18 9.325 9.325s-4.178 9.325-9.325 9.325h-130.571c-5.131 0-9.325 4.18-9.325 9.325v111.919c0 5.148-4.178 9.325-9.325 9.325zM718.632 392.040c5.149 0 9.325 4.18 9.325 9.325v93.265c0 5.149-4.18 9.325-9.325 9.325h-93.263c-5.148 0-9.325-4.178-9.325-9.325v-93.265c0-5.148 4.18-9.325 9.325-9.325h93.263zM634.692 485.308h74.611v-74.611h-74.611v74.611z" horiz-adv-x="1344" />
<glyph unicode="&#xe810;" d="M512 845.312c211.968 0 382.976-172.032 384-382.976l109.568 104.448 18.432-18.432-140.288-135.168-134.144 135.168 18.432 18.432 102.4-104.448c-1.024 196.608-160.768 357.376-358.4 357.376s-358.4-160.768-358.4-358.4 160.768-358.4 358.4-358.4c157.696 0 290.816 101.376 338.944 242.688l24.576-7.168c-51.2-151.552-194.56-262.144-363.52-262.144-211.968 0-384 173.056-384 385.024s172.032 384 384 384z" />
<glyph unicode="&#xe821;" d="M352.187 925.587c-154.541 0-320.253-122.888-320.253-320.253 0-97.752 39.101-179.677 113.578-242.052 0.931-0.931 1.862-1.862 2.793-2.793 54.927-59.582 57.72-70.754 57.72-97.752 0.931-10.241 0.931-13.034 0-14.896v-6.517c0-13.034-0.931-34.446 26.067-42.825l235.535-52.134c1.862 0 2.793 0 3.724 0 6.517 0 12.103 4.655 13.965 11.172 1.862 7.448-2.793 15.826-11.172 17.688l-234.604 51.203c-3.724 0.931-4.655 0.931-3.724 13.965v5.586c0 0 0 2.793 0 17.688-0.931 36.308-9.31 54.927-67.030 118.233-1.862 0.931-2.793 1.862-4.655 2.793-67.961 58.651-103.338 132.198-103.338 220.64 0 179.677 150.817 290.462 291.393 290.462 142.438 0 290.462-108.923 290.462-290.462 0-116.371-55.858-179.677-102.407-219.709-0.931-0.931-2.793-1.862-3.724-3.724-59.582-63.306-67.961-81.925-67.961-118.233 0-0.931 0-1.862 0-2.793v-1.862c0-1.862-0.931-2.793-0.931-3.724-0.931 0-2.793 0.931-2.793 0.931l-121.957 28.86c-8.379 1.862-15.826-3.724-17.688-11.172s2.793-15.826 11.172-17.688l120.095-27.929c1.862-0.931 15.826-5.586 27.929 2.793 5.586 3.724 12.103 11.172 13.034 25.136v1.862c0 0.931 0 1.862 0 2.793 0 0 0 0.931 0 0.931v0.931c0.931 26.067 3.724 38.17 58.651 97.752 0 0 0 0.931 0.931 0.931 77.27 65.168 115.44 145.231 115.44 243.914 0 200.158-162.92 320.253-320.253 320.253zM468.558 67.234c6.517 0 12.103 3.724 13.965 11.172s-2.793 15.826-11.172 16.757l-232.742 53.065c-7.448 1.862-15.826-2.793-16.757-11.172-1.862-7.448 2.793-14.896 10.241-16.757l232.742-53.065c1.862 0 2.793 0 3.724 0zM253.504 65.372c-8.379 1.862-15.826-3.724-17.688-11.172s3.724-15.826 11.172-17.688l188.987-41.894c0.931 0 1.862-0.931 3.724-0.931 6.517 0 12.103 4.655 13.965 12.103s-3.724 14.895-11.172 16.757l-188.987 42.825z" horiz-adv-x="703" />
<glyph unicode="&#xe854;" d="M259.014 118.206c3.171 0 7.399 1.057 10.57 3.171l507.375 317.11c6.342 4.228 10.57 10.57 10.57 17.97s-4.228 13.741-10.57 17.97l-507.375 317.11c-6.342 4.228-14.798 4.228-21.141 1.057-6.342-4.228-10.57-11.627-10.57-19.027v-634.219c0-7.399 4.228-14.798 10.57-17.97 3.171-2.114 6.342-3.171 10.57-3.171zM280.154 735.513l446.068-279.057-446.068-279.057v558.113z" />
<glyph unicode="&#xe855;" d="M428.494 778.851c0 11.627-9.513 21.141-21.141 21.141h-159.612c-11.627 0-21.141-9.513-21.141-21.141v-634.219c0-12.684 9.513-21.141 21.141-21.141h159.612c11.627 0 21.141 8.456 21.141 21.141v634.219zM386.213 165.772h-117.331v591.938h117.331v-591.938zM712.836 799.992h-158.555c-12.684 0-21.141-9.513-21.141-21.141v-634.219c0-12.684 8.456-21.141 21.141-21.141h158.555c11.627 0 21.141 8.456 21.141 21.141v634.219c0 11.627-9.513 21.141-21.141 21.141zM691.695 165.772h-116.274v591.938h116.274v-591.938z" />
<glyph unicode="&#xe883;" d="M512 928.981c-140.306 0-255.626-115.32-255.626-255.626v-450.709c0-140.306 115.32-255.626 255.626-255.626 141.267 0 255.626 115.32 255.626 255.626v450.709c0 140.306-114.359 255.626-255.626 255.626zM736.874 222.645c0-123.969-100.905-224.874-224.874-224.874s-224.874 100.905-224.874 224.874v450.709c0 123.969 100.905 224.874 224.874 224.874s224.874-100.905 224.874-224.874zM496.624 778.103h30.752v-120.125h-30.752z" />
<glyph unicode="&#xe890;" d="M733.5 460.548l-291.332 290.241-26.187-26.187 277.147-276.056-279.329-277.147 28.37-26.187 291.332 290.241z" />
<glyph unicode="&#xe893;" d="M582.923 767.838l-292.423-290.241v-25.096l292.423-290.241 25.096 26.187-277.147 277.147 277.147 276.056z" />
<glyph unicode="&#xe894;" d="M512 5.459l-198.927 198.927-22.103-24.986 209.498-212.381h21.142l210.459 212.381-21.142 23.064zM502.39 928.981l-211.42-212.381 22.103-23.064 198.927 198.927 200.849-198.927 21.142 23.064-210.459 212.381zM602.334 448.48c0 49.972-41.323 89.373-90.334 89.373-50.933 0-90.334-39.401-90.334-89.373 0-49.011 39.401-90.334 90.334-90.334 49.011 0 90.334 41.323 90.334 90.334zM452.418 448.48c0 33.635 25.947 59.582 59.582 59.582 31.713 0 60.543-25.947 60.543-59.582 0-32.674-28.83-60.543-60.543-60.543-33.635 0-59.582 27.869-59.582 60.543zM756.094 647.407l200.849-198.927-200.849-198.927 24.025-23.064 212.381 210.459v22.103l-212.381 210.459zM265.984 649.33l-22.103 20.181-212.381-210.459v-20.181l212.381-210.459 22.103 21.142-198.927 200.849z" />
<glyph unicode="&#xe8bd;" d="M379.904 580.096c-6.144-6.144-17.408-6.144-23.552 0l-148.48 134.144v-570.368c0-8.192-8.192-15.36-15.36-15.36s-16.384 7.168-16.384 15.36v570.368l-148.48-134.144c-5.12-6.144-17.408-6.144-23.552 0s-6.144 18.432 0 23.552c0 0 174.080 158.72 176.128 160.768s6.144 4.096 12.288 4.096 9.216-2.048 11.264-4.096 176.128-160.768 176.128-160.768c4.096-4.096 4.096-7.168 4.096-11.264s0-8.192-4.096-12.288z" horiz-adv-x="384" />
<glyph unicode="&#xe8be;" d="M451.584 259.584c-5.12 6.144-5.12 18.432 0 24.576l134.144 147.456h-569.344c-8.192 0-16.384 8.192-16.384 16.384s8.192 16.384 16.384 16.384h569.344l-134.144 147.456c-5.12 6.144-5.12 18.432 0 24.576s18.432 6.144 24.576 0c0 0 157.696-174.080 159.744-176.128s4.096-6.144 4.096-12.288-2.048-10.24-4.096-12.288-159.744-176.128-159.744-176.128c-4.096-3.072-8.192-3.072-12.288-3.072s-8.192 0-12.288 3.072z" horiz-adv-x="640" />
<glyph unicode="&#xe8d0;" d="M379.904 315.904c4.096-4.096 4.096-8.192 4.096-12.288s0-7.168-4.096-11.264c0 0-174.080-158.72-176.128-160.768s-6.144-3.072-11.264-3.072-10.24 2.048-12.288 3.072-176.128 160.768-176.128 160.768c-6.144 6.144-6.144 17.408 0 23.552s18.432 6.144 23.552 0l148.48-134.144v570.368c0 8.192 8.192 16.384 16.384 16.384s15.36-8.192 15.36-16.384v-570.368l148.48 134.144c6.144 6.144 17.408 6.144 23.552 0z" horiz-adv-x="384" />
<glyph unicode="&#xe8d1;" d="M188.416 259.584c-4.096-3.072-8.192-3.072-12.288-3.072s-8.192 0-12.288 3.072c0 0-157.696 174.080-159.744 176.128s-4.096 6.144-4.096 12.288 2.048 10.24 4.096 12.288 159.744 176.128 159.744 176.128c6.144 6.144 18.432 6.144 24.576 0s6.144-18.432 0-24.576l-134.144-147.456h569.344c8.192 0 16.384-8.192 16.384-16.384s-8.192-16.384-16.384-16.384h-569.344l134.144-147.456c6.144-6.144 6.144-18.432 0-24.576z" horiz-adv-x="640" />
<glyph unicode="&#xe8d3;" d="M899.011 329.928c4.919-4.919 4.919-13.119 0-18.859-3.28-2.46-6.56-3.28-9.84-3.28s-6.56 0.821-9.020 3.28l-117.253 117.253-117.253-117.253c-2.46-2.46-5.74-3.28-9.020-3.28s-6.56 0.821-9.020 3.28c-5.74 5.74-5.74 13.938 0 18.859l116.432 117.253-116.432 117.253c-5.74 4.919-5.74 13.119 0 18.038 4.919 5.74 13.119 5.74 18.038 0l117.253-116.432 117.253 116.432c4.919 5.74 13.119 5.74 18.859 0 4.919-4.919 4.919-13.119 0-18.038l-117.253-117.253 117.253-117.253zM538.238 721.040v-546.080c0-15.578-2.46-27.879-8.2-36.898-6.56-10.66-17.219-16.398-29.518-16.398s-25.418 6.56-38.538 18.859l-150.868 135.291c-7.379 6.56-13.938 14.759-21.318 24.599h-110.691c-31.977 0-57.397 25.418-57.397 57.396v180.387c0 31.977 25.418 57.396 57.397 57.396h110.691c7.379 9.84 13.938 18.038 21.318 24.598l150.868 135.291c13.119 12.299 26.238 18.859 38.538 18.859 18.859 0 37.718-13.938 37.718-53.296zM512 721.040c0 4.919 0 26.238-10.66 26.238-3.28 0-10.66-0.821-22.139-11.48l-150.868-135.291c-6.56-6.56-13.119-14.759-20.498-25.418-2.46-3.28-6.56-5.74-10.66-5.74h-118.072c-17.219 0-31.157-13.938-31.157-31.157v-180.387c0-17.219 13.938-31.158 31.157-31.158h118.072c4.1 0 8.2-2.46 10.66-5.74 6.56-10.66 13.938-18.859 20.498-25.418l150.868-135.291c11.48-10.66 18.859-11.48 21.318-11.48s4.919 0 7.379 4.1c1.64 2.46 4.1 9.020 4.1 22.138v546.080z" />
<glyph unicode="&#xe8d4;" d="M500.52 773.516c-12.299 0-25.418-5.74-39.356-18.038l-150.049-135.291c-7.379-6.56-13.938-14.759-21.318-24.598h-110.691c-31.977 0-57.397-25.418-57.397-57.396v-180.387c0-31.977 25.418-57.396 57.397-57.396h110.691c6.56-9.84 13.938-18.038 21.318-24.599l150.049-135.291c13.938-12.299 27.058-18.038 39.356-18.038s22.139 5.74 28.698 15.578c6.56 9.020 9.020 21.318 9.020 36.898v546.080c0 38.538-19.679 52.476-37.718 52.476zM512 174.96c0-13.12-2.46-19.679-4.919-22.139-1.64-4.1-4.1-4.1-6.56-4.1s-9.84 0.821-21.318 11.48l-150.868 135.291c-6.56 6.56-13.938 14.759-20.498 25.418-2.46 4.1-6.56 5.74-10.66 5.74h-118.072c-17.219 0-31.157 13.938-31.157 31.158v180.387c0 17.219 13.938 31.158 31.157 31.158h118.072c4.1 0 8.199 2.46 10.66 5.74 6.56 10.66 13.938 18.859 20.498 25.418l150.868 135.291c11.48 10.66 18.859 11.48 21.318 11.48 10.66 0 11.48-21.318 11.48-26.238v-546.080zM742.403 631.666c67.234-113.152 67.234-254.181 0-367.333-2.46-4.1-7.379-6.56-11.48-6.56-2.46 0-4.919 0.821-6.56 1.64-6.56 4.1-9.020 12.299-4.919 18.038 63.136 104.951 63.136 236.143 0 341.095-4.1 6.56-1.64 13.938 4.919 18.038 5.74 4.1 13.938 1.64 18.038-4.919zM644.010 581.651c49.196-82.814 49.196-184.487 0-267.3-2.46-4.1-7.379-6.56-11.48-6.56-2.46 0-4.919 0.821-6.56 2.46-6.56 3.28-8.2 11.48-4.919 18.038 44.277 73.795 44.277 165.628 0 239.423-3.28 6.56-1.64 14.759 4.919 18.038 5.74 4.1 13.938 1.64 18.038-4.1zM817.837 157.741c-3.28-4.1-7.379-5.74-11.48-5.74-2.46 0-4.919 0.821-7.379 1.64-5.74 4.1-7.379 12.299-3.28 18.859 107.412 167.268 107.412 383.732 0 551-4.1 6.56-2.46 14.759 3.28 18.859 6.56 3.28 14.759 1.64 18.859-4.1 113.152-176.287 113.152-404.23 0-580.518z" />
<glyph unicode="&#xe8d5;" d="M586.494 802.834c-13.418 0-28.327-6.709-43.235-20.128l-163.999-147.6c-7.456-6.709-14.909-15.655-23.11-26.090h-120.762c-34.291 0-62.618-28.326-62.618-62.618v-196.799c0-34.291 28.326-62.618 62.618-62.618h120.762c7.456-10.436 15.655-19.382 23.11-26.090l163.999-147.6c14.909-13.418 29.818-20.128 43.235-20.128 12.671 0 23.855 5.964 31.308 17.146 5.964 10.436 9.691 23.109 9.691 39.508v596.359c0 41.745-21.618 56.654-40.999 56.654zM598.421 149.82c0-14.162-2.982-20.873-5.219-23.854-2.237-3.728-4.472-4.472-6.709-4.472-2.983 0-11.182 1.491-23.855 12.671l-163.999 147.6c-7.455 6.709-14.909 16.399-22.363 27.582-2.982 3.728-7.456 6.709-11.927 6.709h-128.963c-18.635 0-33.546 14.909-33.546 33.546v196.799c0 18.635 14.909 34.291 33.546 34.291h128.218c5.219 0 9.691 2.237 12.671 5.964 7.455 11.927 14.909 20.873 22.363 27.582l163.999 147.6c12.671 11.182 20.873 12.671 23.855 12.671 11.182 0 11.927-23.854 11.927-28.326v-596.359z" />
<glyph unicode="&#xe8de;" d="M831.208 145.736c4.745-4.745 4.745-12.199 0-16.942-2.033-2.033-5.422-3.389-8.811-3.389-2.712 0-6.099 1.355-8.133 3.389l-302.264 302.264-302.264-302.264c-2.033-2.033-5.422-3.389-8.133-3.389s-6.099 1.355-8.811 3.389c-4.745 4.745-4.745 12.199 0 16.942l302.264 302.264-302.264 302.264c-4.745 4.745-4.745 12.199 0 16.942s12.199 4.745 16.942 0l302.264-302.264 302.264 302.264c4.745 4.745 12.199 4.745 16.942 0s4.745-12.199 0-16.942l-302.264-302.264 302.264-302.264z" />
<glyph unicode="&#xe8e0;" d="M996.352 454.144c-113.664 153.6-271.36 330.752-484.352 330.752-177.152 0-316.416-124.928-483.328-326.656-5.12-6.144-5.12-14.336 0-20.48l13.312-17.408c139.264-165.888 259.072-308.224 470.016-308.224s368.64 186.368 473.088 309.248l10.24 12.288c5.12 6.144 5.12 14.336 1.024 20.48zM960.512 442.88c-106.496-125.952-252.928-297.984-448.512-297.984s-311.296 137.216-444.416 296.96l-5.12 6.144c160.768 192.512 287.744 303.104 449.536 303.104 193.536 0 342.016-160.768 450.56-306.176l-2.048-2.048zM512 612.864c-91.136 0-164.864-73.728-164.864-164.864s73.728-164.864 164.864-164.864c91.136 0 164.864 74.752 164.864 164.864s-73.728 164.864-164.864 164.864zM512 316.928c-72.704 0-132.096 58.368-132.096 131.072s59.392 132.096 132.096 132.096 131.072-59.392 131.072-132.096c0-72.704-58.368-131.072-131.072-131.072z" />
<glyph unicode="&#xe8f4;" d="M258.862 145.25c-2.545 0-5.089 0.636-6.997 1.907-3.816 1.907-6.36 6.361-6.36 11.449v578.786c0 5.089 2.545 9.54 6.36 11.449 4.453 2.546 8.904 2.546 13.357 0.636l506.915-290.028c3.816-1.907 6.361-6.36 6.361-11.449s-2.545-8.904-6.361-11.449l-506.915-289.394c-1.907-1.272-4.453-1.907-6.361-1.907zM271.583 714.494v-532.992l466.845 266.494-466.845 266.494z" />
<glyph unicode="&#xe8f5;" d="M432.498 145.25c-6.997 0-12.083 5.089-12.083 12.083v581.328c0 6.997 5.089 12.083 12.083 12.083 6.361 0 12.083-5.089 12.083-12.083v-581.328c0-6.997-5.723-12.083-12.083-12.083zM603.588 157.335v581.328c0 6.997-5.089 12.083-12.083 12.083-6.361 0-12.083-5.089-12.083-12.083v-581.328c0-6.997 5.723-12.083 12.083-12.083 6.997 0 12.083 5.089 12.083 12.083z" />
<glyph unicode="&#xe92f;" d="M823.993 344.809l-298.477 301.856h-27.032l-298.477-301.856 25.906-25.906 286.087 286.087 286.087-286.087z" />
<glyph unicode="&#xe930;" d="M798.087 624.138l-286.087-288.34-286.087 288.34-25.906-28.158 298.477-301.856h27.032l298.477 301.856z" />
<glyph unicode="&#xe937;" d="M711.076 766.332v-20.352h85.228l-232.15-230.877 15.265-14.629 230.877 232.15v-85.863h19.717v109.397l-10.176 10.176zM445.217 396.164l-231.515-232.786v85.863h-19.717v-109.397l10.176-10.176h109.397v20.352h-85.863l232.15 230.877zM583.873 361.181l-159.006 159.006 15.265 14.629 159.006-159.006z" />
<glyph unicode="&#xe938;" d="M213.703 732.623l191.444-192.717 15.265 15.265-192.717 190.807h85.863v20.353h-109.397l-10.176-10.176v-109.397h19.717zM313.56 129.668v20.352h-85.863l192.717 191.444-15.265 14.629-191.444-192.717v85.863h-19.717v-109.397l10.176-10.176zM810.297 163.378l-191.444 192.717-14.629-14.629 192.083-191.444h-85.228v-20.352h108.761l10.176 10.176v109.397h-19.717zM711.076 766.332v-20.352h85.228l-192.083-190.807 14.629-15.265 191.444 192.717v-85.863h19.717v109.397l-10.176 10.176z" />
</font>
</defs>
</svg>
